  0
SECTION
  2
HEADER
  9
$ACADVER
  1
AC1015
  9
$ACADMAINTVER
 70
               6
  9
$DWGCODEPAGE
  3
ANSI_932
  9
$INSBASE
 10
0.0
 20
0.0
 30
0.0
  9
$EXTMIN
 10
5242.6408935367845
 20
-69.9951642787114
 30
0.0
  9
$EXTMAX
 10
7172.6408935367845
 20
1330.0048357212886
 30
0.0
  9
$LIMMIN
 10
0.0
 20
0.0
  9
$LIMMAX
 10
0.0
 20
0.0
  9
$ORTHOMODE
 70
               0
  9
$REGENMODE
 70
               1
  9
$FILLMODE
 70
               1
  9
$QTEXTMODE
 70
               0
  9
$MIRRTEXT
 70
               1
  9
$LTSCALE
 40
12.699999999999999
  9
$ATTMODE
 70
               1
  9
$TEXTSIZE
 40
0.2
  9
$TRACEWID
 40
1.0
  9
$TEXTSTYLE
  7
Standard
  9
$CLAYER
  8
一般
  9
$CELTYPE
  6
Continuous
  9
$CECOLOR
 62
             256
  9
$CELTSCALE
 40
1.0
  9
$DISPSILH
 70
               0
  9
$DIMSCALE
 40
1.0
  9
$DIMASZ
 40
7.5034179687499991
  9
$DIMEXO
 40
4.9999999999999991
  9
$DIMDLI
 40
4.9999999999999991
  9
$DIMRND
 40
0.0
  9
$DIMDLE
 40
0.0
  9
$DIMEXE
 40
0.0
  9
$DIMTP
 40
0.0
  9
$DIMTM
 40
0.0
  9
$DIMTXT
 40
15.585611979166666
  9
$DIMCEN
 40
0.0
  9
$DIMTSZ
 40
0.0
  9
$DIMTOL
 70
               0
  9
$DIMLIM
 70
               0
  9
$DIMTIH
 70
               0
  9
$DIMTOH
 70
               0
  9
$DIMSE1
 70
               0
  9
$DIMSE2
 70
               0
  9
$DIMTAD
 70
               1
  9
$DIMZIN
 70
              11
  9
$DIMBLK
  1
VW_FILLEDARROW
  9
$DIMASO
 70
               1
  9
$DIMSHO
 70
               1
  9
$DIMPOST
  1
<>
  9
$DIMAPOST
  1
[]
  9
$DIMALT
 70
               0
  9
$DIMALTD
 70
               2
  9
$DIMALTF
 40
1.0
  9
$DIMLFAC
 40
1.0
  9
$DIMTOFL
 70
               1
  9
$DIMTVP
 40
0.0
  9
$DIMTIX
 70
               1
  9
$DIMSOXD
 70
               0
  9
$DIMSAH
 70
               0
  9
$DIMBLK1
  1

  9
$DIMBLK2
  1

  9
$DIMSTYLE
  2
Ekitchen
  9
$DIMCLRD
 70
               0
  9
$DIMCLRE
 70
               0
  9
$DIMCLRT
 70
               0
  9
$DIMTFAC
 40
0.8
  9
$DIMGAP
 40
0.7999999999999999
  9
$DIMJUST
 70
               0
  9
$DIMSD1
 70
               0
  9
$DIMSD2
 70
               0
  9
$DIMTOLJ
 70
               1
  9
$DIMTZIN
 70
              11
  9
$DIMALTZ
 70
              11
  9
$DIMALTTZ
 70
              11
  9
$DIMUPT
 70
               0
  9
$DIMDEC
 70
               2
  9
$DIMTDEC
 70
               2
  9
$DIMALTU
 70
               2
  9
$DIMALTTD
 70
               2
  9
$DIMTXSTY
  7
メイリオ
  9
$DIMAUNIT
 70
               0
  9
$DIMADEC
 70
               0
  9
$DIMALTRND
 40
0.0
  9
$DIMAZIN
 70
               0
  9
$DIMDSEP
 70
              46
  9
$DIMATFIT
 70
               0
  9
$DIMFRAC
 70
               2
  9
$DIMLDRBLK
  1

  9
$DIMLUNIT
 70
               2
  9
$DIMLWD
 70
              -2
  9
$DIMLWE
 70
              -2
  9
$DIMTMOVE
 70
               0
  9
$LUNITS
 70
               2
  9
$LUPREC
 70
               4
  9
$SKETCHINC
 40
0.1
  9
$FILLETRAD
 40
0.0
  9
$AUNITS
 70
               0
  9
$AUPREC
 70
               0
  9
$MENU
  1
acad
  9
$ELEVATION
 40
0.0
  9
$PELEVATION
 40
0.0
  9
$THICKNESS
 40
0.0
  9
$LIMCHECK
 70
               0
  9
$CHAMFERA
 40
0.0
  9
$CHAMFERB
 40
0.0
  9
$CHAMFERC
 40
0.0
  9
$CHAMFERD
 40
0.0
  9
$SKPOLY
 70
               0
  9
$TDCREATE
 40
2458285.736504630
  9
$TDUCREATE
 40
0.000000000
  9
$TDUPDATE
 40
2458285.736504630
  9
$TDUUPDATE
 40
0.000000000
  9
$TDINDWG
 40
0.0000000000
  9
$TDUSRTIMER
 40
0.0000000000
  9
$USRTIMER
 70
               1
  9
$ANGBASE
 50
0.0
  9
$ANGDIR
 70
               0
  9
$PDMODE
 70
               1
  9
$PDSIZE
 40
-2.0
  9
$PLINEWID
 40
0.0
  9
$SPLFRAME
 70
               0
  9
$SPLINETYPE
 70
               6
  9
$SPLINESEGS
 70
               8
  9
$HANDSEED
  5
2B6
  9
$SURFTAB1
 70
               6
  9
$SURFTAB2
 70
               6
  9
$SURFTYPE
 70
               6
  9
$SURFU
 70
               6
  9
$SURFV
 70
               6
  9
$UCSBASE
  2

  9
$UCSNAME
  2

  9
$UCSORG
 10
0.0
 20
0.0
 30
0.0
  9
$UCSXDIR
 10
1.0
 20
0.0
 30
0.0
  9
$UCSYDIR
 10
0.0
 20
1.0
 30
0.0
  9
$UCSORTHOREF
  2

  9
$UCSORTHOVIEW
 70
               0
  9
$UCSORGTOP
 10
0.0
 20
0.0
 30
0.0
  9
$UCSORGBOTTOM
 10
0.0
 20
0.0
 30
0.0
  9
$UCSORGLEFT
 10
0.0
 20
0.0
 30
0.0
  9
$UCSORGRIGHT
 10
0.0
 20
0.0
 30
0.0
  9
$UCSORGFRONT
 10
0.0
 20
0.0
 30
0.0
  9
$UCSORGBACK
 10
0.0
 20
0.0
 30
0.0
  9
$PUCSBASE
  2

  9
$PUCSNAME
  2

  9
$PUCSORG
 10
0.0
 20
0.0
 30
0.0
  9
$PUCSXDIR
 10
1.0
 20
0.0
 30
0.0
  9
$PUCSYDIR
 10
0.0
 20
1.0
 30
0.0
  9
$PUCSORTHOREF
  2

  9
$PUCSORTHOVIEW
 70
               0
  9
$PUCSORGTOP
 10
0.0
 20
0.0
 30
0.0
  9
$PUCSORGBOTTOM
 10
0.0
 20
0.0
 30
0.0
  9
$PUCSORGLEFT
 10
0.0
 20
0.0
 30
0.0
  9
$PUCSORGRIGHT
 10
0.0
 20
0.0
 30
0.0
  9
$PUCSORGFRONT
 10
0.0
 20
0.0
 30
0.0
  9
$PUCSORGBACK
 10
0.0
 20
0.0
 30
0.0
  9
$USERI1
 70
               0
  9
$USERI2
 70
               0
  9
$USERI3
 70
               0
  9
$USERI4
 70
               0
  9
$USERI5
 70
               0
  9
$USERR1
 40
0.0
  9
$USERR2
 40
0.0
  9
$USERR3
 40
0.0
  9
$USERR4
 40
0.0
  9
$USERR5
 40
0.0
  9
$WORLDVIEW
 70
               1
  9
$SHADEDGE
 70
               3
  9
$SHADEDIF
 70
              70
  9
$TILEMODE
 70
               1
  9
$MAXACTVP
 70
              16
  9
$PINSBASE
 10
0.0
 20
0.0
 30
0.0
  9
$PLIMCHECK
 70
               0
  9
$PEXTMIN
 10
1.0000000000000000E+20
 20
1.0000000000000000E+20
 30
1.0000000000000000E+20
  9
$PEXTMAX
 10
-1.0000000000000000E+20
 20
-1.0000000000000000E+20
 30
-1.0000000000000000E+20
  9
$PLIMMIN
 10
0.0
 20
0.0
  9
$PLIMMAX
 10
12.0
 20
9.0
  9
$UNITMODE
 70
               0
  9
$VISRETAIN
 70
               0
  9
$PLINEGEN
 70
               1
  9
$PSLTSCALE
 70
               0
  9
$TREEDEPTH
 70
            3020
  9
$CMLSTYLE
  2
Standard
  9
$CMLJUST
 70
               0
  9
$CMLSCALE
 40
1.0
  9
$PROXYGRAPHICS
 70
               0
  9
$MEASUREMENT
 70
               1
  9
$CELWEIGHT
370
               0
  9
$ENDCAPS
280
               0
  9
$JOINSTYLE
280
               0
  9
$LWDISPLAY
290
               1
  9
$INSUNITS
 70
               4
  9
$HYPERLINKBASE
  1

  9
$STYLESHEET
  1

  9
$XEDIT
290
               1
  9
$CEPSNTYPE
380
               0
  9
$PSTYLEMODE
290
               1
  9
$FINGERPRINTGUID
  2

  9
$VERSIONGUID
  2

  9
$EXTNAMES
290
               1
  9
$PSVPSCALE
 40
0.0
  0
ENDSEC
  0
SECTION
  2
CLASSES
  0
CLASS
  1
LWPOLYLINE
  2
AcDbPolyline
  3
AutoCAD 2000
 90
    32768
280
               0
281
               1
  0
CLASS
  1
IMAGE
  2
AcDbRasterImage
  3
ISM
 90
    32895
280
               0
281
               1
  0
CLASS
  1
OLE2FRAME
  2
AcDbOle2Frame
  3
AutoCAD 2000
 90
    32768
280
               0
281
               1
  0
CLASS
  1
HATCH
  2
AcDbHatch
  3
AutoCAD 2000
 90
        0
280
               0
281
               1
  0
CLASS
  1
DICTIONARYVAR
  2
AcDbDictionaryVar
  3
AutoCAD 2000
 90
    32768
280
               0
281
               0
  0
CLASS
  1
RASTERVARIABLES
  2
AcDbRasterVariables
  3
ISM
 90
    32768
280
               0
281
               0
  0
CLASS
  1
IMAGEDEF
  2
AcDbRasterImageDef
  3
ISM
 90
    32768
280
               0
281
               0
  0
CLASS
  1
IMAGEDEF_REACTOR
  2
AcDbRasterImageDefReactor
  3
ISM
 90
    32769
280
               0
281
               0
  0
CLASS
  1
IDBUFFER
  2
AcDbIdBuffer
  3
AutoCAD 2000
 90
    32768
280
               0
281
               0
  0
CLASS
  1
SPATIAL_FILTER
  2
AcDbSpatialFilter
  3
AutoCAD 2000
 90
    32768
280
               0
281
               0
  0
CLASS
  1
XRECORD
  2
AcDbXrecord
  3
AutoCAD 2000
 90
    32768
280
               0
281
               0
  0
CLASS
  1
SORTENTSTABLE
  2
AcDbSortentsTable
  3
AutoCAD 2000
 90
    32768
280
               0
281
               0
  0
CLASS
  1
LAYER_INDEX
  2
AcDbLayerIndex
  3
AutoCAD 2000
 90
    32768
280
               0
281
               0
  0
CLASS
  1
SPATIAL_INDEX
  2
AcDbSpatialIndex
  3
AutoCAD 2000
 90
    32768
280
               0
281
               0
  0
CLASS
  1
OBJECT_PTR
  2
CAseDLPNTableRecord
  3
"ASE-LPNTableRecord"
 90
    32769
280
               0
281
               0
  0
CLASS
  1
LAYOUT
  2
AcDbLayout
  3
AutoCAD 2000
 90
        0
280
               0
281
               0
  0
CLASS
  1
PLOTSETTINGS
  2
AcDbPlotSettings
  3
AutoCAD 2000
 90
    32768
280
               0
281
               0
  0
CLASS
  1
ACDBDICTIONARYWDFLT
  2
AcDbDictionaryWithDefault
  3
AutoCAD 2000
 90
        0
280
               0
281
               0
  0
CLASS
  1
ACDBPLACEHOLDER
  2
AcDbPlaceHolder
  3
AutoCAD 2000
 90
        0
280
               0
281
               0
  0
CLASS
  1
VBA_PROJECT
  2
AcDbVbaProject
  3
acadvba
 90
    32768
280
               0
281
               0
  0
CLASS
  1
WIPEOUT
  2
AcDbWipeout
  3
WipeOut|AutoCAD Express Tool|expresstools@autodesk.com
 90
      127
280
               0
281
               1
  0
CLASS
  1
WIPEOUTVARIABLES
  2
AcDbWipeoutVariables
  3
WipeOut|AutoCAD Express Tool|expresstools@autodesk.com
 90
        0
280
               0
281
               0
  0
CLASS
  1
RTEXT
  2
RText
  3
RText|AutoCAD Express Tool|expresstools@autodesk.com
 90
    32768
280
               0
281
               1
  0
CLASS
  1
ARCALIGNEDTEXT
  2
AcDbArcAlignedText
  3
ATEXT|AutoCAD Express Tool|expresstools@autodesk.com
 90
    32768
280
               0
281
               1
  0
ENDSEC
  0
SECTION
  2
TABLES
  0
TABLE
  2
VPORT
  5
7
100
AcDbSymbolTable
 70
               1
  0
VPORT
  5
15
100
AcDbSymbolTableRecord
100
AcDbViewportTableRecord
  2
*ACTIVE
 70
               0
 10
0.0
 20
0.0
 11
1.0
 21
1.0
 12
6207.6408935367845
 22
630.0048357212886
 13
0.0
 23
0.0
 14
1.0
 24
1.0
 15
0.0
 25
0.0
 16
0.0
 26
0.0
 36
1.0
 17
0.0
 27
0.0
 37
0.0
 40
1400.0
 41
0.688564
 42
50.0
 43
0.0
 44
0.0
 50
0.0
 51
0.0
 71
               0
 72
             100
 73
               1
 74
               1
 75
               0
 76
               0
 77
               0
 78
               0
281
               0
 65
               0
110
0.0
120
0.0
130
0.0
111
1.0
121
0.0
131
0.0
112
0.0
122
1.0
132
0.0
345
0
346
0
 79
               0
146
0.0
  0
ENDTAB
  0
TABLE
  2
LTYPE
  5
4
100
AcDbSymbolTable
 70
              22
  0
LTYPE
  5
11
100
AcDbSymbolTableRecord
100
AcDbLinetypeTableRecord
  2
ByBlock
 70
              64
  3

 72
              65
 73
               0
 40
0.0
  0
LTYPE
  5
12
100
AcDbSymbolTableRecord
100
AcDbLinetypeTableRecord
  2
ByLayer
 70
              64
  3

 72
              65
 73
               0
 40
0.0
  0
LTYPE
  5
13
100
AcDbSymbolTableRecord
100
AcDbLinetypeTableRecord
  2
Continuous
 70
              64
  3
Solid line
 72
              65
 73
               0
 40
0.0
  0
LTYPE
  5
43
100
AcDbSymbolTableRecord
100
AcDbLinetypeTableRecord
  2
STYLE_01
 70
               0
  3

 72
              65
 73
               2
 40
0.3
 49
0.24
 74
               0
 49
-0.06
 74
               0
  0
LTYPE
  5
44
100
AcDbSymbolTableRecord
100
AcDbLinetypeTableRecord
  2
STYLE_02
 70
               0
  3

 72
              65
 73
               2
 40
0.6
 49
0.24
 74
               0
 49
-0.36
 74
               0
  0
LTYPE
  5
45
100
AcDbSymbolTableRecord
100
AcDbLinetypeTableRecord
  2
STYLE_03
 70
               0
  3

 72
              65
 73
               4
 40
0.6100000000000003
 49
0.48
 74
               0
 49
-0.0600000000000001
 74
               0
 49
0.01
 74
               0
 49
-0.0600000000000001
 74
               0
  0
LTYPE
  5
46
100
AcDbSymbolTableRecord
100
AcDbLinetypeTableRecord
  2
STYLE_04
 70
               0
  3

 72
              65
 73
               6
 40
0.6800000000000004
 49
0.48
 74
               0
 49
-0.0600000000000001
 74
               0
 49
0.01
 74
               0
 49
-0.0600000000000001
 74
               0
 49
0.01
 74
               0
 49
-0.0600000000000001
 74
               0
  0
LTYPE
  5
47
100
AcDbSymbolTableRecord
100
AcDbLinetypeTableRecord
  2
STYLE_05
 70
               0
  3

 72
              65
 73
               8
 40
0.7500000000000004
 49
0.48
 74
               0
 49
-0.0600000000000001
 74
               0
 49
0.01
 74
               0
 49
-0.0600000000000001
 74
               0
 49
0.01
 74
               0
 49
-0.0600000000000001
 74
               0
 49
0.01
 74
               0
 49
-0.0600000000000001
 74
               0
  0
LTYPE
  5
48
100
AcDbSymbolTableRecord
100
AcDbLinetypeTableRecord
  2
STYLE_06
 70
               0
  3

 72
              65
 73
               2
 40
0.07
 49
0.01
 74
               0
 49
-0.06
 74
               0
  0
LTYPE
  5
49
100
AcDbSymbolTableRecord
100
AcDbLinetypeTableRecord
  2
STYLE_07
 70
               0
  3

 72
              65
 73
               4
 40
0.7200000000000001
 49
0.48
 74
               0
 49
-0.0600000000000001
 74
               0
 49
0.12
 74
               0
 49
-0.0599999999999999
 74
               0
  0
LTYPE
  5
4A
100
AcDbSymbolTableRecord
100
AcDbLinetypeTableRecord
  2
STYLE_08
 70
               0
  3

 72
              65
 73
               6
 40
0.8999999999999999
 49
0.48
 74
               0
 49
-0.0600000000000001
 74
               0
 49
0.12
 74
               0
 49
-0.0599999999999999
 74
               0
 49
0.12
 74
               0
 49
-0.0599999999999999
 74
               0
  0
LTYPE
  5
4B
100
AcDbSymbolTableRecord
100
AcDbLinetypeTableRecord
  2
STYLE_09
 70
               0
  3

 72
              65
 73
               4
 40
0.37
 49
0.24
 74
               0
 49
-0.06
 74
               0
 49
0.01
 74
               0
 49
-0.06
 74
               0
  0
LTYPE
  5
4C
100
AcDbSymbolTableRecord
100
AcDbLinetypeTableRecord
  2
STYLE_10
 70
               0
  3

 72
              65
 73
               6
 40
0.6700000000000002
 49
0.24
 74
               0
 49
-0.06
 74
               0
 49
0.24
 74
               0
 49
-0.0600000000000001
 74
               0
 49
0.01
 74
               0
 49
-0.0600000000000001
 74
               0
  0
LTYPE
  5
4D
100
AcDbSymbolTableRecord
100
AcDbLinetypeTableRecord
  2
STYLE_11
 70
               0
  3

 72
              65
 73
               6
 40
0.44
 49
0.24
 74
               0
 49
-0.06
 74
               0
 49
0.01
 74
               0
 49
-0.06
 74
               0
 49
0.01
 74
               0
 49
-0.06
 74
               0
  0
LTYPE
  5
4E
100
AcDbSymbolTableRecord
100
AcDbLinetypeTableRecord
  2
STYLE_12
 70
               0
  3

 72
              65
 73
               8
 40
0.7400000000000002
 49
0.24
 74
               0
 49
-0.06
 74
               0
 49
0.24
 74
               0
 49
-0.0600000000000001
 74
               0
 49
0.01
 74
               0
 49
-0.0600000000000001
 74
               0
 49
0.01
 74
               0
 49
-0.0600000000000001
 74
               0
  0
LTYPE
  5
4F
100
AcDbSymbolTableRecord
100
AcDbLinetypeTableRecord
  2
STYLE_13
 70
               0
  3

 72
              65
 73
               8
 40
0.51
 49
0.24
 74
               0
 49
-0.06
 74
               0
 49
0.01
 74
               0
 49
-0.06
 74
               0
 49
0.01
 74
               0
 49
-0.06
 74
               0
 49
0.01
 74
               0
 49
-0.06
 74
               0
  0
LTYPE
  5
50
100
AcDbSymbolTableRecord
100
AcDbLinetypeTableRecord
  2
STYLE_14
 70
               0
  3

 72
              65
 73
              10
 40
0.8100000000000003
 49
0.24
 74
               0
 49
-0.06
 74
               0
 49
0.24
 74
               0
 49
-0.0600000000000001
 74
               0
 49
0.01
 74
               0
 49
-0.0600000000000001
 74
               0
 49
0.01
 74
               0
 49
-0.0600000000000001
 74
               0
 49
0.01
 74
               0
 49
-0.0600000000000001
 74
               0
  0
LTYPE
  5
51
100
AcDbSymbolTableRecord
100
AcDbLinetypeTableRecord
  2
STYLE_15
 70
               0
  3

 72
              65
 73
               2
 40
0.166624
 49
0.083312
 74
               0
 49
-0.083312
 74
               0
  0
LTYPE
  5
52
100
AcDbSymbolTableRecord
100
AcDbLinetypeTableRecord
  2
STYLE_16
 70
               0
  3

 72
              65
 73
               2
 40
0.27774
 49
0.194428
 74
               0
 49
-0.083312
 74
               0
  0
LTYPE
  5
53
100
AcDbSymbolTableRecord
100
AcDbLinetypeTableRecord
  2
STYLE_17
 70
               0
  3

 72
              65
 73
               2
 40
3.0000000000000004
 49
2.0
 74
               0
 49
-1.0000000000000004
 74
               0
  0
LTYPE
  5
54
100
AcDbSymbolTableRecord
100
AcDbLinetypeTableRecord
  2
STYLE_18
 70
               0
  3

 72
              65
 73
               2
 40
8.0001999999999995
 49
8.0
 74
               0
 49
-0.0009999999999999
 74
               0
  0
LTYPE
  5
55
100
AcDbSymbolTableRecord
100
AcDbLinetypeTableRecord
  2
STYLE_19
 70
               0
  3

 72
              65
 73
               2
 40
8.0
 49
7.5
 74
               0
 49
-0.5000000000000004
 74
               0
  0
ENDTAB
  0
TABLE
  2
LAYER
  5
2
100
AcDbSymbolTable
 70
              35
  0
LAYER
  5
14
100
AcDbSymbolTableRecord
100
AcDbLayerTableRecord
  2
0
 70
               0
 62
               7
  6
Continuous
290
               1
370
              15
390
1D
  0
LAYER
  5
56
100
AcDbSymbolTableRecord
100
AcDbLayerTableRecord
  2
Defpoints
 70
               0
 62
               7
  6
Continuous
290
               0
370
              -3
390
1D
  0
LAYER
  5
57
100
AcDbSymbolTableRecord
100
AcDbLayerTableRecord
  2
一般
 70
               0
 62
               7
  6
Continuous
290
               1
370
               9
390
1D
  0
LAYER
  5
58
100
AcDbSymbolTableRecord
100
AcDbLayerTableRecord
  2
寸法
 70
               0
 62
               7
  6
Continuous
290
               1
370
               9
390
1D
  0
LAYER
  5
59
100
AcDbSymbolTableRecord
100
AcDbLayerTableRecord
  2
文字-室名
 70
               1
 62
               7
  6
Continuous
290
               1
370
               5
390
1D
  0
LAYER
  5
5A
100
AcDbSymbolTableRecord
100
AcDbLayerTableRecord
  2
文字-メモ
 70
               1
 62
               7
  6
Continuous
290
               1
370
               5
390
1D
  0
LAYER
  5
5B
100
AcDbSymbolTableRecord
100
AcDbLayerTableRecord
  2
線-通り芯
 70
               1
 62
               7
  6
STYLE_06
290
               1
370
               5
390
1D
  0
LAYER
  5
5C
100
AcDbSymbolTableRecord
100
AcDbLayerTableRecord
  2
線-詳細
 70
               1
 62
               7
  6
Continuous
290
               1
370
               5
390
1D
  0
LAYER
  5
5D
100
AcDbSymbolTableRecord
100
AcDbLayerTableRecord
  2
床
 70
               1
 62
               7
  6
Continuous
290
               1
370
               5
390
1D
  0
LAYER
  5
5E
100
AcDbSymbolTableRecord
100
AcDbLayerTableRecord
  2
線-仕上線
 70
               1
 62
               7
  6
Continuous
290
               1
370
              30
390
1D
  0
LAYER
  5
5F
100
AcDbSymbolTableRecord
100
AcDbLayerTableRecord
  2
線-躯体
 70
               1
 62
               7
  6
Continuous
290
               1
370
               5
390
1D
  0
LAYER
  5
60
100
AcDbSymbolTableRecord
100
AcDbLayerTableRecord
  2
工事区分-計画
 70
               1
 62
               7
  6
Continuous
290
               1
370
               5
390
1D
  0
LAYER
  5
61
100
AcDbSymbolTableRecord
100
AcDbLayerTableRecord
  2
工事区分-既存
 70
               1
 62
               7
  6
Continuous
290
               1
370
               5
390
1D
  0
LAYER
  5
62
100
AcDbSymbolTableRecord
100
AcDbLayerTableRecord
  2
家具
 70
               1
 62
               7
  6
Continuous
290
               1
370
               5
390
1D
  0
LAYER
  5
63
100
AcDbSymbolTableRecord
100
AcDbLayerTableRecord
  2
sunpo
 70
               0
 62
               7
  6
Continuous
290
               1
370
              15
390
1D
  0
LAYER
  5
64
100
AcDbSymbolTableRecord
100
AcDbLayerTableRecord
  2
ﾀｲﾄﾙ枠
 70
               0
 62
               7
  6
Continuous
290
               1
370
              15
390
1D
  0
LAYER
  5
65
100
AcDbSymbolTableRecord
100
AcDbLayerTableRecord
  2
view
 70
               1
 62
               7
  6
Continuous
290
               1
370
              15
390
1D
  0
LAYER
  5
66
100
AcDbSymbolTableRecord
100
AcDbLayerTableRecord
  2
Defpoints
 70
               0
 62
               7
  6
Continuous
290
               0
370
              15
390
1D
  0
LAYER
  5
67
100
AcDbSymbolTableRecord
100
AcDbLayerTableRecord
  2
sen-h
 70
               0
 62
               7
  6
STYLE_17
290
               1
370
              15
390
1D
  0
LAYER
  5
68
100
AcDbSymbolTableRecord
100
AcDbLayerTableRecord
  2
sen-c
 70
               0
 62
               7
  6
STYLE_18
290
               1
370
              15
390
1D
  0
LAYER
  5
69
100
AcDbSymbolTableRecord
100
AcDbLayerTableRecord
  2
sen2
 70
               0
 62
               7
  6
Continuous
290
               1
370
              15
390
1D
  0
LAYER
  5
6A
100
AcDbSymbolTableRecord
100
AcDbLayerTableRecord
  2
sen-p
 70
               0
 62
               7
  6
STYLE_03
290
               1
370
               9
390
1D
  0
LAYER
  5
6B
100
AcDbSymbolTableRecord
100
AcDbLayerTableRecord
  2
1_2
 70
               0
 62
               7
  6
STYLE_03
290
               1
370
              15
390
1D
  0
LAYER
  5
6C
100
AcDbSymbolTableRecord
100
AcDbLayerTableRecord
  2
レイヤー_1
 70
               0
 62
               7
  6
Continuous
290
               1
370
              20
390
1D
  0
LAYER
  5
6D
100
AcDbSymbolTableRecord
100
AcDbLayerTableRecord
  2
sunpo2
 70
               0
 62
               7
  6
Continuous
290
               1
370
               9
390
1D
  0
LAYER
  5
6E
100
AcDbSymbolTableRecord
100
AcDbLayerTableRecord
  2
補強
 70
               0
 62
               7
  6
STYLE_03
290
               1
370
               9
390
1D
  0
LAYER
  5
6F
100
AcDbSymbolTableRecord
100
AcDbLayerTableRecord
  2
水栓
 70
               0
 62
               7
  6
Continuous
290
               1
370
               9
390
1D
  0
LAYER
  5
70
100
AcDbSymbolTableRecord
100
AcDbLayerTableRecord
  2
1
 70
               0
 62
               7
  6
Continuous
290
               1
370
               9
390
1D
  0
LAYER
  5
71
100
AcDbSymbolTableRecord
100
AcDbLayerTableRecord
  2
3
 70
               0
 62
               7
  6
Continuous
290
               1
370
               9
390
1D
  0
LAYER
  5
72
100
AcDbSymbolTableRecord
100
AcDbLayerTableRecord
  2
2
 70
               0
 62
               7
  6
Continuous
290
               1
370
               9
390
1D
  0
LAYER
  5
73
100
AcDbSymbolTableRecord
100
AcDbLayerTableRecord
  2
補助グリッド-1
 70
               0
 62
               7
  6
Continuous
290
               1
370
              13
390
1D
  0
LAYER
  5
74
100
AcDbSymbolTableRecord
100
AcDbLayerTableRecord
  2
カットライン
 70
               0
 62
               7
  6
STYLE_19
290
               1
370
              15
390
1D
  0
LAYER
  5
75
100
AcDbSymbolTableRecord
100
AcDbLayerTableRecord
  2
_Viewport_Crop
 70
               1
 62
               7
  6
Continuous
290
               1
370
              15
390
1D
  0
LAYER
  5
76
100
AcDbSymbolTableRecord
100
AcDbLayerTableRecord
  2
rev
 70
               0
 62
               7
  6
Continuous
290
               1
370
              15
390
1D
  0
LAYER
  5
77
100
AcDbSymbolTableRecord
100
AcDbLayerTableRecord
  2
revﾍﾟｰﾊﾟｰ
 70
               0
 62
               7
  6
Continuous
290
               1
370
              15
390
1D
  0
ENDTAB
  0
TABLE
  2
STYLE
  5
3
100
AcDbSymbolTable
 70
               4
  0
STYLE
  5
17
100
AcDbSymbolTableRecord
100
AcDbTextStyleTableRecord
  2
Standard
 70
               0
 40
0.0
 41
1.0
 50
0.0
 71
               0
 42
0.0
  3
txt
  4
BIGFONT.SHX
  0
STYLE
  5
40
100
AcDbSymbolTableRecord
100
AcDbTextStyleTableRecord
  2
Arial
 70
               0
 40
0.0
 41
1.0
 50
0.0
 71
               0
 42
0.0
  3
Arial
  4

1001
ACAD
1000
Arial
1071
        0
  0
STYLE
  5
41
100
AcDbSymbolTableRecord
100
AcDbTextStyleTableRecord
  2
メイリオ
 70
               0
 40
0.0
 41
1.0
 50
0.0
 71
               0
 42
0.0
  3
メイリオ
  4

1001
ACAD
1000
メイリオ
1071
        0
  0
STYLE
  5
42
100
AcDbSymbolTableRecord
100
AcDbTextStyleTableRecord
  2
小塚ゴシック Pr6N R
 70
               0
 40
0.0
 41
1.0
 50
0.0
 71
               0
 42
0.0
  3
小塚ゴシック Pr6N R
  4

1001
ACAD
1000
小塚ゴシック Pr6N R
1071
        0
  0
ENDTAB
  0
TABLE
  2
VIEW
  5
5
100
AcDbSymbolTable
 70
               0
  0
ENDTAB
  0
TABLE
  2
UCS
  5
6
100
AcDbSymbolTable
 70
               0
  0
ENDTAB
  0
TABLE
  2
APPID
  5
8
100
AcDbSymbolTable
 70
               1
  0
APPID
  5
16
100
AcDbSymbolTableRecord
100
AcDbRegAppTableRecord
  2
ACAD
 70
               0
  0
ENDTAB
  0
TABLE
  2
DIMSTYLE
  5
9
100
AcDbSymbolTable
 70
               2
100
AcDbDimStyleTable
 71
               0
  0
DIMSTYLE
105
18
100
AcDbSymbolTableRecord
100
AcDbDimStyleTableRecord
  2
Standard
 70
               0
  3

  4

 40
1.0
 41
0.18
 42
0.0625
 43
0.38
 44
0.18
 45
0.0
 46
0.0
 47
0.0
 48
0.0
 71
               0
 72
               0
 73
               1
 74
               1
 75
               0
 76
               0
 77
               0
 78
               0
 79
               0
140
0.18
141
0.09
142
0.0
143
25.399999999999999
144
1.0
145
0.0
146
1.0
147
0.09
148
0.0
170
               0
171
               2
172
               0
173
               0
174
               0
175
               0
176
               0
177
               0
178
               0
179
               0
271
               4
272
               4
273
               2
274
               2
275
               0
276
               0
277
               2
278
              46
279
               0
280
               0
281
               0
282
               0
283
               1
284
               0
285
               0
286
               0
288
               0
340
17
341
0
342
0
343
0
344
0
371
              -2
372
              -2
  0
DIMSTYLE
105
80
100
AcDbSymbolTableRecord
100
AcDbDimStyleTableRecord
  2
Ekitchen
 70
               0
  3
<>
  4
[]
 40
1.0
 41
7.5034179687499991
 42
4.9999999999999991
 43
4.9999999999999991
 44
0.0
 45
0.0
 46
0.0
 47
0.0
 48
0.0
 71
               0
 72
               0
 73
               0
 74
               0
 75
               0
 76
               0
 77
               1
 78
              11
 79
               0
140
15.585611979166666
141
0.0
142
0.0
143
1.0
144
1.0
145
0.0
146
0.8
147
0.7999999999999999
148
0.0
170
               0
171
               2
172
               1
173
               0
174
               1
175
               0
176
               0
177
               0
178
               0
179
               0
271
               2
272
               2
273
               2
274
               2
275
               0
276
               2
277
               2
278
              46
279
               0
280
               0
281
               0
282
               0
283
               1
284
              11
285
              11
286
              11
288
               0
340
41
341
7C
342
78
343
0
344
0
371
              -2
372
              -2
  0
ENDTAB
  0
TABLE
  2
BLOCK_RECORD
  5
1
100
AcDbSymbolTable
 70
              30
  0
BLOCK_RECORD
  5
A
100
AcDbSymbolTableRecord
100
AcDbBlockTableRecord
  2
*MODEL_SPACE
340
20
  0
BLOCK_RECORD
  5
B
100
AcDbSymbolTableRecord
100
AcDbBlockTableRecord
  2
*PAPER_SPACE
340
21
  0
BLOCK_RECORD
  5
78
100
AcDbSymbolTableRecord
100
AcDbBlockTableRecord
  2
VW_FILLEDARROW
340
0
  0
BLOCK_RECORD
  5
7C
100
AcDbSymbolTableRecord
100
AcDbBlockTableRecord
  2
VW_FILLEDARROW-1
340
0
  0
BLOCK_RECORD
  5
24
100
AcDbSymbolTableRecord
100
AcDbBlockTableRecord
  2
*D2
340
0
  0
BLOCK_RECORD
  5
25
100
AcDbSymbolTableRecord
100
AcDbBlockTableRecord
  2
*D3
340
0
  0
BLOCK_RECORD
  5
26
100
AcDbSymbolTableRecord
100
AcDbBlockTableRecord
  2
*D4
340
0
  0
BLOCK_RECORD
  5
27
100
AcDbSymbolTableRecord
100
AcDbBlockTableRecord
  2
*D5
340
0
  0
BLOCK_RECORD
  5
28
100
AcDbSymbolTableRecord
100
AcDbBlockTableRecord
  2
*D6
340
0
  0
BLOCK_RECORD
  5
29
100
AcDbSymbolTableRecord
100
AcDbBlockTableRecord
  2
*D7
340
0
  0
BLOCK_RECORD
  5
2A
100
AcDbSymbolTableRecord
100
AcDbBlockTableRecord
  2
*D8
340
0
  0
BLOCK_RECORD
  5
2B
100
AcDbSymbolTableRecord
100
AcDbBlockTableRecord
  2
*D9
340
0
  0
BLOCK_RECORD
  5
2C
100
AcDbSymbolTableRecord
100
AcDbBlockTableRecord
  2
*D10
340
0
  0
BLOCK_RECORD
  5
2D
100
AcDbSymbolTableRecord
100
AcDbBlockTableRecord
  2
*D11
340
0
  0
BLOCK_RECORD
  5
2E
100
AcDbSymbolTableRecord
100
AcDbBlockTableRecord
  2
*D12
340
0
  0
BLOCK_RECORD
  5
2F
100
AcDbSymbolTableRecord
100
AcDbBlockTableRecord
  2
*D13
340
0
  0
BLOCK_RECORD
  5
30
100
AcDbSymbolTableRecord
100
AcDbBlockTableRecord
  2
*D14
340
0
  0
BLOCK_RECORD
  5
31
100
AcDbSymbolTableRecord
100
AcDbBlockTableRecord
  2
*D15
340
0
  0
BLOCK_RECORD
  5
32
100
AcDbSymbolTableRecord
100
AcDbBlockTableRecord
  2
*D16
340
0
  0
BLOCK_RECORD
  5
33
100
AcDbSymbolTableRecord
100
AcDbBlockTableRecord
  2
*D17
340
0
  0
BLOCK_RECORD
  5
34
100
AcDbSymbolTableRecord
100
AcDbBlockTableRecord
  2
*D18
340
0
  0
BLOCK_RECORD
  5
35
100
AcDbSymbolTableRecord
100
AcDbBlockTableRecord
  2
*D19
340
0
  0
BLOCK_RECORD
  5
36
100
AcDbSymbolTableRecord
100
AcDbBlockTableRecord
  2
*D20
340
0
  0
BLOCK_RECORD
  5
37
100
AcDbSymbolTableRecord
100
AcDbBlockTableRecord
  2
*D21
340
0
  0
BLOCK_RECORD
  5
38
100
AcDbSymbolTableRecord
100
AcDbBlockTableRecord
  2
*D22
340
0
  0
BLOCK_RECORD
  5
39
100
AcDbSymbolTableRecord
100
AcDbBlockTableRecord
  2
*D23
340
0
  0
BLOCK_RECORD
  5
3A
100
AcDbSymbolTableRecord
100
AcDbBlockTableRecord
  2
*U24
340
0
102
{BLKREFS
331
298
102
}
  0
BLOCK_RECORD
  5
3B
100
AcDbSymbolTableRecord
100
AcDbBlockTableRecord
  2
*U25
340
0
102
{BLKREFS
331
299
102
}
  0
BLOCK_RECORD
  5
3C
100
AcDbSymbolTableRecord
100
AcDbBlockTableRecord
  2
*D26
340
0
  0
BLOCK_RECORD
  5
3D
100
AcDbSymbolTableRecord
100
AcDbBlockTableRecord
  2
*D27
340
0
  0
BLOCK_RECORD
  5
3E
100
AcDbSymbolTableRecord
100
AcDbBlockTableRecord
  2
*D28
340
0
  0
BLOCK_RECORD
  5
3F
100
AcDbSymbolTableRecord
100
AcDbBlockTableRecord
  2
*D29
340
0
  0
ENDTAB
  0
ENDSEC
  0
SECTION
  2
BLOCKS
  0
BLOCK
  5
D
100
AcDbEntity
  8
0
100
AcDbBlockBegin
  2
*MODEL_SPACE
 70
               0
 10
0.0
 20
0.0
 30
0.0
  3
*MODEL_SPACE
  1

  0
ENDBLK
  5
E
100
AcDbEntity
  8
0
100
AcDbBlockEnd
  0
BLOCK
  5
F
100
AcDbEntity
 67
               1
  8
0
100
AcDbBlockBegin
  2
*PAPER_SPACE
 70
               0
 10
0.0
 20
0.0
 30
0.0
  3
*PAPER_SPACE
  1

  0
ENDBLK
  5
10
100
AcDbEntity
 67
               1
  8
0
100
AcDbBlockEnd
  0
BLOCK
  5
79
100
AcDbEntity
  8
0
370
              -2
  6
ByBlock
 62
               0
100
AcDbBlockBegin
  2
VW_FILLEDARROW
 70
               0
 10
0.0
 20
0.0
 30
0.0
  3
VW_FILLEDARROW
  1

  0
SOLID
  5
7A
100
AcDbEntity
  8
0
370
              -2
 62
               0
100
AcDbTrace
 10
0.0
 20
0.0
 30
0.0
 11
-0.9999389648437499
 21
-0.2679328381102956
 31
0.0
 12
-0.9999389648437499
 22
0.2679328381102958
 32
0.0
 13
-0.9999389648437499
 23
0.2679328381102958
 33
0.0
  0
ENDBLK
  5
7B
100
AcDbEntity
  8
0
100
AcDbBlockEnd
  0
BLOCK
  5
7D
100
AcDbEntity
  8
0
370
              -2
  6
ByBlock
 62
               0
100
AcDbBlockBegin
  2
VW_FILLEDARROW-1
 70
               0
 10
0.0
 20
0.0
 30
0.0
  3
VW_FILLEDARROW
  1

  0
SOLID
  5
7E
100
AcDbEntity
  8
0
370
              -2
 62
               0
100
AcDbTrace
 10
0.0
 20
0.0
 30
0.0
 11
-2.1083984375
 21
-0.5649436586511659
 31
0.0
 12
-2.1083984374999996
 22
0.5649436586511665
 32
0.0
 13
-2.1083984374999996
 23
0.5649436586511665
 33
0.0
  0
ENDBLK
  5
7F
100
AcDbEntity
  8
0
100
AcDbBlockEnd
  0
BLOCK
  5
81
100
AcDbEntity
  8
寸法
100
AcDbBlockBegin
  2
*D2
 70
               1
 10
0.0
 20
0.0
 30
0.0
  3
*D2
  1

  0
LINE
  5
82
100
AcDbEntity
  8
寸法
370
              -2
  6
Continuous
 62
               0
100
AcDbLine
 10
6409.6988718544862
 20
1000.8807440616997
 30
0.0
 11
6409.6988718544862
 21
1118.0
 31
0.0
  0
LINE
  5
83
100
AcDbEntity
  8
寸法
370
              -2
  6
Continuous
 62
               0
100
AcDbLine
 10
5659.6988718544862
 20
1000.8807440616988
 30
0.0
 11
5659.6988718544862
 21
1118.0
 31
0.0
  0
LINE
  5
84
100
AcDbEntity
  8
寸法
370
              -2
  6
Continuous
 62
               0
100
AcDbLine
 10
6409.6988718544862
 20
1118.0
 30
0.0
 11
5659.6988718544862
 21
1118.0
 31
0.0
  0
SOLID
  5
85
100
AcDbEntity
  8
寸法
370
              -2
 62
               0
100
AcDbTrace
 10
6409.6988718544862
 20
1118.0
 30
0.0
 11
6402.1954538857362
 21
1115.9894652148002
 31
0.0
 12
6402.1954538857362
 22
1120.0105347851998
 32
0.0
 13
6402.1954538857362
 23
1120.0105347851998
 33
0.0
  0
SOLID
  5
86
100
AcDbEntity
  8
寸法
370
              -2
 62
               0
100
AcDbTrace
 10
5659.6988718544862
 20
1118.0
 30
0.0
 11
5667.2022898232362
 21
1120.0105347851998
 31
0.0
 12
5667.2022898232362
 22
1115.9894652148002
 32
0.0
 13
5667.2022898232362
 23
1115.9894652148002
 33
0.0
  0
WIPEOUT
  5
87
100
AcDbEntity
  8
寸法
370
              -2
  6
Continuous
 62
               0
 92
        0
100
AcDbWipeout
 90
        0
 10
6015.0138721236344
 20
6696.7863355902937
 30
0.0
 11
39.369999461703827
 21
0.0
 31
0.0
 12
0.0
 22
39.369999461703827
 32
0.0
 13
1.0
 23
1.0
340
0
 70
               7
280
               1
281
              50
282
              50
283
               0
360
0
 71
               2
 91
        5
 14
-0.5
 24
142.19352074837118
 14
0.4999999999999949
 24
142.19352074837118
 14
0.4999999999999949
 24
141.38706912444155
 14
-0.5
 24
141.38706912444155
 14
-0.5
 24
142.19352074837118
  0
MTEXT
  5
88
100
AcDbEntity
  8
寸法
 62
               0
100
AcDbMText
 10
6015.0138721236344
 20
1143.2114453125
 30
0.0
 40
15.585611979166666
 41
0.0
 71
               1
 72
               1
  1
750
  7
メイリオ
 73
               1
 44
1.2271899268160174
  0
POINT
  5
89
100
AcDbEntity
  8
Defpoints
370
               0
 62
               0
100
AcDbPoint
 10
5659.6988718544862
 20
995.88074406169881
 30
0.0
  0
POINT
  5
8A
100
AcDbEntity
  8
Defpoints
370
               0
 62
               0
100
AcDbPoint
 10
6409.6988718544862
 20
995.88074406169972
 30
0.0
  0
POINT
  5
8B
100
AcDbEntity
  8
Defpoints
370
               0
 62
               0
100
AcDbPoint
 10
6409.6988718544862
 20
1118.0
 30
0.0
  0
ENDBLK
  5
8C
100
AcDbEntity
  8
寸法
100
AcDbBlockEnd
  0
BLOCK
  5
8D
100
AcDbEntity
  8
寸法
100
AcDbBlockBegin
  2
*D3
 70
               1
 10
0.0
 20
0.0
 30
0.0
  3
*D3
  1

  0
LINE
  5
8E
100
AcDbEntity
  8
寸法
370
              -2
  6
Continuous
 62
               0
100
AcDbLine
 10
6289.6988718544862
 20
537.38074406169972
 30
0.0
 11
6289.6988718544862
 21
407.0
 31
0.0
  0
LINE
  5
8F
100
AcDbEntity
  8
寸法
370
              -2
  6
Continuous
 62
               0
100
AcDbLine
 10
5709.6988718544862
 20
537.38074406169972
 30
0.0
 11
5709.6988718544862
 21
407.0
 31
0.0
  0
LINE
  5
90
100
AcDbEntity
  8
寸法
370
              -2
  6
Continuous
 62
               0
100
AcDbLine
 10
6289.6988718544862
 20
407.0
 30
0.0
 11
5709.6988718544862
 21
407.0
 31
0.0
  0
SOLID
  5
91
100
AcDbEntity
  8
寸法
370
              -2
 62
               0
100
AcDbTrace
 10
6289.6988718544862
 20
407.0
 30
0.0
 11
6282.1954538857362
 21
404.98946521480025
 31
0.0
 12
6282.1954538857362
 22
409.01053478519975
 32
0.0
 13
6282.1954538857362
 23
409.01053478519975
 33
0.0
  0
SOLID
  5
92
100
AcDbEntity
  8
寸法
370
              -2
 62
               0
100
AcDbTrace
 10
5709.6988718544862
 20
407.0
 30
0.0
 11
5717.2022898232362
 21
409.01053478519975
 31
0.0
 12
5717.2022898232362
 22
404.98946521480025
 32
0.0
 13
5717.2022898232362
 23
404.98946521480025
 33
0.0
  0
WIPEOUT
  5
93
100
AcDbEntity
  8
寸法
370
              -2
  6
Continuous
 62
               0
 92
        0
100
AcDbWipeout
 90
        0
 10
5980.0138721236344
 20
5985.7863355902937
 30
0.0
 11
39.369999461703827
 21
0.0
 31
0.0
 12
0.0
 22
39.369999461703827
 32
0.0
 13
1.0
 23
1.0
340
0
 70
               7
280
               1
281
              50
282
              50
283
               0
360
0
 71
               2
 91
        5
 14
-0.5
 24
142.19352074837118
 14
0.4999999999999949
 24
142.19352074837118
 14
0.4999999999999949
 24
141.38706912444155
 14
-0.5
 24
141.38706912444155
 14
-0.5
 24
142.19352074837118
  0
MTEXT
  5
94
100
AcDbEntity
  8
寸法
 62
               0
100
AcDbMText
 10
5980.0138721236344
 20
432.21144531250002
 30
0.0
 40
15.585611979166666
 41
0.0
 71
               1
 72
               1
  1
580
  7
メイリオ
 73
               1
 44
1.2271899268160174
  0
POINT
  5
95
100
AcDbEntity
  8
Defpoints
370
               0
 62
               0
100
AcDbPoint
 10
5709.6988718544862
 20
542.38074406169972
 30
0.0
  0
POINT
  5
96
100
AcDbEntity
  8
Defpoints
370
               0
 62
               0
100
AcDbPoint
 10
6289.6988718544862
 20
542.38074406169972
 30
0.0
  0
POINT
  5
97
100
AcDbEntity
  8
Defpoints
370
               0
 62
               0
100
AcDbPoint
 10
6289.6988718544862
 20
407.0
 30
0.0
  0
ENDBLK
  5
98
100
AcDbEntity
  8
寸法
100
AcDbBlockEnd
  0
BLOCK
  5
99
100
AcDbEntity
  8
寸法
100
AcDbBlockBegin
  2
*D4
 70
               1
 10
0.0
 20
0.0
 30
0.0
  3
*D4
  1

  0
LINE
  5
9A
100
AcDbEntity
  8
寸法
370
              -2
  6
Continuous
 62
               0
100
AcDbLine
 10
5709.6988718544862
 20
495.38074406169972
 30
0.0
 11
5709.6988718544862
 21
407.0
 31
0.0
  0
LINE
  5
9B
100
AcDbEntity
  8
寸法
370
              -2
  6
Continuous
 62
               0
100
AcDbLine
 10
5659.6988718544862
 20
500.8807440616996
 30
0.0
 11
5659.6988718544862
 21
407.0
 31
0.0
  0
LINE
  5
9C
100
AcDbEntity
  8
寸法
370
              -2
  6
Continuous
 62
               0
100
AcDbLine
 10
5709.6988718544862
 20
407.0
 30
0.0
 11
5659.6988718544862
 21
407.0
 31
0.0
  0
SOLID
  5
9D
100
AcDbEntity
  8
寸法
370
              -2
 62
               0
100
AcDbTrace
 10
5709.6988718544862
 20
407.0
 30
0.0
 11
5702.1954538857362
 21
404.98946521480025
 31
0.0
 12
5702.1954538857362
 22
409.01053478519975
 32
0.0
 13
5702.1954538857362
 23
409.01053478519975
 33
0.0
  0
SOLID
  5
9E
100
AcDbEntity
  8
寸法
370
              -2
 62
               0
100
AcDbTrace
 10
5659.6988718544862
 20
407.0
 30
0.0
 11
5667.2022898232362
 21
409.01053478519975
 31
0.0
 12
5667.2022898232362
 22
404.98946521480025
 32
0.0
 13
5667.2022898232362
 23
404.98946521480025
 33
0.0
  0
WIPEOUT
  5
9F
100
AcDbEntity
  8
寸法
370
              -2
  6
Continuous
 62
               0
 92
        0
100
AcDbWipeout
 90
        0
 10
5673.0572053560372
 20
5989.4738355902937
 30
0.0
 11
37.041666666666686
 21
0.0
 31
0.0
 12
0.0
 22
37.041666666666686
 32
0.0
 13
1.0
 23
1.0
340
0
 70
               7
280
               1
281
              50
282
              50
283
               0
360
0
 71
               2
 91
        5
 14
-0.5
 24
151.09996856486725
 14
0.1285714194888102
 24
151.09996856486725
 14
0.1285714194888102
 24
150.09996856486723
 14
-0.5
 24
150.09996856486723
 14
-0.5
 24
151.09996856486725
  0
MTEXT
  5
A0
100
AcDbEntity
  8
寸法
 62
               0
100
AcDbMText
 10
5673.0572053560372
 20
434.31971354166672
 30
0.0
 40
16.123046874999996
 41
0.0
 71
               1
 72
               1
  1
50
  7
小塚ゴシック Pr6N R
 73
               1
 44
1.3839975285758424
  0
POINT
  5
A1
100
AcDbEntity
  8
Defpoints
370
               0
 62
               0
100
AcDbPoint
 10
5659.6988718544862
 20
505.8807440616996
 30
0.0
  0
POINT
  5
A2
100
AcDbEntity
  8
Defpoints
370
               0
 62
               0
100
AcDbPoint
 10
5709.6988718544862
 20
500.38074406169972
 30
0.0
  0
POINT
  5
A3
100
AcDbEntity
  8
Defpoints
370
               0
 62
               0
100
AcDbPoint
 10
5709.6988718544862
 20
407.0
 30
0.0
  0
ENDBLK
  5
A4
100
AcDbEntity
  8
寸法
100
AcDbBlockEnd
  0
BLOCK
  5
A5
100
AcDbEntity
  8
寸法
100
AcDbBlockBegin
  2
*D5
 70
               1
 10
0.0
 20
0.0
 30
0.0
  3
*D5
  1

  0
LINE
  5
A6
100
AcDbEntity
  8
寸法
370
              -2
  6
Continuous
 62
               0
100
AcDbLine
 10
6289.8769223474164
 20
495.38074406169972
 30
0.0
 11
6289.8769223474164
 21
407.0
 31
0.0
  0
LINE
  5
A7
100
AcDbEntity
  8
寸法
370
              -2
  6
Continuous
 62
               0
100
AcDbLine
 10
6409.8769223474164
 20
501.10770460353592
 30
0.0
 11
6409.8769223474164
 21
407.0
 31
0.0
  0
LINE
  5
A8
100
AcDbEntity
  8
寸法
370
              -2
  6
Continuous
 62
               0
100
AcDbLine
 10
6289.8769223474164
 20
407.0
 30
0.0
 11
6409.8769223474164
 21
407.0
 31
0.0
  0
SOLID
  5
A9
100
AcDbEntity
  8
寸法
370
              -2
 62
               0
100
AcDbTrace
 10
6289.8769223474164
 20
407.0
 30
0.0
 11
6297.3803403161664
 21
409.01053478519975
 31
0.0
 12
6297.3803403161664
 22
404.98946521480025
 32
0.0
 13
6297.3803403161664
 23
404.98946521480025
 33
0.0
  0
SOLID
  5
AA
100
AcDbEntity
  8
寸法
370
              -2
 62
               0
100
AcDbTrace
 10
6409.8769223474164
 20
407.0
 30
0.0
 11
6402.3735043786664
 21
404.98946521480025
 31
0.0
 12
6402.3735043786664
 22
409.01053478519975
 32
0.0
 13
6402.3735043786664
 23
409.01053478519975
 33
0.0
  0
WIPEOUT
  5
AB
100
AcDbEntity
  8
寸法
370
              -2
  6
Continuous
 62
               0
 92
        0
100
AcDbWipeout
 90
        0
 10
6332.4144230202864
 20
5989.4738355902937
 30
0.0
 11
37.041666666666686
 21
0.0
 31
0.0
 12
0.0
 22
37.041666666666686
 32
0.0
 13
1.0
 23
1.0
340
0
 70
               7
280
               1
281
              50
282
              50
283
               0
360
0
 71
               2
 91
        5
 14
-0.5
 24
151.09996856486725
 14
0.4428571065267032
 24
151.09996856486725
 14
0.4428571065267032
 24
150.09996856486723
 14
-0.5
 24
150.09996856486723
 14
-0.5
 24
151.09996856486725
  0
MTEXT
  5
AC
100
AcDbEntity
  8
寸法
 62
               0
100
AcDbMText
 10
6332.4144230202864
 20
434.31971354166672
 30
0.0
 40
16.123046874999996
 41
0.0
 71
               1
 72
               1
  1
120
  7
小塚ゴシック Pr6N R
 73
               1
 44
1.3839975285758424
  0
POINT
  5
AD
100
AcDbEntity
  8
Defpoints
370
               0
 62
               0
100
AcDbPoint
 10
6409.8769223474164
 20
506.10770460353592
 30
0.0
  0
POINT
  5
AE
100
AcDbEntity
  8
Defpoints
370
               0
 62
               0
100
AcDbPoint
 10
6289.8769223474164
 20
500.38074406169972
 30
0.0
  0
POINT
  5
AF
100
AcDbEntity
  8
Defpoints
370
               0
 62
               0
100
AcDbPoint
 10
6289.8769223474164
 20
407.0
 30
0.0
  0
ENDBLK
  5
B0
100
AcDbEntity
  8
寸法
100
AcDbBlockEnd
  0
BLOCK
  5
B1
100
AcDbEntity
  8
寸法
100
AcDbBlockBegin
  2
*D6
 70
               1
 10
0.0
 20
0.0
 30
0.0
  3
*D6
  1

  0
LINE
  5
B2
100
AcDbEntity
  8
寸法
370
              -2
  6
Continuous
 62
               0
100
AcDbLine
 10
5660.1988718544862
 20
500.3807440616996
 30
0.0
 11
5552.0
 21
500.3807440616996
 31
0.0
  0
LINE
  5
B3
100
AcDbEntity
  8
寸法
370
              -2
  6
Continuous
 62
               0
100
AcDbLine
 10
5659.1988718544862
 20
1000.3807440617001
 30
0.0
 11
5552.0
 21
1000.3807440617001
 31
0.0
  0
LINE
  5
B4
100
AcDbEntity
  8
寸法
370
              -2
  6
Continuous
 62
               0
100
AcDbLine
 10
5552.0
 20
500.3807440616996
 30
0.0
 11
5552.0
 21
1000.3807440617001
 31
0.0
  0
SOLID
  5
B5
100
AcDbEntity
  8
寸法
370
              -2
 62
               0
100
AcDbTrace
 10
5552.0
 20
500.3807440616996
 30
0.0
 11
5549.9894652148005
 21
507.8841620304496
 31
0.0
 12
5554.0105347851995
 22
507.8841620304496
 32
0.0
 13
5554.0105347851995
 23
507.8841620304496
 33
0.0
  0
SOLID
  5
B6
100
AcDbEntity
  8
寸法
370
              -2
 62
               0
100
AcDbTrace
 10
5552.0
 20
1000.3807440617001
 30
0.0
 11
5554.0105347851995
 21
992.87732609295006
 31
0.0
 12
5549.9894652148005
 22
992.87732609295006
 32
0.0
 13
5549.9894652148005
 23
992.87732609295006
 33
0.0
  0
WIPEOUT
  5
B7
100
AcDbEntity
  8
寸法
370
              -2
  6
Continuous
 62
               0
 92
        0
100
AcDbWipeout
 90
        0
 10
5519.9375
 20
6309.1695799211411
 30
0.0
 11
39.369999461703841
 21
0.0
 31
0.0
 12
0.0
 22
39.369999461703841
 32
0.0
 13
1.0
 23
1.0
340
0
 70
               7
280
               1
281
              50
282
              50
283
               0
360
0
 71
               2
 91
        5
 14
0.3064516239296371
 24
142.19352074837113
 14
0.3064516239296371
 24
141.19352074837113
 14
-0.5
 24
141.19352074837113
 14
-0.5
 24
142.19352074837113
 14
0.3064516239296371
 24
142.19352074837113
  0
MTEXT
  5
B8
100
AcDbEntity
  8
寸法
 62
               0
100
AcDbMText
 10
5526.7885546875004
 20
730.6957443308479
 30
0.0
 40
15.585611979166666
 41
0.0
 71
               1
 72
               1
  1
500
  7
メイリオ
 11
0.0
 21
1.0
 31
0.0
 73
               1
 44
1.2271899268160174
  0
POINT
  5
B9
100
AcDbEntity
  8
Defpoints
370
               0
 62
               0
100
AcDbPoint
 10
5664.1988718544862
 20
1000.3807440617001
 30
0.0
  0
POINT
  5
BA
100
AcDbEntity
  8
Defpoints
370
               0
 62
               0
100
AcDbPoint
 10
5665.1988718544862
 20
500.3807440616996
 30
0.0
  0
POINT
  5
BB
100
AcDbEntity
  8
Defpoints
370
               0
 62
               0
100
AcDbPoint
 10
5552.0
 20
500.3807440616996
 30
0.0
  0
ENDBLK
  5
BC
100
AcDbEntity
  8
寸法
100
AcDbBlockEnd
  0
BLOCK
  5
BD
100
AcDbEntity
  8
寸法
100
AcDbBlockBegin
  2
*D7
 70
               1
 10
0.0
 20
0.0
 30
0.0
  3
*D7
  1

  0
LINE
  5
BE
100
AcDbEntity
  8
寸法
370
              -2
  6
Continuous
 62
               0
100
AcDbLine
 10
5969.1187565204391
 20
790.0
 30
0.0
 11
5908.0
 21
790.0
 31
0.0
  0
LINE
  5
BF
100
AcDbEntity
  8
寸法
370
              -2
  6
Continuous
 62
               0
100
AcDbLine
 10
5969.1187565204391
 20
1000.380744061698
 30
0.0
 11
5908.0
 21
1000.380744061698
 31
0.0
  0
LINE
  5
C0
100
AcDbEntity
  8
寸法
370
              -2
  6
Continuous
 62
               0
100
AcDbLine
 10
5908.0
 20
790.0
 30
0.0
 11
5908.0
 21
1000.380744061698
 31
0.0
  0
SOLID
  5
C1
100
AcDbEntity
  8
寸法
370
              -2
 62
               0
100
AcDbTrace
 10
5908.0
 20
790.0
 30
0.0
 11
5905.9894652148005
 21
797.50341796875
 31
0.0
 12
5910.0105347851995
 22
797.50341796875
 32
0.0
 13
5910.0105347851995
 23
797.50341796875
 33
0.0
  0
SOLID
  5
C2
100
AcDbEntity
  8
寸法
370
              -2
 62
               0
100
AcDbTrace
 10
5908.0
 20
1000.380744061698
 30
0.0
 11
5910.0105347851995
 21
992.87732609294801
 31
0.0
 12
5905.9894652148005
 22
992.87732609294801
 32
0.0
 13
5905.9894652148005
 23
992.87732609294801
 33
0.0
  0
WIPEOUT
  5
C3
100
AcDbEntity
  8
寸法
370
              -2
  6
Continuous
 62
               0
 92
        0
100
AcDbWipeout
 90
        0
 10
5866.958333333333
 20
6456.2017082940129
 30
0.0
 11
37.041666666666686
 21
0.0
 31
0.0
 12
0.0
 22
37.041666666666686
 32
0.0
 13
1.0
 23
1.0
340
0
 70
               7
280
               1
281
              50
282
              50
283
               0
360
0
 71
               2
 91
        5
 14
0.5000000000000078
 24
151.09996856486725
 14
0.5000000000000078
 24
150.15711145834055
 14
-0.5
 24
150.15711145834055
 14
-0.5
 24
151.09996856486725
 14
0.5000000000000078
 24
151.09996856486725
  0
MTEXT
  5
C4
100
AcDbEntity
  8
寸法
 62
               0
100
AcDbMText
 10
5880.6802864583333
 20
877.72787270371919
 30
0.0
 40
16.123046874999996
 41
0.0
 71
               1
 72
               1
  1
210
  7
小塚ゴシック Pr6N R
 11
0.0
 21
1.0
 31
0.0
 73
               1
 44
1.3839975285758424
  0
POINT
  5
C5
100
AcDbEntity
  8
Defpoints
370
               0
 62
               0
100
AcDbPoint
 10
5974.1187565204391
 20
1000.380744061698
 30
0.0
  0
POINT
  5
C6
100
AcDbEntity
  8
Defpoints
370
               0
 62
               0
100
AcDbPoint
 10
5974.1187565204391
 20
790.0
 30
0.0
  0
POINT
  5
C7
100
AcDbEntity
  8
Defpoints
370
               0
 62
               0
100
AcDbPoint
 10
5908.0
 20
790.0
 30
0.0
  0
ENDBLK
  5
C8
100
AcDbEntity
  8
寸法
100
AcDbBlockEnd
  0
BLOCK
  5
C9
100
AcDbEntity
  8
寸法
100
AcDbBlockBegin
  2
*D8
 70
               1
 10
0.0
 20
0.0
 30
0.0
  3
*D8
  1

  0
LINE
  5
CA
100
AcDbEntity
  8
寸法
370
              -2
  6
Continuous
 62
               0
100
AcDbLine
 10
5989.0
 20
930.38074406169972
 30
0.0
 11
5947.6192559383016
 21
930.38074406169972
 31
0.0
  0
LINE
  5
CB
100
AcDbEntity
  8
寸法
370
              -2
  6
Continuous
 62
               0
100
AcDbLine
 10
5989.0
 20
1000.380744061698
 30
0.0
 11
5947.6192559383016
 21
1000.380744061698
 31
0.0
  0
LINE
  5
CC
100
AcDbEntity
  8
寸法
370
              -2
  6
Continuous
 62
               0
100
AcDbLine
 10
5947.6192559383016
 20
930.38074406169972
 30
0.0
 11
5947.6192559383016
 21
1000.380744061698
 31
0.0
  0
SOLID
  5
CD
100
AcDbEntity
  8
寸法
370
              -2
 62
               0
100
AcDbTrace
 10
5947.6192559383016
 20
930.38074406169972
 30
0.0
 11
5945.6087211531021
 21
937.88416203044972
 31
0.0
 12
5949.6297907235021
 22
937.88416203044972
 32
0.0
 13
5949.6297907235021
 23
937.88416203044972
 33
0.0
  0
SOLID
  5
CE
100
AcDbEntity
  8
寸法
370
              -2
 62
               0
100
AcDbTrace
 10
5947.6192559383016
 20
1000.380744061698
 30
0.0
 11
5949.6297907235021
 21
992.87732609294801
 31
0.0
 12
5945.6087211531021
 22
992.87732609294801
 32
0.0
 13
5945.6087211531021
 23
992.87732609294801
 33
0.0
  0
POINT
  5
CF
100
AcDbEntity
  8
Defpoints
370
               0
 62
               0
100
AcDbPoint
 10
5994.0
 20
1000.380744061698
 30
0.0
  0
POINT
  5
D0
100
AcDbEntity
  8
Defpoints
370
               0
 62
               0
100
AcDbPoint
 10
5994.0
 20
930.38074406169972
 30
0.0
  0
POINT
  5
D1
100
AcDbEntity
  8
Defpoints
370
               0
 62
               0
100
AcDbPoint
 10
5947.6192559383016
 20
930.38074406169972
 30
0.0
  0
ENDBLK
  5
D2
100
AcDbEntity
  8
寸法
100
AcDbBlockEnd
  0
BLOCK
  5
D3
100
AcDbEntity
  8
寸法
100
AcDbBlockBegin
  2
*D9
 70
               1
 10
0.0
 20
0.0
 30
0.0
  3
*D9
  1

  0
LINE
  5
D4
100
AcDbEntity
  8
寸法
370
              -2
  6
Continuous
 62
               0
100
AcDbLine
 10
5984.0
 20
930.38074406169972
 30
0.0
 11
5947.6192559383016
 21
930.38074406169972
 31
0.0
  0
LINE
  5
D5
100
AcDbEntity
  8
寸法
370
              -2
  6
Continuous
 62
               0
100
AcDbLine
 10
5984.0
 20
880.38074406169972
 30
0.0
 11
5947.6192559383016
 21
880.38074406169972
 31
0.0
  0
LINE
  5
D6
100
AcDbEntity
  8
寸法
370
              -2
  6
Continuous
 62
               0
100
AcDbLine
 10
5947.6192559383016
 20
930.38074406169972
 30
0.0
 11
5947.6192559383016
 21
880.38074406169972
 31
0.0
  0
SOLID
  5
D7
100
AcDbEntity
  8
寸法
370
              -2
 62
               0
100
AcDbTrace
 10
5947.6192559383016
 20
930.38074406169972
 30
0.0
 11
5949.6297907235021
 21
922.87732609294972
 31
0.0
 12
5945.6087211531021
 22
922.87732609294972
 32
0.0
 13
5945.6087211531021
 23
922.87732609294972
 33
0.0
  0
SOLID
  5
D8
100
AcDbEntity
  8
寸法
370
              -2
 62
               0
100
AcDbTrace
 10
5947.6192559383016
 20
880.38074406169972
 30
0.0
 11
5945.6087211531021
 21
887.88416203044972
 31
0.0
 12
5949.6297907235021
 22
887.88416203044972
 32
0.0
 13
5949.6297907235021
 23
887.88416203044972
 33
0.0
  0
POINT
  5
D9
100
AcDbEntity
  8
Defpoints
370
               0
 62
               0
100
AcDbPoint
 10
5989.0
 20
880.38074406169972
 30
0.0
  0
POINT
  5
DA
100
AcDbEntity
  8
Defpoints
370
               0
 62
               0
100
AcDbPoint
 10
5989.0
 20
930.38074406169972
 30
0.0
  0
POINT
  5
DB
100
AcDbEntity
  8
Defpoints
370
               0
 62
               0
100
AcDbPoint
 10
5947.6192559383016
 20
930.38074406169972
 30
0.0
  0
ENDBLK
  5
DC
100
AcDbEntity
  8
寸法
100
AcDbBlockEnd
  0
BLOCK
  5
DD
100
AcDbEntity
  8
寸法
100
AcDbBlockBegin
  2
*D10
 70
               1
 10
0.0
 20
0.0
 30
0.0
  3
*D10
  1

  0
LINE
  5
DE
100
AcDbEntity
  8
寸法
370
              -2
  6
Continuous
 62
               0
100
AcDbLine
 10
6052.1997646888531
 20
807.88163689606756
 30
0.0
 11
6072.3181277927852
 21
828.0
 31
0.0
  0
LINE
  5
DF
100
AcDbEntity
  8
寸法
370
              -2
  6
Continuous
 62
               0
100
AcDbLine
 10
6072.3181277927852
 20
828.0
 30
0.0
 11
6228.3164519750844
 21
828.0
 31
0.0
  0
LINE
  5
E0
100
AcDbEntity
  8
寸法
370
              -2
  6
Continuous
 62
               0
100
AcDbLine
 10
6017.1979790201194
 20
772.87985122733369
 30
0.0
 11
6052.1997646888531
 21
807.88163689606756
 31
0.0
  0
SOLID
  5
E1
100
AcDbEntity
  8
寸法
370
              -2
 62
               0
100
AcDbTrace
 10
6017.1979790201194
 20
772.87985122733369
 30
0.0
 11
6025.4154837021242
 21
787.11298684800158
 31
0.0
 12
6031.4311146407872
 22
781.09735590933872
 32
0.0
 13
6031.4311146407872
 23
781.09735590933872
 33
0.0
  0
SOLID
  5
E2
100
AcDbEntity
  8
寸法
370
              -2
 62
               0
100
AcDbTrace
 10
6052.1997646888531
 20
807.88163689606756
 30
0.0
 11
6043.9822600068483
 21
793.64850127539967
 31
0.0
 12
6037.9666290681853
 22
799.66413221406253
 32
0.0
 13
6037.9666290681853
 23
799.66413221406253
 33
0.0
  0
MTEXT
  5
E3
100
AcDbEntity
  8
寸法
 62
               0
100
AcDbMText
 10
6104.0681277927852
 20
855.31971354166672
 30
0.0
 40
16.123046874999996
 41
0.0
 71
               1
 72
               1
  1
排水穴φ49.5
  7
小塚ゴシック Pr6N R
 73
               1
 44
1.3839975285758424
  0
POINT
  5
E4
100
AcDbEntity
  8
Defpoints
370
               0
 62
               0
100
AcDbPoint
 10
6017.1979790201194
 20
772.87985122733369
 30
0.0
  0
POINT
  5
E5
100
AcDbEntity
  8
Defpoints
370
               0
 62
               0
100
AcDbPoint
 10
6052.1997646888531
 20
807.88163689606756
 30
0.0
  0
ENDBLK
  5
E6
100
AcDbEntity
  8
寸法
100
AcDbBlockEnd
  0
BLOCK
  5
E7
100
AcDbEntity
  8
寸法
100
AcDbBlockBegin
  2
*D11
 70
               1
 10
0.0
 20
0.0
 30
0.0
  3
*D11
  1

  0
LINE
  5
E8
100
AcDbEntity
  8
寸法
370
              -2
  6
Continuous
 62
               0
100
AcDbLine
 10
6383.0
 20
500.38074406169972
 30
0.0
 11
6480.0
 21
500.38074406169972
 31
0.0
  0
LINE
  5
E9
100
AcDbEntity
  8
寸法
370
              -2
  6
Continuous
 62
               0
100
AcDbLine
 10
6408.3988718544879
 20
600.38074406169972
 30
0.0
 11
6480.0
 21
600.38074406169972
 31
0.0
  0
LINE
  5
EA
100
AcDbEntity
  8
寸法
370
              -2
  6
Continuous
 62
               0
100
AcDbLine
 10
6480.0
 20
500.38074406169972
 30
0.0
 11
6480.0
 21
600.38074406169972
 31
0.0
  0
SOLID
  5
EB
100
AcDbEntity
  8
寸法
370
              -2
 62
               0
100
AcDbTrace
 10
6480.0
 20
500.38074406169972
 30
0.0
 11
6477.9894652148005
 21
507.88416203044972
 31
0.0
 12
6482.0105347851995
 22
507.88416203044972
 32
0.0
 13
6482.0105347851995
 23
507.88416203044972
 33
0.0
  0
SOLID
  5
EC
100
AcDbEntity
  8
寸法
370
              -2
 62
               0
100
AcDbTrace
 10
6480.0
 20
600.38074406169972
 30
0.0
 11
6482.0105347851995
 21
592.87732609294972
 31
0.0
 12
6477.9894652148005
 22
592.87732609294972
 32
0.0
 13
6477.9894652148005
 23
592.87732609294972
 33
0.0
  0
WIPEOUT
  5
ED
100
AcDbEntity
  8
寸法
370
              -2
  6
Continuous
 62
               0
 92
        0
100
AcDbWipeout
 90
        0
 10
6438.958333333333
 20
6111.3920803248629
 30
0.0
 11
37.041666666666657
 21
0.0
 31
0.0
 12
0.0
 22
37.041666666666657
 32
0.0
 13
1.0
 23
1.0
340
0
 70
               7
280
               1
281
              50
282
              50
283
               0
360
0
 71
               2
 91
        5
 14
0.5000000000000084
 24
151.09996856486734
 14
0.5000000000000084
 24
150.15711145834067
 14
-0.5
 24
150.15711145834067
 14
-0.5
 24
151.09996856486734
 14
0.5000000000000084
 24
151.09996856486734
  0
MTEXT
  5
EE
100
AcDbEntity
  8
寸法
 62
               0
100
AcDbMText
 10
6452.6802864583333
 20
532.91824473456995
 30
0.0
 40
16.123046874999996
 41
0.0
 71
               1
 72
               1
  1
100
  7
小塚ゴシック Pr6N R
 11
0.0
 21
1.0
 31
0.0
 73
               1
 44
1.3839975285758424
  0
POINT
  5
EF
100
AcDbEntity
  8
Defpoints
370
               0
 62
               0
100
AcDbPoint
 10
6403.3988718544879
 20
600.38074406169972
 30
0.0
  0
POINT
  5
F0
100
AcDbEntity
  8
Defpoints
370
               0
 62
               0
100
AcDbPoint
 10
6378.0
 20
500.38074406169972
 30
0.0
  0
POINT
  5
F1
100
AcDbEntity
  8
Defpoints
370
               0
 62
               0
100
AcDbPoint
 10
6480.0
 20
500.38074406169972
 30
0.0
  0
ENDBLK
  5
F2
100
AcDbEntity
  8
寸法
100
AcDbBlockEnd
  0
BLOCK
  5
F3
100
AcDbEntity
  8
寸法
100
AcDbBlockBegin
  2
*D12
 70
               1
 10
0.0
 20
0.0
 30
0.0
  3
*D12
  1

  0
LINE
  5
F4
100
AcDbEntity
  8
寸法
370
              -2
  6
Continuous
 62
               0
100
AcDbLine
 10
6413.3988718544879
 20
600.38074406169972
 30
0.0
 11
6480.0
 21
600.38074406169972
 31
0.0
  0
LINE
  5
F5
100
AcDbEntity
  8
寸法
370
              -2
  6
Continuous
 62
               0
100
AcDbLine
 10
6414.6988718544862
 20
900.38074406169972
 30
0.0
 11
6480.0
 21
900.38074406169972
 31
0.0
  0
LINE
  5
F6
100
AcDbEntity
  8
寸法
370
              -2
  6
Continuous
 62
               0
100
AcDbLine
 10
6480.0
 20
600.38074406169972
 30
0.0
 11
6480.0
 21
900.38074406169972
 31
0.0
  0
SOLID
  5
F7
100
AcDbEntity
  8
寸法
370
              -2
 62
               0
100
AcDbTrace
 10
6480.0
 20
600.38074406169972
 30
0.0
 11
6477.9894652148005
 21
607.88416203044972
 31
0.0
 12
6482.0105347851995
 22
607.88416203044972
 32
0.0
 13
6482.0105347851995
 23
607.88416203044972
 33
0.0
  0
SOLID
  5
F8
100
AcDbEntity
  8
寸法
370
              -2
 62
               0
100
AcDbTrace
 10
6480.0
 20
900.38074406169972
 30
0.0
 11
6482.0105347851995
 21
892.87732609294972
 31
0.0
 12
6477.9894652148005
 22
892.87732609294972
 32
0.0
 13
6477.9894652148005
 23
892.87732609294972
 33
0.0
  0
WIPEOUT
  5
F9
100
AcDbEntity
  8
寸法
370
              -2
  6
Continuous
 62
               0
 92
        0
100
AcDbWipeout
 90
        0
 10
6438.958333333333
 20
6311.3920803248629
 30
0.0
 11
37.041666666666657
 21
0.0
 31
0.0
 12
0.0
 22
37.041666666666657
 32
0.0
 13
1.0
 23
1.0
340
0
 70
               7
280
               1
281
              50
282
              50
283
               0
360
0
 71
               2
 91
        5
 14
0.5000000000000084
 24
151.09996856486734
 14
0.5000000000000084
 24
150.15711145834067
 14
-0.5
 24
150.15711145834067
 14
-0.5
 24
151.09996856486734
 14
0.5000000000000084
 24
151.09996856486734
  0
MTEXT
  5
FA
100
AcDbEntity
  8
寸法
 62
               0
100
AcDbMText
 10
6452.6802864583333
 20
732.91824473456995
 30
0.0
 40
16.123046874999996
 41
0.0
 71
               1
 72
               1
  1
300
  7
小塚ゴシック Pr6N R
 11
0.0
 21
1.0
 31
0.0
 73
               1
 44
1.3839975285758424
  0
POINT
  5
FB
100
AcDbEntity
  8
Defpoints
370
               0
 62
               0
100
AcDbPoint
 10
6409.6988718544862
 20
900.38074406169972
 30
0.0
  0
POINT
  5
FC
100
AcDbEntity
  8
Defpoints
370
               0
 62
               0
100
AcDbPoint
 10
6408.3988718544879
 20
600.38074406169972
 30
0.0
  0
POINT
  5
FD
100
AcDbEntity
  8
Defpoints
370
               0
 62
               0
100
AcDbPoint
 10
6480.0
 20
600.38074406169972
 30
0.0
  0
ENDBLK
  5
FE
100
AcDbEntity
  8
寸法
100
AcDbBlockEnd
  0
BLOCK
  5
FF
100
AcDbEntity
  8
寸法
100
AcDbBlockBegin
  2
*D13
 70
               1
 10
0.0
 20
0.0
 30
0.0
  3
*D13
  1

  0
LINE
  5
100
100
AcDbEntity
  8
寸法
370
              -2
  6
Continuous
 62
               0
100
AcDbLine
 10
6419.6988718544862
 20
900.38074406169972
 30
0.0
 11
6480.0
 21
900.38074406169972
 31
0.0
  0
LINE
  5
101
100
AcDbEntity
  8
寸法
370
              -2
  6
Continuous
 62
               0
100
AcDbLine
 10
6410.1988718544862
 20
1000.380744061699
 30
0.0
 11
6480.0
 21
1000.380744061699
 31
0.0
  0
LINE
  5
102
100
AcDbEntity
  8
寸法
370
              -2
  6
Continuous
 62
               0
100
AcDbLine
 10
6480.0
 20
900.38074406169972
 30
0.0
 11
6480.0
 21
1000.380744061699
 31
0.0
  0
SOLID
  5
103
100
AcDbEntity
  8
寸法
370
              -2
 62
               0
100
AcDbTrace
 10
6480.0
 20
900.38074406169972
 30
0.0
 11
6477.9894652148005
 21
907.88416203044972
 31
0.0
 12
6482.0105347851995
 22
907.88416203044972
 32
0.0
 13
6482.0105347851995
 23
907.88416203044972
 33
0.0
  0
SOLID
  5
104
100
AcDbEntity
  8
寸法
370
              -2
 62
               0
100
AcDbTrace
 10
6480.0
 20
1000.380744061699
 30
0.0
 11
6482.0105347851995
 21
992.87732609294903
 31
0.0
 12
6477.9894652148005
 22
992.87732609294903
 32
0.0
 13
6477.9894652148005
 23
992.87732609294903
 33
0.0
  0
WIPEOUT
  5
105
100
AcDbEntity
  8
寸法
370
              -2
  6
Continuous
 62
               0
 92
        0
100
AcDbWipeout
 90
        0
 10
6438.958333333333
 20
6511.3920803248629
 30
0.0
 11
37.041666666666657
 21
0.0
 31
0.0
 12
0.0
 22
37.041666666666657
 32
0.0
 13
1.0
 23
1.0
340
0
 70
               7
280
               1
281
              50
282
              50
283
               0
360
0
 71
               2
 91
        5
 14
0.5000000000000084
 24
151.09996856486737
 14
0.5000000000000084
 24
150.15711145834067
 14
-0.5
 24
150.15711145834067
 14
-0.5
 24
151.09996856486737
 14
0.5000000000000084
 24
151.09996856486737
  0
MTEXT
  5
106
100
AcDbEntity
  8
寸法
 62
               0
100
AcDbMText
 10
6452.6802864583333
 20
932.91824473456961
 30
0.0
 40
16.123046874999996
 41
0.0
 71
               1
 72
               1
  1
100
  7
小塚ゴシック Pr6N R
 11
0.0
 21
1.0
 31
0.0
 73
               1
 44
1.3839975285758424
  0
POINT
  5
107
100
AcDbEntity
  8
Defpoints
370
               0
 62
               0
100
AcDbPoint
 10
6405.1988718544862
 20
1000.380744061699
 30
0.0
  0
POINT
  5
108
100
AcDbEntity
  8
Defpoints
370
               0
 62
               0
100
AcDbPoint
 10
6414.6988718544862
 20
900.38074406169972
 30
0.0
  0
POINT
  5
109
100
AcDbEntity
  8
Defpoints
370
               0
 62
               0
100
AcDbPoint
 10
6480.0
 20
900.38074406169972
 30
0.0
  0
ENDBLK
  5
10A
100
AcDbEntity
  8
寸法
100
AcDbBlockEnd
  0
BLOCK
  5
10B
100
AcDbEntity
  8
寸法
100
AcDbBlockBegin
  2
*D14
 70
               1
 10
0.0
 20
0.0
 30
0.0
  3
*D14
  1

  0
LINE
  5
10C
100
AcDbEntity
  8
寸法
370
              -2
  6
Continuous
 62
               0
100
AcDbLine
 10
6048.1339006970311
 20
943.815772904244
 30
0.0
 11
6062.0
 21
957.68187220721302
 31
0.0
  0
LINE
  5
10D
100
AcDbEntity
  8
寸法
370
              -2
  6
Continuous
 62
               0
100
AcDbLine
 10
6062.0
 20
957.68187220721302
 30
0.0
 11
6201.6999946170381
 21
957.68187220721302
 31
0.0
  0
LINE
  5
10E
100
AcDbEntity
  8
寸法
370
              -2
  6
Continuous
 62
               0
100
AcDbLine
 10
6021.2638430119423
 20
916.94571521915543
 30
0.0
 11
6048.1339006970311
 21
943.815772904244
 31
0.0
  0
SOLID
  5
10F
100
AcDbEntity
  8
寸法
370
              -2
 62
               0
100
AcDbTrace
 10
6021.2638430119423
 20
916.94571521915543
 30
0.0
 11
6029.4813476939471
 21
931.17885083982333
 31
0.0
 12
6035.4969786326101
 22
925.16321990116046
 32
0.0
 13
6035.4969786326101
 23
925.16321990116046
 33
0.0
  0
SOLID
  5
110
100
AcDbEntity
  8
寸法
370
              -2
 62
               0
100
AcDbTrace
 10
6048.1339006970311
 20
943.815772904244
 30
0.0
 11
6039.9163960150263
 21
929.5826372835761
 31
0.0
 12
6033.9007650763633
 22
935.59826822223897
 32
0.0
 13
6033.9007650763633
 23
935.59826822223897
 33
0.0
  0
MTEXT
  5
111
100
AcDbEntity
  8
寸法
 62
               0
100
AcDbMText
 10
6093.75
 20
985.00158574887973
 30
0.0
 40
16.123046874999996
 41
0.0
 71
               1
 72
               1
  1
水栓穴φ38
  7
小塚ゴシック Pr6N R
 73
               1
 44
1.3839975285758424
  0
POINT
  5
112
100
AcDbEntity
  8
Defpoints
370
               0
 62
               0
100
AcDbPoint
 10
6021.2638430119423
 20
916.94571521915543
 30
0.0
  0
POINT
  5
113
100
AcDbEntity
  8
Defpoints
370
               0
 62
               0
100
AcDbPoint
 10
6048.1339006970311
 20
943.815772904244
 30
0.0
  0
ENDBLK
  5
114
100
AcDbEntity
  8
寸法
100
AcDbBlockEnd
  0
BLOCK
  5
115
100
AcDbEntity
  8
寸法
100
AcDbBlockBegin
  2
*D15
 70
               1
 10
0.0
 20
0.0
 30
0.0
  3
*D15
  1

  0
LINE
  5
116
100
AcDbEntity
  8
寸法
370
              -2
  6
Continuous
 62
               0
100
AcDbLine
 10
6782.8478799172899
 20
500.38074406169972
 30
0.0
 11
6656.8478799172917
 21
500.38074406169972
 31
0.0
  0
LINE
  5
117
100
AcDbEntity
  8
寸法
370
              -2
  6
Continuous
 62
               0
100
AcDbLine
 10
6704.3732176321282
 20
530.38074406169972
 30
0.0
 11
6656.8478799172917
 21
530.38074406169972
 31
0.0
  0
LINE
  5
118
100
AcDbEntity
  8
寸法
370
              -2
  6
Continuous
 62
               0
100
AcDbLine
 10
6656.8478799172917
 20
500.38074406169972
 30
0.0
 11
6656.8478799172917
 21
530.38074406169972
 31
0.0
  0
SOLID
  5
119
100
AcDbEntity
  8
寸法
370
              -2
 62
               0
100
AcDbTrace
 10
6656.8478799172917
 20
500.38074406169972
 30
0.0
 11
6654.8373451320922
 21
507.88416203044972
 31
0.0
 12
6658.8584147024912
 22
507.88416203044972
 32
0.0
 13
6658.8584147024912
 23
507.88416203044972
 33
0.0
  0
SOLID
  5
11A
100
AcDbEntity
  8
寸法
370
              -2
 62
               0
100
AcDbTrace
 10
6656.8478799172917
 20
530.38074406169972
 30
0.0
 11
6658.8584147024912
 21
522.87732609294972
 31
0.0
 12
6654.8373451320922
 22
522.87732609294972
 32
0.0
 13
6654.8373451320922
 23
522.87732609294972
 33
0.0
  0
WIPEOUT
  5
11B
100
AcDbEntity
  8
寸法
370
              -2
  6
Continuous
 62
               0
 92
        0
100
AcDbWipeout
 90
        0
 10
6615.8062132506248
 20
6082.2129131535439
 30
0.0
 11
37.041666666666686
 21
0.0
 31
0.0
 12
0.0
 22
37.041666666666686
 32
0.0
 13
1.0
 23
1.0
340
0
 70
               7
280
               1
281
              50
282
              50
283
               0
360
0
 71
               2
 91
        5
 14
0.5000000000000078
 24
151.09996856486725
 14
0.5000000000000078
 24
150.4713971453784
 14
-0.5
 24
150.4713971453784
 14
-0.5
 24
151.09996856486725
 14
0.5000000000000078
 24
151.09996856486725
  0
MTEXT
  5
11C
100
AcDbEntity
  8
寸法
 62
               0
100
AcDbMText
 10
6629.528166375625
 20
503.73907756325059
 30
0.0
 40
16.123046874999996
 41
0.0
 71
               1
 72
               1
  1
30
  7
小塚ゴシック Pr6N R
 11
0.0
 21
1.0
 31
0.0
 73
               1
 44
1.3839975285758424
  0
POINT
  5
11D
100
AcDbEntity
  8
Defpoints
370
               0
 62
               0
100
AcDbPoint
 10
6709.3732176321282
 20
530.38074406169972
 30
0.0
  0
POINT
  5
11E
100
AcDbEntity
  8
Defpoints
370
               0
 62
               0
100
AcDbPoint
 10
6787.8478799172899
 20
500.38074406169972
 30
0.0
  0
POINT
  5
11F
100
AcDbEntity
  8
Defpoints
370
               0
 62
               0
100
AcDbPoint
 10
6656.8478799172899
 20
500.38074406169972
 30
0.0
  0
ENDBLK
  5
120
100
AcDbEntity
  8
寸法
100
AcDbBlockEnd
  0
BLOCK
  5
121
100
AcDbEntity
  8
寸法
100
AcDbBlockBegin
  2
*D16
 70
               1
 10
0.0
 20
0.0
 30
0.0
  3
*D16
  1

  0
LINE
  5
122
100
AcDbEntity
  8
寸法
370
              -2
  6
Continuous
 62
               0
100
AcDbLine
 10
6699.3732176321282
 20
530.38074406169972
 30
0.0
 11
6656.8478799172917
 21
530.38074406169972
 31
0.0
  0
LINE
  5
123
100
AcDbEntity
  8
寸法
370
              -2
  6
Continuous
 62
               0
100
AcDbLine
 10
6704.7400226555619
 20
880.38074406169972
 30
0.0
 11
6656.8478799172917
 21
880.38074406169972
 31
0.0
  0
LINE
  5
124
100
AcDbEntity
  8
寸法
370
              -2
  6
Continuous
 62
               0
100
AcDbLine
 10
6656.8478799172917
 20
530.38074406169972
 30
0.0
 11
6656.8478799172917
 21
880.38074406169972
 31
0.0
  0
SOLID
  5
125
100
AcDbEntity
  8
寸法
370
              -2
 62
               0
100
AcDbTrace
 10
6656.8478799172917
 20
530.38074406169972
 30
0.0
 11
6654.8373451320922
 21
537.88416203044972
 31
0.0
 12
6658.8584147024912
 22
537.88416203044972
 32
0.0
 13
6658.8584147024912
 23
537.88416203044972
 33
0.0
  0
SOLID
  5
126
100
AcDbEntity
  8
寸法
370
              -2
 62
               0
100
AcDbTrace
 10
6656.8478799172917
 20
880.38074406169972
 30
0.0
 11
6658.8584147024912
 21
872.87732609294972
 31
0.0
 12
6654.8373451320922
 22
872.87732609294972
 32
0.0
 13
6654.8373451320922
 23
872.87732609294972
 33
0.0
  0
WIPEOUT
  5
127
100
AcDbEntity
  8
寸法
370
              -2
  6
Continuous
 62
               0
 92
        0
100
AcDbWipeout
 90
        0
 10
6615.8062132506248
 20
6266.3920803248629
 30
0.0
 11
37.041666666666686
 21
0.0
 31
0.0
 12
0.0
 22
37.041666666666686
 32
0.0
 13
1.0
 23
1.0
340
0
 70
               7
280
               1
281
              50
282
              50
283
               0
360
0
 71
               2
 91
        5
 14
0.5000000000000078
 24
151.09996856486723
 14
0.5000000000000078
 24
150.15711145834055
 14
-0.5
 24
150.15711145834055
 14
-0.5
 24
151.09996856486723
 14
0.5000000000000078
 24
151.09996856486723
  0
MTEXT
  5
128
100
AcDbEntity
  8
寸法
 62
               0
100
AcDbMText
 10
6629.528166375625
 20
687.91824473456995
 30
0.0
 40
16.123046874999996
 41
0.0
 71
               1
 72
               1
  1
350
  7
小塚ゴシック Pr6N R
 11
0.0
 21
1.0
 31
0.0
 73
               1
 44
1.3839975285758424
  0
POINT
  5
129
100
AcDbEntity
  8
Defpoints
370
               0
 62
               0
100
AcDbPoint
 10
6709.7400226555619
 20
880.38074406169972
 30
0.0
  0
POINT
  5
12A
100
AcDbEntity
  8
Defpoints
370
               0
 62
               0
100
AcDbPoint
 10
6704.3732176321282
 20
530.38074406169972
 30
0.0
  0
POINT
  5
12B
100
AcDbEntity
  8
Defpoints
370
               0
 62
               0
100
AcDbPoint
 10
6656.8478799172917
 20
530.38074406169972
 30
0.0
  0
ENDBLK
  5
12C
100
AcDbEntity
  8
寸法
100
AcDbBlockEnd
  0
BLOCK
  5
12D
100
AcDbEntity
  8
寸法
100
AcDbBlockBegin
  2
*D17
 70
               1
 10
0.0
 20
0.0
 30
0.0
  3
*D17
  1

  0
LINE
  5
12E
100
AcDbEntity
  8
寸法
370
              -2
  6
Continuous
 62
               0
100
AcDbLine
 10
6696.3478799172917
 20
880.38074406169972
 30
0.0
 11
6656.8478799172917
 21
880.38074406169972
 31
0.0
  0
LINE
  5
12F
100
AcDbEntity
  8
寸法
370
              -2
  6
Continuous
 62
               0
100
AcDbLine
 10
6782.8478799172899
 20
1000.3807440617001
 30
0.0
 11
6656.8478799172917
 21
1000.3807440617001
 31
0.0
  0
LINE
  5
130
100
AcDbEntity
  8
寸法
370
              -2
  6
Continuous
 62
               0
100
AcDbLine
 10
6656.8478799172917
 20
880.38074406169972
 30
0.0
 11
6656.8478799172917
 21
1000.3807440617001
 31
0.0
  0
SOLID
  5
131
100
AcDbEntity
  8
寸法
370
              -2
 62
               0
100
AcDbTrace
 10
6656.8478799172917
 20
880.38074406169972
 30
0.0
 11
6654.8373451320922
 21
887.88416203044972
 31
0.0
 12
6658.8584147024912
 22
887.88416203044972
 32
0.0
 13
6658.8584147024912
 23
887.88416203044972
 33
0.0
  0
SOLID
  5
132
100
AcDbEntity
  8
寸法
370
              -2
 62
               0
100
AcDbTrace
 10
6656.8478799172917
 20
1000.3807440617001
 30
0.0
 11
6658.8584147024912
 21
992.87732609295006
 31
0.0
 12
6654.8373451320922
 22
992.87732609295006
 32
0.0
 13
6654.8373451320922
 23
992.87732609295006
 33
0.0
  0
WIPEOUT
  5
133
100
AcDbEntity
  8
寸法
370
              -2
  6
Continuous
 62
               0
 92
        0
100
AcDbWipeout
 90
        0
 10
6615.8062132506248
 20
6501.3920803248639
 30
0.0
 11
37.041666666666686
 21
0.0
 31
0.0
 12
0.0
 22
37.041666666666686
 32
0.0
 13
1.0
 23
1.0
340
0
 70
               7
280
               1
281
              50
282
              50
283
               0
360
0
 71
               2
 91
        5
 14
0.5000000000000078
 24
151.09996856486725
 14
0.5000000000000078
 24
150.15711145834055
 14
-0.5
 24
150.15711145834055
 14
-0.5
 24
151.09996856486725
 14
0.5000000000000078
 24
151.09996856486725
  0
MTEXT
  5
134
100
AcDbEntity
  8
寸法
 62
               0
100
AcDbMText
 10
6629.528166375625
 20
922.91824473457018
 30
0.0
 40
16.123046874999996
 41
0.0
 71
               1
 72
               1
  1
120
  7
小塚ゴシック Pr6N R
 11
0.0
 21
1.0
 31
0.0
 73
               1
 44
1.3839975285758424
  0
POINT
  5
135
100
AcDbEntity
  8
Defpoints
370
               0
 62
               0
100
AcDbPoint
 10
6787.8478799172899
 20
1000.3807440617001
 30
0.0
  0
POINT
  5
136
100
AcDbEntity
  8
Defpoints
370
               0
 62
               0
100
AcDbPoint
 10
6701.3478799172917
 20
880.38074406169972
 30
0.0
  0
POINT
  5
137
100
AcDbEntity
  8
Defpoints
370
               0
 62
               0
100
AcDbPoint
 10
6656.8478799172917
 20
880.38074406169972
 30
0.0
  0
ENDBLK
  5
138
100
AcDbEntity
  8
寸法
100
AcDbBlockEnd
  0
BLOCK
  5
139
100
AcDbEntity
  8
寸法
100
AcDbBlockBegin
  2
*D18
 70
               1
 10
0.0
 20
0.0
 30
0.0
  3
*D18
  1

  0
LINE
  5
13A
100
AcDbEntity
  8
寸法
370
              -2
  6
Continuous
 62
               0
100
AcDbLine
 10
6696.8478799172917
 20
500.38074406169972
 30
0.0
 11
6609.8478799172917
 21
500.38074406169972
 31
0.0
  0
LINE
  5
13B
100
AcDbEntity
  8
寸法
370
              -2
  6
Continuous
 62
               0
100
AcDbLine
 10
6696.8478799172917
 20
1000.3807440617001
 30
0.0
 11
6609.8478799172917
 21
1000.3807440617001
 31
0.0
  0
LINE
  5
13C
100
AcDbEntity
  8
寸法
370
              -2
  6
Continuous
 62
               0
100
AcDbLine
 10
6609.8478799172917
 20
500.38074406169972
 30
0.0
 11
6609.8478799172917
 21
1000.3807440617001
 31
0.0
  0
SOLID
  5
13D
100
AcDbEntity
  8
寸法
370
              -2
 62
               0
100
AcDbTrace
 10
6609.8478799172917
 20
500.38074406169972
 30
0.0
 11
6607.8373451320922
 21
507.88416203044972
 31
0.0
 12
6611.8584147024912
 22
507.88416203044972
 32
0.0
 13
6611.8584147024912
 23
507.88416203044972
 33
0.0
  0
SOLID
  5
13E
100
AcDbEntity
  8
寸法
370
              -2
 62
               0
100
AcDbTrace
 10
6609.8478799172917
 20
1000.3807440617001
 30
0.0
 11
6611.8584147024912
 21
992.87732609295006
 31
0.0
 12
6607.8373451320922
 22
992.87732609295006
 32
0.0
 13
6607.8373451320922
 23
992.87732609295006
 33
0.0
  0
WIPEOUT
  5
13F
100
AcDbEntity
  8
寸法
370
              -2
  6
Continuous
 62
               0
 92
        0
100
AcDbWipeout
 90
        0
 10
6568.8062132506248
 20
6311.3920803248639
 30
0.0
 11
37.041666666666686
 21
0.0
 31
0.0
 12
0.0
 22
37.041666666666686
 32
0.0
 13
1.0
 23
1.0
340
0
 70
               7
280
               1
281
              50
282
              50
283
               0
360
0
 71
               2
 91
        5
 14
0.5000000000000078
 24
151.09996856486725
 14
0.5000000000000078
 24
150.15711145834055
 14
-0.5
 24
150.15711145834055
 14
-0.5
 24
151.09996856486725
 14
0.5000000000000078
 24
151.09996856486725
  0
MTEXT
  5
140
100
AcDbEntity
  8
寸法
 62
               0
100
AcDbMText
 10
6582.528166375625
 20
732.91824473457007
 30
0.0
 40
16.123046874999996
 41
0.0
 71
               1
 72
               1
  1
500
  7
小塚ゴシック Pr6N R
 11
0.0
 21
1.0
 31
0.0
 73
               1
 44
1.3839975285758424
  0
POINT
  5
141
100
AcDbEntity
  8
Defpoints
370
               0
 62
               0
100
AcDbPoint
 10
6701.8478799172917
 20
1000.3807440617001
 30
0.0
  0
POINT
  5
142
100
AcDbEntity
  8
Defpoints
370
               0
 62
               0
100
AcDbPoint
 10
6701.8478799172917
 20
500.38074406169972
 30
0.0
  0
POINT
  5
143
100
AcDbEntity
  8
Defpoints
370
               0
 62
               0
100
AcDbPoint
 10
6609.8478799172917
 20
500.38074406169972
 30
0.0
  0
ENDBLK
  5
144
100
AcDbEntity
  8
寸法
100
AcDbBlockEnd
  0
BLOCK
  5
145
100
AcDbEntity
  8
寸法
100
AcDbBlockBegin
  2
*D19
 70
               1
 10
0.0
 20
0.0
 30
0.0
  3
*D19
  1

  0
LINE
  5
146
100
AcDbEntity
  8
寸法
370
              -2
  6
Continuous
 62
               0
100
AcDbLine
 10
6707.8478799172917
 20
516.5
 30
0.0
 11
6707.8478799172917
 21
442.5
 31
0.0
  0
LINE
  5
147
100
AcDbEntity
  8
寸法
370
              -2
  6
Continuous
 62
               0
100
AcDbLine
 10
6787.8478799172899
 20
495.38074406169972
 30
0.0
 11
6787.8478799172899
 21
442.5
 31
0.0
  0
LINE
  5
148
100
AcDbEntity
  8
寸法
370
              -2
  6
Continuous
 62
               0
100
AcDbLine
 10
6707.8478799172917
 20
442.5
 30
0.0
 11
6787.8478799172899
 21
442.5
 31
0.0
  0
SOLID
  5
149
100
AcDbEntity
  8
寸法
370
              -2
 62
               0
100
AcDbTrace
 10
6707.8478799172917
 20
442.5
 30
0.0
 11
6715.3512978860417
 21
444.51053478519975
 31
0.0
 12
6715.3512978860417
 22
440.48946521480025
 32
0.0
 13
6715.3512978860417
 23
440.48946521480025
 33
0.0
  0
SOLID
  5
14A
100
AcDbEntity
  8
寸法
370
              -2
 62
               0
100
AcDbTrace
 10
6787.8478799172899
 20
442.5
 30
0.0
 11
6780.3444619485399
 21
440.48946521480025
 31
0.0
 12
6780.3444619485399
 22
444.51053478519975
 32
0.0
 13
6780.3444619485399
 23
444.51053478519975
 33
0.0
  0
WIPEOUT
  5
14B
100
AcDbEntity
  8
寸法
370
              -2
  6
Continuous
 62
               0
 92
        0
100
AcDbWipeout
 90
        0
 10
6736.2062134188418
 20
6024.9738355902937
 30
0.0
 11
37.041666666666686
 21
0.0
 31
0.0
 12
0.0
 22
37.041666666666686
 32
0.0
 13
1.0
 23
1.0
340
0
 70
               7
280
               1
281
              50
282
              50
283
               0
360
0
 71
               2
 91
        5
 14
-0.5
 24
151.09996856486725
 14
0.1285714194888102
 24
151.09996856486725
 14
0.1285714194888102
 24
150.09996856486723
 14
-0.5
 24
150.09996856486723
 14
-0.5
 24
151.09996856486725
  0
MTEXT
  5
14C
100
AcDbEntity
  8
寸法
 62
               0
100
AcDbMText
 10
6736.2062134188418
 20
469.81971354166672
 30
0.0
 40
16.123046874999996
 41
0.0
 71
               1
 72
               1
  1
80
  7
小塚ゴシック Pr6N R
 73
               1
 44
1.3839975285758424
  0
POINT
  5
14D
100
AcDbEntity
  8
Defpoints
370
               0
 62
               0
100
AcDbPoint
 10
6787.8478799172899
 20
500.38074406169972
 30
0.0
  0
POINT
  5
14E
100
AcDbEntity
  8
Defpoints
370
               0
 62
               0
100
AcDbPoint
 10
6707.8478799172917
 20
521.5
 30
0.0
  0
POINT
  5
14F
100
AcDbEntity
  8
Defpoints
370
               0
 62
               0
100
AcDbPoint
 10
6707.8478799172917
 20
442.5
 30
0.0
  0
ENDBLK
  5
150
100
AcDbEntity
  8
寸法
100
AcDbBlockEnd
  0
BLOCK
  5
151
100
AcDbEntity
  8
寸法
100
AcDbBlockBegin
  2
*D20
 70
               1
 10
0.0
 20
0.0
 30
0.0
  3
*D20
  1

  0
LINE
  5
152
100
AcDbEntity
  8
寸法
370
              -2
  6
Continuous
 62
               0
100
AcDbLine
 10
6787.8478799172899
 20
486.0
 30
0.0
 11
6787.8478799172899
 21
442.5
 31
0.0
  0
LINE
  5
153
100
AcDbEntity
  8
寸法
370
              -2
  6
Continuous
 62
               0
100
AcDbLine
 10
6859.8478799172899
 20
500.5
 30
0.0
 11
6859.8478799172899
 21
442.5
 31
0.0
  0
LINE
  5
154
100
AcDbEntity
  8
寸法
370
              -2
  6
Continuous
 62
               0
100
AcDbLine
 10
6787.8478799172899
 20
442.5
 30
0.0
 11
6859.8478799172899
 21
442.5
 31
0.0
  0
SOLID
  5
155
100
AcDbEntity
  8
寸法
370
              -2
 62
               0
100
AcDbTrace
 10
6787.8478799172899
 20
442.5
 30
0.0
 11
6795.3512978860399
 21
444.51053478519975
 31
0.0
 12
6795.3512978860399
 22
440.48946521480025
 32
0.0
 13
6795.3512978860399
 23
440.48946521480025
 33
0.0
  0
SOLID
  5
156
100
AcDbEntity
  8
寸法
370
              -2
 62
               0
100
AcDbTrace
 10
6859.8478799172899
 20
442.5
 30
0.0
 11
6852.3444619485399
 21
440.48946521480025
 31
0.0
 12
6852.3444619485399
 22
444.51053478519975
 32
0.0
 13
6852.3444619485399
 23
444.51053478519975
 33
0.0
  0
WIPEOUT
  5
157
100
AcDbEntity
  8
寸法
370
              -2
  6
Continuous
 62
               0
 92
        0
100
AcDbWipeout
 90
        0
 10
6812.2062134188409
 20
6024.9738355902937
 30
0.0
 11
37.041666666666686
 21
0.0
 31
0.0
 12
0.0
 22
37.041666666666686
 32
0.0
 13
1.0
 23
1.0
340
0
 70
               7
280
               1
281
              50
282
              50
283
               0
360
0
 71
               2
 91
        5
 14
-0.5
 24
151.09996856486725
 14
0.1285714194888102
 24
151.09996856486725
 14
0.1285714194888102
 24
150.09996856486723
 14
-0.5
 24
150.09996856486723
 14
-0.5
 24
151.09996856486725
  0
MTEXT
  5
158
100
AcDbEntity
  8
寸法
 62
               0
100
AcDbMText
 10
6812.2062134188409
 20
469.81971354166672
 30
0.0
 40
16.123046874999996
 41
0.0
 71
               1
 72
               1
  1
72
  7
小塚ゴシック Pr6N R
 73
               1
 44
1.3839975285758424
  0
POINT
  5
159
100
AcDbEntity
  8
Defpoints
370
               0
 62
               0
100
AcDbPoint
 10
6859.8478799172899
 20
505.5
 30
0.0
  0
POINT
  5
15A
100
AcDbEntity
  8
Defpoints
370
               0
 62
               0
100
AcDbPoint
 10
6787.8478799172899
 20
491.0
 30
0.0
  0
POINT
  5
15B
100
AcDbEntity
  8
Defpoints
370
               0
 62
               0
100
AcDbPoint
 10
6787.8478799172899
 20
442.5
 30
0.0
  0
ENDBLK
  5
15C
100
AcDbEntity
  8
寸法
100
AcDbBlockEnd
  0
BLOCK
  5
15D
100
AcDbEntity
  8
寸法
100
AcDbBlockBegin
  2
*D21
 70
               1
 10
0.0
 20
0.0
 30
0.0
  3
*D21
  1

  0
LINE
  5
15E
100
AcDbEntity
  8
寸法
370
              -2
  6
Continuous
 62
               0
100
AcDbLine
 10
6792.8478799172899
 20
500.38074406169972
 30
0.0
 11
6832.8478799172899
 21
500.38074406169972
 31
0.0
  0
LINE
  5
15F
100
AcDbEntity
  8
寸法
370
              -2
  6
Continuous
 62
               0
100
AcDbLine
 10
6792.8478799172899
 20
553.58074406169976
 30
0.0
 11
6832.8478799172899
 21
553.58074406169976
 31
0.0
  0
LINE
  5
160
100
AcDbEntity
  8
寸法
370
              -2
  6
Continuous
 62
               0
100
AcDbLine
 10
6832.8478799172899
 20
500.38074406169972
 30
0.0
 11
6832.8478799172899
 21
553.58074406169976
 31
0.0
  0
SOLID
  5
161
100
AcDbEntity
  8
寸法
370
              -2
 62
               0
100
AcDbTrace
 10
6832.8478799172899
 20
500.38074406169972
 30
0.0
 11
6830.8373451320904
 21
507.88416203044972
 31
0.0
 12
6834.8584147024894
 22
507.88416203044972
 32
0.0
 13
6834.8584147024894
 23
507.88416203044972
 33
0.0
  0
SOLID
  5
162
100
AcDbEntity
  8
寸法
370
              -2
 62
               0
100
AcDbTrace
 10
6832.8478799172899
 20
553.58074406169976
 30
0.0
 11
6834.8584147024894
 21
546.07732609294976
 31
0.0
 12
6830.8373451320904
 22
546.07732609294976
 32
0.0
 13
6830.8373451320904
 23
546.07732609294976
 33
0.0
  0
WIPEOUT
  5
163
100
AcDbEntity
  8
寸法
370
              -2
  6
Continuous
 62
               0
 92
        0
100
AcDbWipeout
 90
        0
 10
6791.8062132506229
 20
6085.6637475298267
 30
0.0
 11
39.581664244333908
 21
0.0
 31
0.0
 12
0.0
 22
39.581664244333908
 32
0.0
 13
1.0
 23
1.0
340
0
 70
               7
280
               1
281
              50
282
              50
283
               0
360
0
 71
               2
 91
        5
 14
0.4358289342765436
 24
141.43580808413958
 14
0.4358289342765436
 24
140.43580808413961
 14
-0.5
 24
140.43580808413961
 14
-0.5
 24
141.43580808413958
 14
0.4358289342765436
 24
141.43580808413958
  0
MTEXT
  5
164
100
AcDbEntity
  8
寸法
 62
               0
100
AcDbMText
 10
6805.5281663756232
 20
507.18991193953275
 30
0.0
 40
16.123046874999996
 41
0.0
 71
               1
 72
               1
  1
53.2
  7
小塚ゴシック Pr6N R
 11
0.0
 21
1.0
 31
0.0
 73
               1
 44
1.3839975285758424
  0
POINT
  5
165
100
AcDbEntity
  8
Defpoints
370
               0
 62
               0
100
AcDbPoint
 10
6787.8478799172899
 20
553.58074406169976
 30
0.0
  0
POINT
  5
166
100
AcDbEntity
  8
Defpoints
370
               0
 62
               0
100
AcDbPoint
 10
6787.8478799172899
 20
500.38074406169972
 30
0.0
  0
POINT
  5
167
100
AcDbEntity
  8
Defpoints
370
               0
 62
               0
100
AcDbPoint
 10
6832.8478799172899
 20
500.38074406169972
 30
0.0
  0
ENDBLK
  5
168
100
AcDbEntity
  8
寸法
100
AcDbBlockEnd
  0
BLOCK
  5
169
100
AcDbEntity
  8
寸法
100
AcDbBlockBegin
  2
*D22
 70
               1
 10
0.0
 20
0.0
 30
0.0
  3
*D22
  1

  0
LINE
  5
16A
100
AcDbEntity
  8
寸法
370
              -2
  6
Continuous
 62
               0
100
AcDbLine
 10
6864.8478799172899
 20
765.63074406170006
 30
0.0
 11
6902.8478799172899
 21
765.63074406170006
 31
0.0
  0
LINE
  5
16B
100
AcDbEntity
  8
寸法
370
              -2
  6
Continuous
 62
               0
100
AcDbLine
 10
6864.8478799172899
 20
815.13074406170006
 30
0.0
 11
6902.8478799172899
 21
815.13074406170006
 31
0.0
  0
LINE
  5
16C
100
AcDbEntity
  8
寸法
370
              -2
  6
Continuous
 62
               0
100
AcDbLine
 10
6902.8478799172899
 20
765.63074406170006
 30
0.0
 11
6902.8478799172899
 21
815.13074406170006
 31
0.0
  0
SOLID
  5
16D
100
AcDbEntity
  8
寸法
370
              -2
 62
               0
100
AcDbTrace
 10
6902.8478799172899
 20
765.63074406170006
 30
0.0
 11
6900.8373451320904
 21
773.13416203045006
 31
0.0
 12
6904.8584147024894
 22
773.13416203045006
 32
0.0
 13
6904.8584147024894
 23
773.13416203045006
 33
0.0
  0
SOLID
  5
16E
100
AcDbEntity
  8
寸法
370
              -2
 62
               0
100
AcDbTrace
 10
6902.8478799172899
 20
815.13074406170006
 30
0.0
 11
6904.8584147024894
 21
807.62732609295006
 31
0.0
 12
6900.8373451320904
 22
807.62732609295006
 32
0.0
 13
6900.8373451320904
 23
807.62732609295006
 33
0.0
  0
MTEXT
  5
16F
100
AcDbEntity
  8
寸法
 62
               0
100
AcDbMText
 10
6875.5281663756232
 20
760.00657860619981
 30
0.0
 40
16.123046874999996
 41
0.0
 71
               1
 72
               1
  1
Φ49.5
  7
小塚ゴシック Pr6N R
 11
0.0
 21
1.0
 31
0.0
 73
               1
 44
1.3839975285758424
  0
POINT
  5
170
100
AcDbEntity
  8
Defpoints
370
               0
 62
               0
100
AcDbPoint
 10
6859.8478799172899
 20
815.13074406170006
 30
0.0
  0
POINT
  5
171
100
AcDbEntity
  8
Defpoints
370
               0
 62
               0
100
AcDbPoint
 10
6859.8478799172899
 20
765.63074406170006
 30
0.0
  0
POINT
  5
172
100
AcDbEntity
  8
Defpoints
370
               0
 62
               0
100
AcDbPoint
 10
6902.8478799172899
 20
765.63074406170006
 30
0.0
  0
ENDBLK
  5
173
100
AcDbEntity
  8
寸法
100
AcDbBlockEnd
  0
BLOCK
  5
174
100
AcDbEntity
  8
寸法
100
AcDbBlockBegin
  2
*D23
 70
               1
 10
0.0
 20
0.0
 30
0.0
  3
*D23
  1

  0
LINE
  5
175
100
AcDbEntity
  8
寸法
370
              -2
  6
Continuous
 62
               0
100
AcDbLine
 10
6862.9626330904757
 20
753.38074406170006
 30
0.0
 11
6945.8478799172899
 21
753.38074406170006
 31
0.0
  0
LINE
  5
176
100
AcDbEntity
  8
寸法
370
              -2
  6
Continuous
 62
               0
100
AcDbLine
 10
6862.9626330904757
 20
827.38074406170017
 30
0.0
 11
6945.8478799172899
 21
827.38074406170017
 31
0.0
  0
LINE
  5
177
100
AcDbEntity
  8
寸法
370
              -2
  6
Continuous
 62
               0
100
AcDbLine
 10
6945.8478799172899
 20
753.38074406170006
 30
0.0
 11
6945.8478799172899
 21
827.38074406170017
 31
0.0
  0
SOLID
  5
178
100
AcDbEntity
  8
寸法
370
              -2
 62
               0
100
AcDbTrace
 10
6945.8478799172899
 20
753.38074406170006
 30
0.0
 11
6943.8373451320904
 21
760.88416203045006
 31
0.0
 12
6947.8584147024894
 22
760.88416203045006
 32
0.0
 13
6947.8584147024894
 23
760.88416203045006
 33
0.0
  0
SOLID
  5
179
100
AcDbEntity
  8
寸法
370
              -2
 62
               0
100
AcDbTrace
 10
6945.8478799172899
 20
827.38074406170017
 30
0.0
 11
6947.8584147024894
 21
819.87732609295017
 31
0.0
 12
6943.8373451320904
 22
819.87732609295017
 32
0.0
 13
6943.8373451320904
 23
819.87732609295017
 33
0.0
  0
WIPEOUT
  5
17A
100
AcDbEntity
  8
寸法
370
              -2
  6
Continuous
 62
               0
 92
        0
100
AcDbWipeout
 90
        0
 10
6904.8062132506229
 20
6346.6295806612989
 30
0.0
 11
44.449997981389345
 21
0.0
 31
0.0
 12
0.0
 22
44.449997981389345
 32
0.0
 13
1.0
 23
1.0
340
0
 70
               7
280
               1
281
              50
282
              50
283
               0
360
0
 71
               2
 91
        5
 14
0.3333333711775611
 24
125.99997950339458
 14
0.3333333711775611
 24
124.99997950339457
 14
-0.5
 24
124.99997950339457
 14
-0.5
 24
125.99997950339458
 14
0.3333333711775611
 24
125.99997950339458
  0
MTEXT
  5
17B
100
AcDbEntity
  8
寸法
 62
               0
100
AcDbMText
 10
6918.5281663756232
 20
768.15574507100541
 30
0.0
 40
16.123046874999996
 41
0.0
 71
               1
 72
               1
  1
Φ74
  7
小塚ゴシック Pr6N R
 11
0.0
 21
1.0
 31
0.0
 73
               1
 44
1.3839975285758424
  0
POINT
  5
17C
100
AcDbEntity
  8
Defpoints
370
               0
 62
               0
100
AcDbPoint
 10
6857.9626330904757
 20
827.38074406170017
 30
0.0
  0
POINT
  5
17D
100
AcDbEntity
  8
Defpoints
370
               0
 62
               0
100
AcDbPoint
 10
6857.9626330904757
 20
753.38074406170006
 30
0.0
  0
POINT
  5
17E
100
AcDbEntity
  8
Defpoints
370
               0
 62
               0
100
AcDbPoint
 10
6945.8478799172899
 20
753.38074406170006
 30
0.0
  0
ENDBLK
  5
17F
100
AcDbEntity
  8
寸法
100
AcDbBlockEnd
  0
BLOCK
  5
180
100
AcDbEntity
  8
一般
100
AcDbBlockBegin
  2
*U24
 70
               1
 10
0.0
 20
0.0
 30
0.0
  3
*U24
  1

  0
LINE
  5
181
100
AcDbEntity
  8
一般
370
              15
  6
Continuous
 62
               0
100
AcDbLine
 10
202.60728854147914
 20
-446.24294939113918
 30
0.0
 11
172.60728854147914
 21
-446.24294939113918
 31
0.0
  0
LINE
  5
182
100
AcDbEntity
  8
一般
370
              15
  6
Continuous
 62
               0
100
AcDbLine
 10
201.94053640958822
 20
-427.24294939113918
 30
0.0
 11
172.60728854147914
 21
-427.24294939113918
 31
0.0
  0
LINE
  5
183
100
AcDbEntity
  8
一般
370
              15
  6
Continuous
 62
               0
100
AcDbLine
 10
172.60728854147914
 20
-427.24294939113918
 30
0.0
 11
172.60728854147914
 21
-446.24294939113918
 31
0.0
  0
LINE
  5
184
100
AcDbEntity
  8
一般
370
              15
  6
Continuous
 62
               0
100
AcDbLine
 10
178.61684815530293
 20
-427.24294939113918
 30
0.0
 11
172.60728854147914
 21
-433.25250900496292
 31
0.0
  0
LINE
  5
185
100
AcDbEntity
  8
一般
370
              15
  6
Continuous
 62
               0
100
AcDbLine
 10
189.93055665428767
 20
-427.24294939113918
 30
0.0
 11
172.60728854147914
 21
-444.56621750394777
 31
0.0
  0
LINE
  5
186
100
AcDbEntity
  8
一般
370
              15
  6
Continuous
 62
               0
100
AcDbLine
 10
201.24426515327241
 20
-427.24294939113918
 30
0.0
 11
182.7159872732293
 21
-445.77122727118228
 31
0.0
  0
LINE
  5
187
100
AcDbEntity
  8
一般
370
              15
  6
Continuous
 62
               0
100
AcDbLine
 10
202.03284183104523
 20
-437.76808121235115
 30
0.0
 11
194.18686899222041
 21
-445.61405405117591
 31
0.0
  0
ENDBLK
  5
188
100
AcDbEntity
  8
一般
100
AcDbBlockEnd
  0
BLOCK
  5
189
100
AcDbEntity
  8
一般
100
AcDbBlockBegin
  2
*U25
 70
               1
 10
0.0
 20
0.0
 30
0.0
  3
*U25
  1

  0
LINE
  5
18A
100
AcDbEntity
  8
一般
370
              15
  6
Continuous
 62
               0
100
AcDbLine
 10
-504.10300904699164
 20
-446.1088127507598
 30
0.0
 11
-534.10300904699147
 21
-446.1088127507598
 31
0.0
  0
LINE
  5
18B
100
AcDbEntity
  8
一般
370
              15
  6
Continuous
 62
               0
100
AcDbLine
 10
-504.10300904699164
 20
-427.1088127507598
 30
0.0
 11
-533.58732663533715
 21
-427.1088127507598
 31
0.0
  0
LINE
  5
18C
100
AcDbEntity
  8
一般
370
              15
  6
Continuous
 62
               0
100
AcDbLine
 10
-528.09344943316762
 20
-427.1088127507598
 30
0.0
 11
-533.34514779718666
 21
-432.36051111477883
 31
0.0
  0
LINE
  5
18D
100
AcDbEntity
  8
一般
370
              15
  6
Continuous
 62
               0
100
AcDbLine
 10
-516.779740934183
 20
-427.1088127507598
 30
0.0
 11
-534.10300904699147
 21
-444.43208086356839
 31
0.0
  0
LINE
  5
18E
100
AcDbEntity
  8
一般
370
              15
  6
Continuous
 62
               0
100
AcDbLine
 10
-505.46603243519837
 20
-427.1088127507598
 30
0.0
 11
-523.99431031524125
 21
-445.63709063080302
 31
0.0
  0
LINE
  5
18F
100
AcDbEntity
  8
一般
370
              15
  6
Continuous
 62
               0
100
AcDbLine
 10
-504.67745575742555
 20
-437.63394457197177
 30
0.0
 11
-512.52342859625026
 21
-445.47991741079665
 31
0.0
  0
LINE
  5
190
100
AcDbEntity
  8
一般
370
              15
  6
Continuous
 62
               0
100
AcDbLine
 10
-504.10300904699164
 20
-446.1088127507598
 30
0.0
 11
-504.10300904699164
 21
-427.1088127507598
 31
0.0
  0
ENDBLK
  5
191
100
AcDbEntity
  8
一般
100
AcDbBlockEnd
  0
BLOCK
  5
192
100
AcDbEntity
  8
寸法
100
AcDbBlockBegin
  2
*D26
 70
               1
 10
0.0
 20
0.0
 30
0.0
  3
*D26
  1

  0
LINE
  5
193
100
AcDbEntity
  8
寸法
370
              -2
  6
Continuous
 62
               0
100
AcDbLine
 10
5666.0364757709904
 20
170.96504692921371
 30
0.0
 11
5666.0364757709904
 21
130.0
 31
0.0
  0
LINE
  5
194
100
AcDbEntity
  8
寸法
370
              -2
  6
Continuous
 62
               0
100
AcDbLine
 10
5696.0364757709904
 20
171.05824519573122
 30
0.0
 11
5696.0364757709904
 21
130.0
 31
0.0
  0
LINE
  5
195
100
AcDbEntity
  8
寸法
370
              -2
  6
Continuous
 62
               0
100
AcDbLine
 10
5666.0364757709904
 20
130.0
 30
0.0
 11
5696.0364757709904
 21
130.0
 31
0.0
  0
SOLID
  5
196
100
AcDbEntity
  8
寸法
370
              -2
 62
               0
100
AcDbTrace
 10
5666.0364757709904
 20
130.0
 30
0.0
 11
5673.5398937397404
 21
132.01053478519975
 31
0.0
 12
5673.5398937397404
 22
127.98946521480025
 32
0.0
 13
5673.5398937397404
 23
127.98946521480025
 33
0.0
  0
SOLID
  5
197
100
AcDbEntity
  8
寸法
370
              -2
 62
               0
100
AcDbTrace
 10
5696.0364757709904
 20
130.0
 30
0.0
 11
5688.5330578022404
 21
127.98946521480025
 31
0.0
 12
5688.5330578022404
 22
132.01053478519975
 32
0.0
 13
5688.5330578022404
 23
132.01053478519975
 33
0.0
  0
MTEXT
  5
198
100
AcDbEntity
  8
寸法
 62
               0
100
AcDbMText
 10
5669.3948092725414
 20
157.31971354166666
 30
0.0
 40
16.123046874999996
 41
0.0
 71
               1
 72
               1
  1
30
  7
小塚ゴシック Pr6N R
 73
               1
 44
1.3839975285758424
  0
POINT
  5
199
100
AcDbEntity
  8
Defpoints
370
               0
 62
               0
100
AcDbPoint
 10
5696.0364757709904
 20
176.05824519573122
 30
0.0
  0
POINT
  5
19A
100
AcDbEntity
  8
Defpoints
370
               0
 62
               0
100
AcDbPoint
 10
5666.0364757709904
 20
175.96504692921371
 30
0.0
  0
POINT
  5
19B
100
AcDbEntity
  8
Defpoints
370
               0
 62
               0
100
AcDbPoint
 10
5666.0364757709904
 20
130.0
 30
0.0
  0
ENDBLK
  5
19C
100
AcDbEntity
  8
寸法
100
AcDbBlockEnd
  0
BLOCK
  5
19D
100
AcDbEntity
  8
寸法
100
AcDbBlockBegin
  2
*D27
 70
               1
 10
0.0
 20
0.0
 30
0.0
  3
*D27
  1

  0
LINE
  5
19E
100
AcDbEntity
  8
寸法
370
              -2
  6
Continuous
 62
               0
100
AcDbLine
 10
5696.0
 20
176.05824519573122
 30
0.0
 11
5731.8000000000002
 21
176.05824519573122
 31
0.0
  0
LINE
  5
19F
100
AcDbEntity
  8
寸法
370
              -2
  6
Continuous
 62
               0
100
AcDbLine
 10
5696.0
 20
195.05824519573122
 30
0.0
 11
5731.8000000000002
 21
195.05824519573122
 31
0.0
  0
LINE
  5
1A0
100
AcDbEntity
  8
寸法
370
              -2
  6
Continuous
 62
               0
100
AcDbLine
 10
5731.8000000000002
 20
176.05824519573122
 30
0.0
 11
5731.8000000000002
 21
195.05824519573122
 31
0.0
  0
SOLID
  5
1A1
100
AcDbEntity
  8
寸法
370
              -2
 62
               0
100
AcDbTrace
 10
5731.8000000000002
 20
176.05824519573122
 30
0.0
 11
5729.7894652148007
 21
183.56166316448122
 31
0.0
 12
5733.8105347851997
 22
183.56166316448122
 32
0.0
 13
5733.8105347851997
 23
183.56166316448122
 33
0.0
  0
SOLID
  5
1A2
100
AcDbEntity
  8
寸法
370
              -2
 62
               0
100
AcDbTrace
 10
5731.8000000000002
 20
195.05824519573122
 30
0.0
 11
5733.8105347851997
 21
187.55482722698122
 31
0.0
 12
5729.7894652148007
 22
187.55482722698122
 32
0.0
 13
5729.7894652148007
 23
187.55482722698122
 33
0.0
  0
MTEXT
  5
1A3
100
AcDbEntity
  8
寸法
 62
               0
100
AcDbMText
 10
5704.4802864583335
 20
173.91657869728215
 30
0.0
 40
16.123046874999996
 41
0.0
 71
               1
 72
               1
  1
19
  7
小塚ゴシック Pr6N R
 11
0.0
 21
1.0
 31
0.0
 73
               1
 44
1.3839975285758424
  0
POINT
  5
1A4
100
AcDbEntity
  8
Defpoints
370
               0
 62
               0
100
AcDbPoint
 10
5691.0
 20
195.05824519573122
 30
0.0
  0
POINT
  5
1A5
100
AcDbEntity
  8
Defpoints
370
               0
 62
               0
100
AcDbPoint
 10
5691.0
 20
176.05824519573122
 30
0.0
  0
POINT
  5
1A6
100
AcDbEntity
  8
Defpoints
370
               0
 62
               0
100
AcDbPoint
 10
5731.8000000000002
 20
176.05824519573122
 30
0.0
  0
ENDBLK
  5
1A7
100
AcDbEntity
  8
寸法
100
AcDbBlockEnd
  0
BLOCK
  5
1A8
100
AcDbEntity
  8
寸法
100
AcDbBlockBegin
  2
*D28
 70
               1
 10
0.0
 20
0.0
 30
0.0
  3
*D28
  1

  0
LINE
  5
1A9
100
AcDbEntity
  8
寸法
370
              -2
  6
Continuous
 62
               0
100
AcDbLine
 10
5695.4000000000005
 20
175.0
 30
0.0
 11
5731.8000000000002
 21
175.0
 31
0.0
  0
LINE
  5
1AA
100
AcDbEntity
  8
寸法
370
              -2
  6
Continuous
 62
               0
100
AcDbLine
 10
5695.2000000000007
 20
176.0
 30
0.0
 11
5731.8000000000002
 21
176.0
 31
0.0
  0
LINE
  5
1AB
100
AcDbEntity
  8
寸法
370
              -2
  6
Continuous
 62
               0
100
AcDbLine
 10
5731.8000000000002
 20
175.0
 30
0.0
 11
5731.8000000000002
 21
154.9583335015509
 31
0.0
  0
LINE
  5
1AC
100
AcDbEntity
  8
寸法
370
              -2
  6
Continuous
 62
               0
100
AcDbLine
 10
5731.8000000000002
 20
175.0
 30
0.0
 11
5731.8000000000002
 21
176.0
 31
0.0
  0
SOLID
  5
1AD
100
AcDbEntity
  8
寸法
370
              -2
 62
               0
100
AcDbTrace
 10
5731.8000000000002
 20
175.0
 30
0.0
 11
5729.7894652148007
 21
182.50341796875
 31
0.0
 12
5733.8105347851997
 22
182.50341796875
 32
0.0
 13
5733.8105347851997
 23
182.50341796875
 33
0.0
  0
SOLID
  5
1AE
100
AcDbEntity
  8
寸法
370
              -2
 62
               0
100
AcDbTrace
 10
5731.8000000000002
 20
176.0
 30
0.0
 11
5733.8105347851997
 21
168.49658203125
 31
0.0
 12
5729.7894652148007
 22
168.49658203125
 32
0.0
 13
5729.7894652148007
 23
168.49658203125
 33
0.0
  0
WIPEOUT
  5
1AF
100
AcDbEntity
  8
寸法
370
              -2
  6
Continuous
 62
               0
 92
        0
100
AcDbWipeout
 90
        0
 10
5690.7583333333332
 20
5733.4321690918441
 30
0.0
 11
37.041666666666686
 21
0.0
 31
0.0
 12
0.0
 22
37.041666666666686
 32
0.0
 13
1.0
 23
1.0
340
0
 70
               7
280
               1
281
              50
282
              50
283
               0
360
0
 71
               2
 91
        5
 14
0.5000000000000078
 24
151.09996856486725
 14
0.5000000000000078
 24
150.78568285512281
 14
-0.5
 24
150.78568285512281
 14
-0.5
 24
151.09996856486725
 14
0.5000000000000078
 24
151.09996856486725
  0
MTEXT
  5
1B0
100
AcDbEntity
  8
寸法
 62
               0
100
AcDbMText
 10
5704.4802864583335
 20
154.9583335015509
 30
0.0
 40
16.123046874999996
 41
0.0
 71
               1
 72
               1
  1
1
  7
小塚ゴシック Pr6N R
 11
0.0
 21
1.0
 31
0.0
 73
               1
 44
1.3839975285758424
  0
POINT
  5
1B1
100
AcDbEntity
  8
Defpoints
370
               0
 62
               0
100
AcDbPoint
 10
5690.2000000000007
 20
176.0
 30
0.0
  0
POINT
  5
1B2
100
AcDbEntity
  8
Defpoints
370
               0
 62
               0
100
AcDbPoint
 10
5690.4000000000005
 20
175.0
 30
0.0
  0
POINT
  5
1B3
100
AcDbEntity
  8
Defpoints
370
               0
 62
               0
100
AcDbPoint
 10
5731.8000000000002
 20
175.0
 30
0.0
  0
ENDBLK
  5
1B4
100
AcDbEntity
  8
寸法
100
AcDbBlockEnd
  0
BLOCK
  5
1B5
100
AcDbEntity
  8
寸法
100
AcDbBlockBegin
  2
*D29
 70
               1
 10
0.0
 20
0.0
 30
0.0
  3
*D29
  1

  0
LINE
  5
1B6
100
AcDbEntity
  8
寸法
370
              -2
  6
Continuous
 62
               0
100
AcDbLine
 10
6707.8478799172917
 20
471.25
 30
0.0
 11
6707.8478799172917
 21
401.68398870383584
 31
0.0
  0
LINE
  5
1B7
100
AcDbEntity
  8
寸法
370
              -2
  6
Continuous
 62
               0
100
AcDbLine
 10
6859.8478799172899
 20
471.25
 30
0.0
 11
6859.8478799172899
 21
401.68398870383584
 31
0.0
  0
LINE
  5
1B8
100
AcDbEntity
  8
寸法
370
              -2
  6
Continuous
 62
               0
100
AcDbLine
 10
6707.8478799172917
 20
401.68398870383584
 30
0.0
 11
6859.8478799172899
 21
401.68398870383584
 31
0.0
  0
SOLID
  5
1B9
100
AcDbEntity
  8
寸法
370
              -2
 62
               0
100
AcDbTrace
 10
6707.8478799172917
 20
401.68398870383584
 30
0.0
 11
6715.3512978860417
 21
403.69452348903553
 31
0.0
 12
6715.3512978860417
 22
399.67345391863614
 32
0.0
 13
6715.3512978860417
 23
399.67345391863614
 33
0.0
  0
SOLID
  5
1BA
100
AcDbEntity
  8
寸法
370
              -2
 62
               0
100
AcDbTrace
 10
6859.8478799172899
 20
401.68398870383584
 30
0.0
 11
6852.3444619485399
 21
399.67345391863614
 31
0.0
 12
6852.3444619485399
 22
403.69452348903559
 32
0.0
 13
6852.3444619485399
 23
403.69452348903559
 33
0.0
  0
MTEXT
  5
1BB
100
AcDbEntity
  8
寸法
 62
               0
100
AcDbMText
 10
6766.3853805901608
 20
429.0037022455025
 30
0.0
 40
16.123046874999996
 41
0.0
 71
               1
 72
               1
  1
152
  7
小塚ゴシック Pr6N R
 73
               1
 44
1.3839975285758424
  0
POINT
  5
1BC
100
AcDbEntity
  8
Defpoints
370
               0
 62
               0
100
AcDbPoint
 10
6859.8478799172899
 20
476.25
 30
0.0
  0
POINT
  5
1BD
100
AcDbEntity
  8
Defpoints
370
               0
 62
               0
100
AcDbPoint
 10
6707.8478799172917
 20
476.25
 30
0.0
  0
POINT
  5
1BE
100
AcDbEntity
  8
Defpoints
370
               0
 62
               0
100
AcDbPoint
 10
6707.8478799172917
 20
401.68398870383584
 30
0.0
  0
ENDBLK
  5
1BF
100
AcDbEntity
  8
寸法
100
AcDbBlockEnd
  0
ENDSEC
  0
SECTION
  2
ENTITIES
  0
POLYLINE
  5
1C0
100
AcDbEntity
  8
ﾀｲﾄﾙ枠
100
AcDb2dPolyline
 66
               1
 10
0.0
 20
0.0
 30
0.0
 70
               1
 75
               5
  0
VERTEX
  5
1C1
100
AcDbEntity
  8
ﾀｲﾄﾙ枠
100
AcDbVertex
100
AcDb2dVertex
 10
7172.6408935367845
 20
-69.9951642787114
 30
0.0
  0
VERTEX
  5
1C2
100
AcDbEntity
  8
ﾀｲﾄﾙ枠
100
AcDbVertex
100
AcDb2dVertex
 10
5242.6408935367845
 20
-69.9951642787114
 30
0.0
  0
VERTEX
  5
1C3
100
AcDbEntity
  8
ﾀｲﾄﾙ枠
100
AcDbVertex
100
AcDb2dVertex
 10
5242.6408935367845
 20
1330.0048357212886
 30
0.0
  0
VERTEX
  5
1C4
100
AcDbEntity
  8
ﾀｲﾄﾙ枠
100
AcDbVertex
100
AcDb2dVertex
 10
7172.6408935367845
 20
1330.0048357212886
 30
0.0
  0
SEQEND
  5
1C5
100
AcDbEntity
  8
ﾀｲﾄﾙ枠
  0
LINE
  5
1C6
100
AcDbEntity
  8
ﾀｲﾄﾙ枠
100
AcDbLine
 10
6747.6408935367845
 20
50.0048357212886
 30
0.0
 11
7172.6408935367845
 21
50.0048357212886
 31
0.0
  0
POLYLINE
  5
1C7
100
AcDbEntity
  8
ﾀｲﾄﾙ枠
100
AcDb2dPolyline
 66
               1
 10
0.0
 20
0.0
 30
0.0
 70
               1
 75
               5
  0
VERTEX
  5
1C8
100
AcDbEntity
  8
ﾀｲﾄﾙ枠
100
AcDbVertex
100
AcDb2dVertex
 10
7172.6408935367845
 20
-69.9951642787114
 30
0.0
  0
VERTEX
  5
1C9
100
AcDbEntity
  8
ﾀｲﾄﾙ枠
100
AcDbVertex
100
AcDb2dVertex
 10
6747.6408935367845
 20
-69.9951642787114
 30
0.0
  0
VERTEX
  5
1CA
100
AcDbEntity
  8
ﾀｲﾄﾙ枠
100
AcDbVertex
100
AcDb2dVertex
 10
6747.6408935367845
 20
50.0048357212886
 30
0.0
  0
VERTEX
  5
1CB
100
AcDbEntity
  8
ﾀｲﾄﾙ枠
100
AcDbVertex
100
AcDb2dVertex
 10
7172.6408935367845
 20
50.0048357212886
 30
0.0
  0
SEQEND
  5
1CC
100
AcDbEntity
  8
ﾀｲﾄﾙ枠
  0
LINE
  5
1CD
100
AcDbEntity
  8
ﾀｲﾄﾙ枠
100
AcDbLine
 10
6747.6408935367845
 20
-9.9951642787113997
 30
0.0
 11
7172.6408935367845
 21
-9.9951642787113997
 31
0.0
  0
MTEXT
  5
1CE
100
AcDbEntity
  8
ﾀｲﾄﾙ枠
100
AcDbMText
 10
6755.1408935367845
 20
43.248472232365998
 30
0.0
 40
15.585611979166666
 41
0.0
 71
               1
 72
               1
  1
製品名
  7
メイリオ
 73
               1
 44
1.2271899268160174
  0
LINE
  5
1CF
100
AcDbEntity
  8
ﾀｲﾄﾙ枠
100
AcDbLine
 10
7057.6408935367845
 20
-9.9951642787113997
 30
0.0
 11
7057.6408935367845
 21
50.0048357212886
 31
0.0
  0
LINE
  5
1D0
100
AcDbEntity
  8
ﾀｲﾄﾙ枠
100
AcDbLine
 10
7032.6408935367845
 20
-9.9951642787113997
 30
0.0
 11
7032.6408935367845
 21
50.0048357212886
 31
0.0
  0
MTEXT
  5
1D1
100
AcDbEntity
  8
ﾀｲﾄﾙ枠
100
AcDbMText
 10
7045.1408935367845
 20
42.314521296187536
 30
0.0
 40
15.585611979166666
 41
0.0
 71
               2
 72
               1
  1
縮
  7
メイリオ
 73
               1
 44
1.2271899268160174
  0
MTEXT
  5
1D2
100
AcDbEntity
  8
ﾀｲﾄﾙ枠
100
AcDbMText
 10
7045.1408935367845
 20
14.814521296187536
 30
0.0
 40
15.585611979166666
 41
0.0
 71
               2
 72
               1
  1
尺
  7
メイリオ
 73
               1
 44
1.2271899268160174
  0
MTEXT
  5
1D3
100
AcDbEntity
  8
0
100
AcDbMText
 10
7113.3578769970845
 20
27.721677488648425
 30
0.0
 40
18.183213975694446
 41
0.0
 71
               2
 72
               1
  1
1/5
  7
メイリオ
 73
               1
 44
1.2271899268160174
  0
MTEXT
  5
1D4
100
AcDbEntity
  8
0
100
AcDbMText
 10
6827.0979121867394
 20
-29.456027961419977
 30
0.0
 40
23.37841796875
 41
0.0
 71
               2
 72
               1
  1
E:kitchen
  7
メイリオ
 73
               1
 44
1.2271899268160174
  0
MTEXT
  5
1D5
100
AcDbEntity
  8
0
100
AcDbMText
 10
7133.4847423994779
 20
-33.870573465112443
 30
0.0
 40
18.183213975694446
 41
0.0
 71
               2
 72
               1
  1
YS
  7
メイリオ
 73
               1
 44
1.2271899268160174
  0
ARC
  5
1D6
100
AcDbEntity
  8
0
100
AcDbCircle
 10
-1233.5107097252385
 20
1111.326948278406
 30
0.0
 40
8095.4563846985402
100
AcDbArc
 50
356.29018714780398
 51
357.44502545772497
  0
ARC
  5
1D7
100
AcDbEntity
  8
0
100
AcDbCircle
 10
-1233.5107097252385
 20
1111.326948278406
 30
0.0
 40
8089.1563846985382
100
AcDbArc
 50
356.29018714780398
 51
357.43347928353973
  0
LINE
  5
1D8
100
AcDbEntity
  8
sen-h
100
AcDbLine
 10
6787.8478799172899
 20
877.14074406169948
 30
0.0
 11
6787.8478799172899
 21
553.56074406169955
 31
0.0
  0
LINE
  5
1D9
100
AcDbEntity
  8
0
100
AcDbLine
 10
6707.8478799172917
 20
507.02717691335152
 30
0.0
 11
6707.8478799172935
 21
996.03761958170617
 31
0.0
  0
ARC
  5
1DA
100
AcDbEntity
  8
0
100
AcDbCircle
 10
7079.3346632106077
 20
487.4933642188397
 30
0.0
 40
371.99999999999858
100
AcDbArc
 50
173.99896938902577
 51
176.99000000000191
  0
ARC
  5
1DB
100
AcDbEntity
  8
0
100
AcDbCircle
 10
7079.3346632106077
 20
487.4933642188397
 30
0.0
 40
365.6999999999984
100
AcDbArc
 50
174.07595993748185
 51
176.42919624933424
  0
LINE
  5
1DC
100
AcDbEntity
  8
0
100
AcDbLine
 10
6787.8478799172899
 20
500.38074406169972
 30
0.0
 11
6787.8478799172926
 21
553.56169098454745
 31
0.0
  0
LINE
  5
1DD
100
AcDbEntity
  8
0
100
AcDbLine
 10
6715.3079249825287
 20
509.20819462359668
 30
0.0
 11
6786.8826485271056
 21
506.71813547115562
 31
0.0
  0
LINE
  5
1DE
100
AcDbEntity
  8
0
100
AcDbLine
 10
6711.7088054780324
 20
503.02959535691662
 30
0.0
 11
6787.8478799172899
 21
500.38074406169972
 31
0.0
  0
ARC
  5
1DF
100
AcDbEntity
  8
0
100
AcDbCircle
 10
6715.3426935923435
 20
510.20759001270562
 30
0.0
 40
1.0000000000000933
100
AcDbArc
 50
176.42919624933154
 51
268.00750382025529
  0
ARC
  5
1E0
100
AcDbEntity
  8
0
100
AcDbCircle
 10
6711.8478799172935
 20
507.02717691335152
 30
0.0
 40
4.0
100
AcDbArc
 50
180.0
 51
268.00750382022903
  0
ARC
  5
1E1
100
AcDbEntity
  8
0
100
AcDbCircle
 10
6786.8478799172908
 20
505.71874008204662
 30
0.0
 40
1.0
100
AcDbArc
 50
0.0
 51
88.007503820255081
  0
LINE
  5
1E2
100
AcDbEntity
  8
0
100
AcDbLine
 10
6716.2239363174594
 20
526.06758803985156
 30
0.0
 11
6832.6390600275554
 21
570.75556854937975
 31
0.0
  0
LINE
  5
1E3
100
AcDbEntity
  8
0
100
AcDbLine
 10
6713.5081878220672
 20
531.77332174498724
 30
0.0
 11
6830.3813242710221
 21
576.63711845171645
 31
0.0
  0
ARC
  5
1E4
100
AcDbEntity
  8
0
100
AcDbCircle
 10
6715.8375977296018
 20
525.70505597273586
 30
0.0
 40
6.5000000000000382
100
AcDbArc
 50
111.00017217702796
 51
173.99896938902583
  0
ARC
  5
1E5
100
AcDbEntity
  8
0
100
AcDbCircle
 10
6716.5823070724673
 20
525.13400869027464
 30
0.0
 40
1.0000000000000198
100
AcDbArc
 50
111.00017217702444
 51
174.07595993748345
  0
ARC
  5
1E6
100
AcDbEntity
  8
0
100
AcDbCircle
 10
6825.7225044559555
 20
588.77364999622023
 30
0.0
 40
19.299999999999862
100
AcDbArc
 50
291.00017217702526
 51
356.29018714780176
  0
ARC
  5
1E7
100
AcDbEntity
  8
0
100
AcDbCircle
 10
6825.7225044559555
 20
588.77364999622023
 30
0.0
 40
12.999999999999833
100
AcDbArc
 50
291.00017217702521
 51
356.29018714780159
  0
LINE
  5
1E8
100
AcDbEntity
  8
0
  6
Continuous
100
AcDbLine
 10
6853.6719041160923
 20
830.2980496396076
 30
0.0
 11
6852.253581536198
 21
856.51256353009512
 31
0.0
  0
LINE
  5
1E9
100
AcDbEntity
  8
0
  6
Continuous
100
AcDbLine
 10
6847.2793365281423
 20
831.83864946115273
 30
0.0
 11
6845.9627823187348
 21
856.17220312467271
 31
0.0
  0
ARC
  5
1EA
100
AcDbEntity
  8
0
  6
Continuous
100
AcDbCircle
 10
6800.9926067947163
 20
795.86347323473717
 30
0.0
 40
61.829635996327475
100
AcDbArc
 50
324.37965600887162
 51
335.15082826205634
  0
LINE
  5
1EB
100
AcDbEntity
  8
0
  6
Continuous
100
AcDbLine
 10
6859.8478799172899
 20
789.3759440616999
 30
0.0
 11
6859.8478799172899
 21
755.37714773333573
 31
0.0
  0
LINE
  5
1EC
100
AcDbEntity
  8
sen-c
  6
STYLE_03
100
AcDbLine
 10
6688.2460195099038
 20
750.38074406170006
 30
0.0
 11
6876.3707566018948
 21
750.38074406170006
 31
0.0
  0
ARC
  5
1ED
100
AcDbEntity
  8
0
100
AcDbCircle
 10
6856.8950763681314
 20
750.31443989204297
 30
0.0
 40
3.0000000000000244
100
AcDbArc
 50
93.289242678501324
 51
177.44502545778673
  0
LINE
  5
1EE
100
AcDbEntity
  8
0
  6
Continuous
100
AcDbLine
 10
6857.9626330904757
 20
753.38074406170006
 30
0.0
 11
6856.7229466083545
 21
753.30949771215273
 31
0.0
  0
ARC
  5
1EF
100
AcDbEntity
  8
0
100
AcDbCircle
 10
6867.5114281956066
 20
748.20494066471838
 30
0.0
 40
20.000000000000348
100
AcDbArc
 50
144.37965600887239
 51
177.4334792835422
  0
ARC
  5
1F0
100
AcDbEntity
  8
0
  6
Continuous
100
AcDbCircle
 10
6857.8478799172899
 20
755.37744927510619
 30
0.0
 40
2.0000000000000338
100
AcDbArc
 50
273.28924267850994
 51
0.0
  0
LINE
  5
1F1
100
AcDbEntity
  8
0
  6
Continuous
100
AcDbLine
 10
6854.9266959609195
 20
815.13074406170006
 30
0.0
 11
6859.8478799172899
 21
815.13074406170006
 31
0.0
  0
LINE
  5
1F2
100
AcDbEntity
  8
0
  6
Continuous
100
AcDbLine
 10
6854.9266959609213
 20
765.63074406170006
 30
0.0
 11
6859.8478799172899
 21
765.63074406170006
 31
0.0
  0
LINE
  5
1F3
100
AcDbEntity
  8
sen-c
100
AcDbLine
 10
6844.9349935186783
 20
790.38074406170017
 30
0.0
 11
6872.010766315906
 21
790.38074406170017
 31
0.0
  0
LINE
  5
1F4
100
AcDbEntity
  8
0
  6
Continuous
100
AcDbLine
 10
6857.9626330904757
 20
827.38074406170017
 30
0.0
 11
6856.4953930312968
 21
827.46506820303227
 31
0.0
  0
ARC
  5
1F5
100
AcDbEntity
  8
0
  6
Continuous
100
AcDbCircle
 10
6856.6675227910764
 20
830.46012602314204
 30
0.0
 40
3.0000000000004099
100
AcDbArc
 50
183.09693869136782
 51
266.71075732149905
  0
ARC
  5
1F6
100
AcDbEntity
  8
0
  6
Continuous
100
AcDbCircle
 10
6800.9926067947163
 20
784.89801488866385
 30
0.0
 40
61.829635996325841
100
AcDbArc
 50
24.849171737943838
 51
35.933291928153167
  0
LINE
  5
1F7
100
AcDbEntity
  8
0
  6
Continuous
100
AcDbLine
 10
6858.843079917292
 20
790.38074406170017
 30
0.0
 11
6859.8478799172899
 21
791.38554406170033
 31
0.0
  0
LINE
  5
1F8
100
AcDbEntity
  8
0
  6
Continuous
100
AcDbLine
 10
6858.843079917292
 20
790.38074406170017
 30
0.0
 11
6859.8478799172899
 21
789.3759440616999
 31
0.0
  0
LINE
  5
1F9
100
AcDbEntity
  8
0
  6
Continuous
100
AcDbLine
 10
6858.1026799172942
 20
790.38074406170017
 30
0.0
 11
6857.0978799172917
 21
791.38554406170033
 31
0.0
  0
LINE
  5
1FA
100
AcDbEntity
  8
0
  6
Continuous
100
AcDbLine
 10
6858.1026799172942
 20
790.38074406170017
 30
0.0
 11
6857.0978799172917
 21
789.3759440616999
 31
0.0
  0
LINE
  5
1FB
100
AcDbEntity
  8
0
  6
Continuous
100
AcDbLine
 10
6857.0978799172917
 20
791.38554406170033
 30
0.0
 11
6857.0978799172917
 21
810.88074406170006
 31
0.0
  0
LINE
  5
1FC
100
AcDbEntity
  8
0
  6
Continuous
100
AcDbLine
 10
6859.8478799172899
 20
791.38554406170033
 30
0.0
 11
6859.8478799172899
 21
825.38434039006461
 31
0.0
  0
ARC
  5
1FD
100
AcDbEntity
  8
0
  6
Continuous
100
AcDbCircle
 10
6867.2501276946878
 20
832.91915868471551
 30
0.0
 40
20.000000000000306
100
AcDbArc
 50
183.0969386913678
 51
215.9332919281542
  0
ARC
  5
1FE
100
AcDbEntity
  8
0
  6
Continuous
100
AcDbCircle
 10
6857.8478799172899
 20
825.38403884829404
 30
0.0
 40
2.0
100
AcDbArc
 50
0.0
 51
86.710757321490021
  0
LINE
  5
1FF
100
AcDbEntity
  8
0
  6
Continuous
100
AcDbLine
 10
6857.0978799172917
 20
789.3759440616999
 30
0.0
 11
6857.0978799172917
 21
769.88074406170006
 31
0.0
  0
ARC
  5
200
100
AcDbEntity
  8
0
100
AcDbCircle
 10
13742.558150530291
 20
1059.8843777760189
 30
0.0
 40
7028.699999999998
100
AcDbArc
 50
180.55498727996658
 51
181.41084819712833
  0
ARC
  5
201
100
AcDbEntity
  8
0
100
AcDbCircle
 10
13742.558150530291
 20
1059.8843777760189
 30
0.0
 40
7034.9999999999991
100
AcDbArc
 50
180.52000000000348
 51
181.4270245726151
  0
LINE
  5
202
100
AcDbEntity
  8
0
100
AcDbLine
 10
6787.8478799172926
 20
877.13771623718185
 30
0.0
 11
6787.8478799172899
 21
1000.3807440617001
 31
0.0
  0
LINE
  5
203
100
AcDbEntity
  8
0
100
AcDbLine
 10
6714.1286768728187
 20
879.84867427962399
 30
0.0
 11
6838.0735573951042
 21
864.61879021338791
 31
0.0
  0
LINE
  5
204
100
AcDbEntity
  8
0
100
AcDbLine
 10
6716.8666672154231
 20
885.85962258599648
 30
0.0
 11
6838.8418991660219
 21
870.87176158091097
 31
0.0
  0
LINE
  5
205
100
AcDbEntity
  8
sen-c
100
AcDbLine
 10
6695.7367631683701
 20
930.38074406170006
 30
0.0
 11
6728.0621202041239
 21
930.38074406170006
 31
0.0
  0
LINE
  5
206
100
AcDbEntity
  8
0
100
AcDbLine
 10
6709.1256476611052
 20
911.38445325362181
 30
0.0
 11
6715.4270529616178
 21
911.38445325362181
 31
0.0
  0
LINE
  5
207
100
AcDbEntity
  8
sen-h
100
AcDbLine
 10
6724.7367971310414
 20
878.54518807662305
 30
0.0
 11
6725.5051389019609
 21
884.79815944414577
 31
0.0
  0
LINE
  5
208
100
AcDbEntity
  8
sen-h
100
AcDbLine
 10
6754.5128512621031
 20
874.88641773891231
 30
0.0
 11
6755.2811930330217
 21
881.13938910643526
 31
0.0
  0
ARC
  5
209
100
AcDbEntity
  8
0
100
AcDbCircle
 10
6714.7384719291049
 20
884.81134996813444
 30
0.0
 40
5.0000000000000835
100
AcDbArc
 50
181.42702457263101
 51
262.99482379941173
  0
LINE
  5
20A
100
AcDbEntity
  8
sen-c
100
AcDbLine
 10
6738.8564824256518
 20
870.46283154024457
 30
0.0
 11
6741.1615077384104
 21
889.22174564281249
 31
0.0
  0
ARC
  5
20B
100
AcDbEntity
  8
0
100
AcDbCircle
 10
6716.9886262266782
 20
886.85215772369884
 30
0.0
 40
0.9999999999996444
100
AcDbArc
 50
181.41084819714197
 51
262.99482379942663
  0
ARC
  5
20C
100
AcDbEntity
  8
0
100
AcDbCircle
 10
6836.9759262937914
 20
855.68597397406938
 30
0.0
 40
9.0000000000003215
100
AcDbArc
 50
3.0969386913681785
 51
82.994823799416466
  0
ARC
  5
20D
100
AcDbEntity
  8
0
100
AcDbCircle
 10
6836.9759262937914
 20
855.68597397406938
 30
0.0
 40
15.299999999999729
100
AcDbArc
 50
3.0969386913682584
 51
82.994823799414064
  0
LINE
  5
20E
100
AcDbEntity
  8
0
100
AcDbLine
 10
6787.8478799172899
 20
1000.3807440617001
 30
0.0
 11
6710.7955761114436
 21
999.0371635990349
 31
0.0
  0
LINE
  5
20F
100
AcDbEntity
  8
0
100
AcDbLine
 10
6786.8653145192429
 20
994.06265311176605
 30
0.0
 11
6715.1704020128318
 21
992.81249083292175
 31
0.0
  0
LINE
  5
210
100
AcDbEntity
  8
0
100
AcDbLine
 10
6708.7502338428685
 20
949.38074406170017
 30
0.0
 11
6714.726860798316
 21
949.38074406170017
 31
0.0
  0
ARC
  5
211
100
AcDbEntity
  8
0
100
AcDbCircle
 10
6715.1878366147812
 20
991.81264282714517
 30
0.0
 40
0.9999999999999483
100
AcDbArc
 50
90.998979722804762
 51
180.55498727988086
  0
ARC
  5
212
100
AcDbEntity
  8
0
100
AcDbCircle
 10
6710.8478799172935
 20
996.03761958170617
 30
0.0
 40
2.9999999999999427
100
AcDbArc
 50
90.998979722787382
 51
180.0
  0
ARC
  5
213
100
AcDbEntity
  8
0
100
AcDbCircle
 10
6786.8478799172926
 20
995.06250111754196
 30
0.0
 40
0.9999999999999483
100
AcDbArc
 50
270.99897972280479
 51
0.0
  0
LINE
  5
214
100
AcDbEntity
  8
sen-c
  6
STYLE_03
100
AcDbLine
 10
6034.6988718544862
 20
1039.0
 30
0.0
 11
6034.6988718544862
 21
465.0
 31
0.0
  0
LINE
  5
215
100
AcDbEntity
  8
0
100
AcDbLine
 10
5659.6988718544862
 20
505.8807440616996
 30
0.0
 11
5659.6988718544862
 21
995.88074406169881
 31
0.0
  0
LINE
  5
216
100
AcDbEntity
  8
0
100
AcDbLine
 10
5709.6988718544862
 20
542.38074406169972
 30
0.0
 11
5709.6988718544862
 21
869.3807440616996
 31
0.0
  0
LINE
  5
217
100
AcDbEntity
  8
sen-h
370
               9
  6
STYLE_01
100
AcDbLine
 10
5665.9988718544864
 20
507.23433992325539
 30
0.0
 11
5665.9988718544864
 21
993.56089636654315
 31
0.0
  0
LINE
  5
218
100
AcDbEntity
  8
0
100
AcDbLine
 10
6409.6988718544862
 20
995.88074406169972
 30
0.0
 11
6409.6988718544862
 21
505.8807440616996
 31
0.0
  0
LINE
  5
219
100
AcDbEntity
  8
0
100
AcDbLine
 10
6289.6988718544862
 20
869.3807440616996
 30
0.0
 11
6289.6988718544862
 21
542.38074406169972
 31
0.0
  0
LINE
  5
21A
100
AcDbEntity
  8
sen-h
370
               9
  6
STYLE_01
100
AcDbLine
 10
6403.3988718544879
 20
507.23433992325539
 30
0.0
 11
6403.3988718544879
 21
993.56089636654315
 31
0.0
  0
ARC
  5
21B
100
AcDbEntity
  8
sen2
100
AcDbCircle
 10
6000.0788718544873
 20
-237.77925593830105
 30
0.0
 40
819.26123232304803
100
AcDbArc
 50
70.400000000006045
 51
109.55999999998321
  0
LINE
  5
21C
100
AcDbEntity
  8
0
100
AcDbLine
 10
6404.1988718544862
 20
500.38074406169972
 30
0.0
 11
5665.1988718544862
 21
500.38074406169972
 31
0.0
  0
LINE
  5
21D
100
AcDbEntity
  8
0
100
AcDbLine
 10
6277.6988718544862
 20
530.38074406169972
 30
0.0
 11
5721.6988718544862
 21
530.38074406169972
 31
0.0
  0
LINE
  5
21E
100
AcDbEntity
  8
sen-h
370
               9
  6
STYLE_01
100
AcDbLine
 10
6402.8988718544861
 20
506.73433992325539
 30
0.0
 11
5666.4988718544864
 21
506.73433992325539
 31
0.0
  0
ARC
  5
21F
100
AcDbEntity
  8
0
100
AcDbCircle
 10
5721.6988718544862
 20
542.38074406169972
 30
0.0
 40
12.0
100
AcDbArc
 50
180.0
 51
270.0
  0
ARC
  5
220
100
AcDbEntity
  8
0
100
AcDbCircle
 10
5665.1988718544862
 20
505.8807440616996
 30
0.0
 40
5.5
100
AcDbArc
 50
180.0
 51
270.0
  0
ARC
  5
221
100
AcDbEntity
  8
sen-h
100
AcDbCircle
 10
5666.4988718544864
 20
507.23433992325539
 30
0.0
 40
0.5
100
AcDbArc
 50
180.0
 51
270.0
  0
ARC
  5
222
100
AcDbEntity
  8
0
100
AcDbCircle
 10
6277.6988718544862
 20
542.38074406169972
 30
0.0
 40
12.0
100
AcDbArc
 50
270.0
 51
0.0
  0
ARC
  5
223
100
AcDbEntity
  8
0
100
AcDbCircle
 10
6404.1988718544862
 20
505.8807440616996
 30
0.0
 40
5.5
100
AcDbArc
 50
270.0
 51
0.0
  0
ARC
  5
224
100
AcDbEntity
  8
sen-h
100
AcDbCircle
 10
6402.8988718544861
 20
507.23433992325539
 30
0.0
 40
0.5
100
AcDbArc
 50
270.0
 51
0.0
  0
ARC
  5
225
100
AcDbEntity
  8
sen2
100
AcDbCircle
 10
6000.0588718544868
 20
3498.4807440616987
 30
0.0
 40
2635.063277646711
100
AcDbArc
 50
264.02999999994779
 51
275.97999999999621
  0
LINE
  5
226
100
AcDbEntity
  8
0
100
AcDbLine
 10
5664.1988718544872
 20
1000.380744061698
 30
0.0
 11
6405.1988718544862
 21
1000.380744061699
 31
0.0
  0
LINE
  5
227
100
AcDbEntity
  8
0
100
AcDbLine
 10
5720.6988718544862
 20
880.38074406169972
 30
0.0
 11
6278.6988718544862
 21
880.38074406169972
 31
0.0
  0
LINE
  5
228
100
AcDbEntity
  8
sen-h
370
               9
  6
STYLE_01
100
AcDbLine
 10
6402.8988718544861
 20
994.06089636654315
 30
0.0
 11
5666.4988718544864
 21
994.06089636654315
 31
0.0
  0
ARC
  5
229
100
AcDbEntity
  8
0
100
AcDbCircle
 10
5720.6988718544862
 20
869.3807440616996
 30
0.0
 40
11.0
100
AcDbArc
 50
90.0
 51
180.0
  0
ARC
  5
22A
100
AcDbEntity
  8
0
100
AcDbCircle
 10
5664.1988718544872
 20
995.88074406169881
 30
0.0
 40
4.5
100
AcDbArc
 50
90.0
 51
180.0
  0
ARC
  5
22B
100
AcDbEntity
  8
sen-h
100
AcDbCircle
 10
5666.4988718544864
 20
993.56089636654315
 30
0.0
 40
0.5
100
AcDbArc
 50
90.0
 51
180.0
  0
CIRCLE
  5
22C
100
AcDbEntity
  8
sen2
100
AcDbCircle
 10
6034.6988718544862
 20
790.38074406169972
 30
0.0
 40
37.5
  0
LINE
  5
22D
100
AcDbEntity
  8
sen-c
  6
STYLE_03
100
AcDbLine
 10
5974.1187565204391
 20
930.38074406169972
 30
0.0
 11
6095.2789871885343
 21
930.38074406169972
 31
0.0
  0
CIRCLE
  5
22E
100
AcDbEntity
  8
0
  6
Continuous
100
AcDbCircle
 10
6034.6988718544862
 20
790.38074406170063
 30
0.0
 40
24.75
  0
ARC
  5
22F
100
AcDbEntity
  8
0
100
AcDbCircle
 10
6278.6988718544862
 20
869.3807440616996
 30
0.0
 40
11.0
100
AcDbArc
 50
0.0
 51
90.0
  0
ARC
  5
230
100
AcDbEntity
  8
0
100
AcDbCircle
 10
6405.1988718544862
 20
995.88074406169972
 30
0.0
 40
4.5
100
AcDbArc
 50
0.0
 51
90.0
  0
ARC
  5
231
100
AcDbEntity
  8
sen-h
100
AcDbCircle
 10
6402.8988718544861
 20
993.56089636654315
 30
0.0
 40
0.5
100
AcDbArc
 50
0.0
 51
90.0
  0
LINE
  5
232
100
AcDbEntity
  8
0
100
AcDbLine
 10
6403.0037681807189
 20
254.99983443062769
 30
0.0
 11
5666.3939755282554
 21
254.99983443062769
 31
0.0
  0
LINE
  5
233
100
AcDbEntity
  8
0
100
AcDbLine
 10
6220.633799508214
 20
175.0
 30
0.0
 11
6409.6988718544853
 21
175.0
 31
0.0
  0
ARC
  5
234
100
AcDbEntity
  8
0
100
AcDbCircle
 10
5755.1484996623913
 20
705.6071039670187
 30
0.0
 40
706.30000000000041
100
AcDbArc
 50
313.95892862779499
 51
319.355272571142
  0
ARC
  5
235
100
AcDbEntity
  8
0
100
AcDbCircle
 10
5755.1484996623913
 20
705.6071039670187
 30
0.0
 40
700.0
100
AcDbArc
 50
313.95611468924602
 51
319.355272571142
  0
ARC
  5
236
100
AcDbEntity
  8
0
100
AcDbCircle
 10
6010.9170349024389
 20
481.4538586868839
 30
0.0
 40
376.30000000000001
100
AcDbArc
 50
241.9765506200811
 51
267.23483733496835
  0
ARC
  5
237
100
AcDbEntity
  8
0
100
AcDbCircle
 10
6010.9170349024389
 20
481.4538586868839
 30
0.0
 40
369.99999999999966
100
AcDbArc
 50
241.97221589322189
 51
267.20659593632757
  0
LINE
  5
238
100
AcDbEntity
  8
sen-h
100
AcDbLine
 10
5790.6493314530017
 20
175.0
 30
0.0
 11
6220.633799508214
 21
175.0
 31
0.0
  0
ARC
  5
239
100
AcDbEntity
  8
0
100
AcDbCircle
 10
6049.5324645586797
 20
562.83400236877969
 30
0.0
 40
466.30000000000001
100
AcDbArc
 50
222.82037817155489
 51
242.48612356052519
  0
ARC
  5
23A
100
AcDbEntity
  8
0
100
AcDbCircle
 10
6049.5324645586797
 20
562.83400236877969
 30
0.0
 40
459.99999999999966
100
AcDbArc
 50
222.82037817155481
 51
242.48961591315918
  0
LINE
  5
23B
100
AcDbEntity
  8
0
100
AcDbLine
 10
5659.6988718544862
 20
175.0
 30
0.0
 11
5790.6493314530017
 21
175.0
 31
0.0
  0
ARC
  5
23C
100
AcDbEntity
  8
0
100
AcDbCircle
 10
5704.7930275725093
 20
243.37395700088558
 30
0.0
 40
9.9999999999999165
100
AcDbArc
 50
42.820378171555525
 51
86.585537234678583
  0
LINE
  5
23D
100
AcDbEntity
  8
0
100
AcDbLine
 10
5668.5435925175761
 20
247.6493003680298
 30
0.0
 11
5666.0364757709904
 21
175.96504692921371
 31
0.0
  0
LINE
  5
23E
100
AcDbEntity
  8
0
100
AcDbLine
 10
5662.3618192843533
 20
251.13981228314867
 30
0.0
 11
5659.6988718544862
 21
175.0
 31
0.0
  0
ARC
  5
23F
100
AcDbEntity
  8
0
100
AcDbCircle
 10
5638.9214921957609
 20
-860.66270037381969
 30
0.0
 40
1109.7000000000003
100
AcDbArc
 50
86.585537234678597
 51
88.417330896700861
  0
ARC
  5
240
100
AcDbEntity
  8
0
100
AcDbCircle
 10
5638.9214921957609
 20
-860.66270037381969
 30
0.0
 40
1116.0
100
AcDbArc
 50
86.585537234678611
 51
88.591280903506359
  0
ARC
  5
241
100
AcDbEntity
  8
0
100
AcDbCircle
 10
5669.5429814723084
 20
247.61434729724346
 30
0.0
 40
1.0000000000000122
100
AcDbArc
 50
88.417330896700861
 51
177.99692855714119
  0
ARC
  5
242
100
AcDbEntity
  8
0
100
AcDbCircle
 10
5666.3575814687802
 20
251.0
 30
0.0
 40
3.9999999999999822
100
AcDbArc
 50
89.47868630534883
 51
177.99692855714119
  0
ARC
  5
243
100
AcDbEntity
  8
0
100
AcDbCircle
 10
5704.7930275725093
 20
243.37395700088558
 30
0.0
 40
3.6999999999998585
100
AcDbArc
 50
42.820378171556364
 51
86.585537234674277
  0
ARC
  5
244
100
AcDbEntity
  8
0
100
AcDbCircle
 10
5994.2880206756336
 20
507.32589903050211
 30
0.0
 40
406.30000000000001
100
AcDbArc
 50
282.71881146566778
 51
295.93349712823749
  0
ARC
  5
245
100
AcDbEntity
  8
0
100
AcDbCircle
 10
5994.2880206756336
 20
507.32589903050211
 30
0.0
 40
399.99999999999983
100
AcDbArc
 50
282.32906453329991
 51
295.93349712823749
  0
ARC
  5
246
100
AcDbEntity
  8
0
100
AcDbCircle
 10
6016.1712567273607
 20
470.99625396452029
 30
0.0
 40
359.92040702937203
100
AcDbArc
 50
272.95103152296952
 51
280.90061082598362
  0
ARC
  5
247
100
AcDbEntity
  8
0
100
AcDbCircle
 10
6028.5081560206354
 20
157.92026654034999
 30
0.0
 40
63.084787252452074
100
AcDbArc
 50
295.03000000002999
 51
314.15412409096933
  0
ARC
  5
248
100
AcDbEntity
  8
0
100
AcDbCircle
 10
6076.7342648369186
 20
100.35272500502288
 30
0.0
 40
5.0000000000000266
100
AcDbArc
 50
126.93610999641338
 51
176.71075732146656
  0
ARC
  5
249
100
AcDbEntity
  8
0
100
AcDbCircle
 10
6069.7027854048492
 20
100.00552220974987
 30
0.0
 40
1.9999999933799018
100
AcDbArc
 50
270.0
 51
356.99999999999187
  0
ARC
  5
24A
100
AcDbEntity
  8
0
100
AcDbCircle
 10
6069.7027854048492
 20
100.00552220974987
 30
0.0
 40
1.9999999933799018
100
AcDbArc
 50
270.0
 51
356.99999999999187
  0
LINE
  5
24B
100
AcDbEntity
  8
0
100
AcDbLine
 10
5995.4844872618787
 20
104.62582103589557
 30
0.0
 11
5996.3751203409593
 21
103.97082443709587
 31
0.0
  0
ARC
  5
24C
100
AcDbEntity
  8
0
100
AcDbCircle
 10
5992.5221847116991
 20
100.59782356802214
 30
0.0
 40
5.0000000000000808
100
AcDbArc
 50
53.668191437151549
 51
87.234837334968532
  0
LINE
  5
24D
100
AcDbEntity
  8
0
100
AcDbLine
 10
6069.7027854048492
 20
98.005522216370082
 30
0.0
 11
6035.6988718544853
 21
98.0
 31
0.0
  0
LINE
  5
24E
100
AcDbEntity
  8
0
100
AcDbLine
 10
5997.6985959924168
 20
99.885246826815433
 30
0.0
 11
5997.5927966309609
 21
101.72615571614995
 31
0.0
  0
ARC
  5
24F
100
AcDbEntity
  8
0
100
AcDbCircle
 10
5994.5977388108522
 20
101.55402595637304
 30
0.0
 40
3.0000000000000795
100
AcDbArc
 50
3.2892426784816857
 51
53.668191437152572
  0
ARC
  5
250
100
AcDbEntity
  8
0
100
AcDbCircle
 10
5992.1541422523806
 20
96.911333262969492
 30
0.0
 40
15.000000000000052
100
AcDbArc
 50
51.381258090992894
 51
87.206595936327602
  0
LINE
  5
251
100
AcDbEntity
  8
0
100
AcDbLine
 10
6035.6988718544853
 20
100.76000000000022
 30
0.0
 11
6055.1988718544862
 21
100.76000000000022
 31
0.0
  0
LINE
  5
252
100
AcDbEntity
  8
0
100
AcDbLine
 10
6014.1988718544853
 20
100.76000000000022
 30
0.0
 11
6033.6988718544853
 21
100.76000000000022
 31
0.0
  0
LINE
  5
253
100
AcDbEntity
  8
0
100
AcDbLine
 10
6033.6988718544853
 20
100.76000000000022
 30
0.0
 11
6034.6988718544862
 21
99.760000000000218
 31
0.0
  0
LINE
  5
254
100
AcDbEntity
  8
0
100
AcDbLine
 10
6035.6988718544853
 20
100.76000000000022
 30
0.0
 11
6034.6988718544862
 21
99.760000000000218
 31
0.0
  0
LINE
  5
255
100
AcDbEntity
  8
0
100
AcDbLine
 10
6033.6988718544853
 20
98.0
 30
0.0
 11
5999.6953012058239
 21
98.0
 31
0.0
  0
LINE
  5
256
100
AcDbEntity
  8
0
100
AcDbLine
 10
6034.6988718544862
 20
99.0
 30
0.0
 11
6033.6988718544853
 21
98.0
 31
0.0
  0
LINE
  5
257
100
AcDbEntity
  8
0
100
AcDbLine
 10
6034.6988718544862
 20
99.0
 30
0.0
 11
6035.6988718544853
 21
98.0
 31
0.0
  0
ARC
  5
258
100
AcDbEntity
  8
0
100
AcDbCircle
 10
6040.8895471585283
 20
157.92017974257476
 30
0.0
 40
63.084691458301954
100
AcDbArc
 50
231.38125809099367
 51
244.96999999996973
  0
ARC
  5
259
100
AcDbEntity
  8
0
100
AcDbCircle
 10
6016.4988718544837
 20
467.18000000000018
 30
0.0
 40
356.09237136239221
100
AcDbArc
 50
266.09999999994801
 51
272.92999999998062
  0
LINE
  5
25A
100
AcDbEntity
  8
0
100
AcDbLine
 10
6009.9488718544862
 20
98.0
 30
0.0
 11
6009.9488718544862
 21
102.94424948105905
 31
0.0
  0
LINE
  5
25B
100
AcDbEntity
  8
0
100
AcDbLine
 10
6059.4488718544872
 20
98.0
 30
0.0
 11
6059.4488718544872
 21
102.94424948105905
 31
0.0
  0
ARC
  5
25C
100
AcDbEntity
  8
0
100
AcDbCircle
 10
5999.6953012058239
 20
100.0
 30
0.0
 40
1.9999999999997544
100
AcDbArc
 50
183.28924267848436
 51
270.0
  0
ARC
  5
25D
100
AcDbEntity
  8
0
100
AcDbCircle
 10
6082.9013050786807
 20
101.89688449490677
 30
0.0
 40
15.000000000000002
100
AcDbArc
 50
102.32906453329988
 51
134.15412409096774
  0
LINE
  5
25E
100
AcDbEntity
  8
0
100
AcDbLine
 10
6071.7000444677506
 20
99.900850297610305
 30
0.0
 11
6071.7425018034046
 21
100.63960793798651
 31
0.0
  0
LINE
  5
25F
100
AcDbEntity
  8
0
100
AcDbLine
 10
6071.8988718544861
 20
101.6200000000008
 30
0.0
 11
6071.8988719152048
 21
101.62000000164903
 31
0.0
  0
LINE
  5
260
100
AcDbEntity
  8
0
100
AcDbLine
 10
6073.7296443470541
 20
104.34925546429531
 30
0.0
 11
6080.695601369207
 21
109.58631230986612
 31
0.0
  0
ARC
  5
261
100
AcDbEntity
  8
0
100
AcDbCircle
 10
6085.5029941529901
 20
103.19186357502974
 30
0.0
 40
8.0000000000000888
100
AcDbArc
 50
102.71881146566771
 51
126.93610999641348
  0
CIRCLE
  5
262
100
AcDbEntity
  8
0
  6
Continuous
100
AcDbCircle
 10
5974.6988718544853
 20
225.0
 30
0.0
 40
15.0
  0
LINE
  5
263
100
AcDbEntity
  8
sen-c
100
AcDbLine
 10
5974.6988718544853
 20
249.56400292968829
 30
0.0
 11
5974.6988718544853
 21
200.43599707031166
 31
0.0
  0
LINE
  5
264
100
AcDbEntity
  8
sen-c
100
AcDbLine
 10
5950.134868924797
 20
225.0
 30
0.0
 11
5999.2628747841727
 21
225.0
 31
0.0
  0
ARC
  5
265
100
AcDbEntity
  8
0
100
AcDbCircle
 10
6002.3399138558998
 20
443.83353489997165
 30
0.0
 40
346.29999999999978
100
AcDbArc
 50
299.39456120905567
 51
314.58277594893667
  0
ARC
  5
266
100
AcDbEntity
  8
0
100
AcDbCircle
 10
6002.3399138558998
 20
443.83353489997165
 30
0.0
 40
339.99999999999977
100
AcDbArc
 50
299.39456120905567
 51
314.58854218651152
  0
LINE
  5
267
100
AcDbEntity
  8
0
100
AcDbLine
 10
6171.9742354487662
 20
141.93939260258867
 30
0.0
 11
6172.3112440245277
 21
142.1160562536279
 31
0.0
  0
LINE
  5
268
100
AcDbEntity
  8
0
100
AcDbLine
 10
6400.852200996721
 20
247.70506093425769
 30
0.0
 11
6403.3612679379803
 21
175.96504692921371
 31
0.0
  0
LINE
  5
269
100
AcDbEntity
  8
0
100
AcDbLine
 10
6407.0359244246192
 20
251.13981228314867
 30
0.0
 11
6409.6988718544853
 21
175.0
 31
0.0
  0
ARC
  5
26A
100
AcDbEntity
  8
0
100
AcDbCircle
 10
6465.5188718544841
 20
-6615.6287158503128
 30
0.0
 40
6864.6129534671691
100
AcDbArc
 50
90.548172734870164
 51
91.433594454200914
  0
ARC
  5
26B
100
AcDbEntity
  8
0
100
AcDbCircle
 10
6465.5188718544841
 20
-6615.6287158503128
 30
0.0
 40
6870.9129534671683
100
AcDbArc
 50
90.521313694651184
 51
91.433594454200929
  0
ARC
  5
26C
100
AcDbEntity
  8
0
100
AcDbCircle
 10
6293.8702687595478
 20
243.13672059006325
 30
0.0
 40
3.7000000000000233
100
AcDbArc
 50
91.433594454199493
 51
139.35527257113534
  0
ARC
  5
26D
100
AcDbEntity
  8
0
100
AcDbCircle
 10
6293.8702687595478
 20
243.13672059006325
 30
0.0
 40
9.9999999999999876
100
AcDbArc
 50
91.433594454200914
 51
139.35527257114177
  0
ARC
  5
26E
100
AcDbEntity
  8
0
100
AcDbCircle
 10
6399.8528120419869
 20
247.67010786347049
 30
0.0
 40
1.0000000000000355
100
AcDbArc
 50
2.0030714428588263
 51
90.548172734870136
  0
ARC
  5
26F
100
AcDbEntity
  8
0
100
AcDbCircle
 10
6403.0401622401941
 20
251.0
 30
0.0
 40
4.0000000000001421
100
AcDbArc
 50
2.0030714428588263
 51
90.521313694651141
  0
LINE
  5
270
100
AcDbEntity
  8
sen-c
100
AcDbLine
 10
6034.6988718544862
 20
286.34083050996009
 30
0.0
 11
6034.6988718544862
 21
87.966453821460959
 31
0.0
  0
DIMENSION
  5
271
100
AcDbEntity
  8
寸法
370
               9
  6
Continuous
100
AcDbDimension
  2
*D2
 10
6409.6988718544862
 20
1118.0
 30
0.0
 11
6034.6988718544862
 21
1118.0
 31
0.0
 71
               5
 72
               1
 41
1.0
 42
0.0
  3
Ekitchen
100
AcDbAlignedDimension
 13
5659.6988718544862
 23
995.88074406169881
 33
0.0
 14
6409.6988718544862
 24
995.88074406169972
 34
0.0
100
AcDbRotatedDimension
1001
ACAD
1000
DSTYLE
1002
{
1070
             271
1070
               0
1070
             279
1070
               2
1070
             340
1005
41
1070
             147
1040
0.3125
1002
}
  0
DIMENSION
  5
272
100
AcDbEntity
  8
寸法
370
               9
  6
Continuous
100
AcDbDimension
  2
*D3
 10
6289.6988718544862
 20
407.0
 30
0.0
 11
5999.6988718544862
 21
407.0
 31
0.0
 71
               5
 72
               1
 41
1.0
 42
0.0
  3
Ekitchen
100
AcDbAlignedDimension
 13
5709.6988718544862
 23
542.38074406169972
 33
0.0
 14
6289.6988718544862
 24
542.38074406169972
 34
0.0
100
AcDbRotatedDimension
1001
ACAD
1000
DSTYLE
1002
{
1070
             271
1070
               0
1070
             279
1070
               2
1070
             340
1005
41
1070
             147
1040
0.3125
1002
}
  0
DIMENSION
  5
273
100
AcDbEntity
  8
寸法
370
              15
  6
Continuous
100
AcDbDimension
  2
*D4
 10
5709.6988718544862
 20
407.0
 30
0.0
 11
5684.6988718544862
 21
407.0
 31
0.0
 71
               5
 72
               1
 41
1.0
 42
0.0
  3
Ekitchen
100
AcDbAlignedDimension
 13
5659.6988718544862
 23
505.8807440616996
 33
0.0
 14
5709.6988718544862
 24
500.38074406169972
 34
0.0
100
AcDbRotatedDimension
1001
ACAD
1000
DSTYLE
1002
{
1070
             279
1070
               2
1070
             340
1005
42
1070
             140
1040
16.123046874999996
1070
             147
1040
4.0
1002
}
  0
DIMENSION
  5
274
100
AcDbEntity
  8
寸法
370
              15
  6
Continuous
100
AcDbDimension
  2
*D5
 10
6289.8769223474164
 20
407.0
 30
0.0
 11
6349.8769223474164
 21
407.0
 31
0.0
 71
               5
 72
               1
 41
1.0
 42
0.0
  3
Ekitchen
100
AcDbAlignedDimension
 13
6409.8769223474164
 23
506.10770460353592
 33
0.0
 14
6289.8769223474164
 24
500.38074406169972
 34
0.0
100
AcDbRotatedDimension
1001
ACAD
1000
DSTYLE
1002
{
1070
             271
1070
               0
1070
             279
1070
               2
1070
             340
1005
42
1070
             140
1040
16.123046874999996
1070
             147
1040
4.0
1002
}
  0
DIMENSION
  5
275
100
AcDbEntity
  8
寸法
370
               9
  6
Continuous
100
AcDbDimension
  2
*D6
 10
5552.0
 20
500.3807440616996
 30
0.0
 11
5552.0
 21
750.38074406169983
 31
0.0
 71
               5
 72
               1
 41
1.0
 42
0.0
  3
Ekitchen
100
AcDbAlignedDimension
 13
5664.1988718544862
 23
1000.3807440617001
 33
0.0
 14
5665.1988718544862
 24
500.3807440616996
 34
0.0
 50
90.0
100
AcDbRotatedDimension
1001
ACAD
1000
DSTYLE
1002
{
1070
             271
1070
               0
1070
             279
1070
               2
1070
             340
1005
41
1070
             147
1040
0.3125
1002
}
  0
CIRCLE
  5
276
100
AcDbEntity
  8
一般
370
              15
  6
Continuous
100
AcDbCircle
 10
6034.6988718544872
 20
930.38074406169972
 30
0.0
 40
18.999999999999993
  0
DIMENSION
  5
277
100
AcDbEntity
  8
寸法
370
              15
  6
Continuous
100
AcDbDimension
  2
*D7
 10
5908.0
 20
790.0
 30
0.0
 11
5908.0
 21
895.19037203084895
 31
0.0
 71
               5
 72
               1
 41
1.0
 42
0.0
  3
Ekitchen
100
AcDbAlignedDimension
 13
5974.1187565204391
 23
1000.380744061698
 33
0.0
 14
5974.1187565204391
 24
790.0
 34
0.0
 50
90.0
100
AcDbRotatedDimension
1001
ACAD
1000
DSTYLE
1002
{
1070
             271
1070
               0
1070
             279
1070
               2
1070
             340
1005
42
1070
             140
1040
16.123046874999996
1070
             147
1040
4.0
1002
}
  0
DIMENSION
  5
278
100
AcDbEntity
  8
寸法
370
              15
  6
Continuous
100
AcDbDimension
  2
*D8
 10
5947.6192559383016
 20
930.38074406169972
 30
0.0
 11
5947.6192559383016
 21
965.38074406169881
 31
0.0
 71
               5
 72
               1
 41
1.0
 42
0.0
  1
 
  3
Ekitchen
100
AcDbAlignedDimension
 13
5994.0
 23
1000.380744061698
 33
0.0
 14
5994.0
 24
930.38074406169972
 34
0.0
 50
90.0
100
AcDbRotatedDimension
1001
ACAD
1000
DSTYLE
1002
{
1070
             279
1070
               2
1070
             340
1005
42
1070
             140
1040
16.123046874999996
1070
             147
1040
4.0
1002
}
  0
DIMENSION
  5
279
100
AcDbEntity
  8
寸法
370
              15
  6
Continuous
100
AcDbDimension
  2
*D9
 10
5947.6192559383016
 20
930.38074406169972
 30
0.0
 11
5947.6192559383016
 21
905.38074406169972
 31
0.0
 71
               5
 72
               1
 41
1.0
 42
0.0
  1
 
  3
Ekitchen
100
AcDbAlignedDimension
 13
5989.0
 23
880.38074406169972
 33
0.0
 14
5989.0
 24
930.38074406169972
 34
0.0
 50
90.0
100
AcDbRotatedDimension
1001
ACAD
1000
DSTYLE
1002
{
1070
             279
1070
               2
1070
             340
1005
42
1070
             140
1040
16.123046874999996
1070
             147
1040
4.0
1002
}
  0
DIMENSION
  5
27A
100
AcDbEntity
  8
寸法
370
              15
  6
Continuous
100
AcDbDimension
  2
*D10
 10
6017.1979790201194
 20
772.87985122733369
 30
0.0
 11
6104.0681277927852
 21
828.0
 31
0.0
 70
               3
 71
               5
 72
               1
 41
1.0
 42
0.0
  3
Ekitchen
100
AcDbDiametricDimension
 15
6052.1997646888531
 25
807.88163689606756
 35
0.0
 40
28.451661954327772
1001
ACAD
1000
DSTYLE
1002
{
1070
             289
1070
               0
1070
             342
1005
7C
1070
             340
1005
42
1070
             140
1040
16.123046874999996
1070
              73
1070
               1
1070
              74
1070
               1
1070
              75
1070
               1
1070
              76
1070
               1
1070
               3
1000
排水穴φ<>
1070
             174
1070
               0
1070
             147
1040
4.0
1002
}
  0
DIMENSION
  5
27B
100
AcDbEntity
  8
寸法
370
              15
  6
Continuous
100
AcDbDimension
  2
*D11
 10
6480.0
 20
500.38074406169972
 30
0.0
 11
6480.0
 21
550.38074406169972
 31
0.0
 71
               5
 72
               1
 41
1.0
 42
0.0
  3
Ekitchen
100
AcDbAlignedDimension
 13
6403.3988718544879
 23
600.38074406169972
 33
0.0
 14
6378.0
 24
500.38074406169972
 34
0.0
 50
90.0
100
AcDbRotatedDimension
1001
ACAD
1000
DSTYLE
1002
{
1070
             279
1070
               2
1070
             340
1005
42
1070
             140
1040
16.123046874999996
1070
             147
1040
4.0
1002
}
  0
DIMENSION
  5
27C
100
AcDbEntity
  8
寸法
370
              15
  6
Continuous
100
AcDbDimension
  2
*D12
 10
6480.0
 20
600.38074406169972
 30
0.0
 11
6480.0
 21
750.38074406169972
 31
0.0
 71
               5
 72
               1
 41
1.0
 42
0.0
  3
Ekitchen
100
AcDbAlignedDimension
 13
6409.6988718544862
 23
900.38074406169972
 33
0.0
 14
6408.3988718544879
 24
600.38074406169972
 34
0.0
 50
90.0
100
AcDbRotatedDimension
1001
ACAD
1000
DSTYLE
1002
{
1070
             279
1070
               2
1070
             340
1005
42
1070
             140
1040
16.123046874999996
1070
             147
1040
4.0
1002
}
  0
DIMENSION
  5
27D
100
AcDbEntity
  8
寸法
370
              15
  6
Continuous
100
AcDbDimension
  2
*D13
 10
6480.0
 20
900.38074406169972
 30
0.0
 11
6480.0
 21
950.38074406169937
 31
0.0
 71
               5
 72
               1
 41
1.0
 42
0.0
  3
Ekitchen
100
AcDbAlignedDimension
 13
6405.1988718544862
 23
1000.380744061699
 33
0.0
 14
6414.6988718544862
 24
900.38074406169972
 34
0.0
 50
90.0
100
AcDbRotatedDimension
1001
ACAD
1000
DSTYLE
1002
{
1070
             279
1070
               2
1070
             340
1005
42
1070
             140
1040
16.123046874999996
1070
             147
1040
4.0
1002
}
  0
WIPEOUT
  5
27E
100
AcDbEntity
  8
一般
370
               5
  6
STYLE_01
 92
        0
100
AcDbWipeout
 90
        0
 10
6373.0592073706621
 20
6178.8545796519929
 30
0.0
 11
300.0
 21
0.0
 31
0.0
 12
0.0
 22
300.0
 32
0.0
 13
1.0
 23
1.0
340
0
 70
               7
280
               1
281
              50
282
              50
283
               0
360
0
 71
               2
 91
        5
 14
-0.5
 24
18.094912785300981
 14
-0.4
 24
18.094912785300981
 14
-0.4
 24
19.094912785300981
 14
-0.5
 24
19.094912785300981
 14
-0.5
 24
18.094912785300981
  0
POLYLINE
  5
27F
102
{ACAD_REACTORS
330
285
102
}
100
AcDbEntity
  8
一般
370
               5
  6
STYLE_01
100
AcDb2dPolyline
 66
               1
 10
0.0
 20
0.0
 30
0.0
 70
               1
 75
               5
  0
VERTEX
  5
280
100
AcDbEntity
  8
一般
370
               5
  6
STYLE_01
100
AcDbVertex
100
AcDb2dVertex
 10
6373.0592073706621
 20
900.38074406169972
 30
0.0
  0
VERTEX
  5
281
100
AcDbEntity
  8
一般
370
               5
  6
STYLE_01
100
AcDbVertex
100
AcDb2dVertex
 10
6403.0592073706621
 20
900.38074406169972
 30
0.0
  0
VERTEX
  5
282
100
AcDbEntity
  8
一般
370
               5
  6
STYLE_01
100
AcDbVertex
100
AcDb2dVertex
 10
6403.0592073706621
 20
600.38074406169972
 30
0.0
  0
VERTEX
  5
283
100
AcDbEntity
  8
一般
370
               5
  6
STYLE_01
100
AcDbVertex
100
AcDb2dVertex
 10
6373.0592073706621
 20
600.38074406169972
 30
0.0
  0
SEQEND
  5
284
100
AcDbEntity
  8
一般
370
               5
  6
STYLE_01
  0
HATCH
  5
285
100
AcDbEntity
  8
一般
370
               5
  6
Continuous
 62
               7
100
AcDbHatch
 10
0.0
 20
0.0
 30
0.0
210
0.0
220
0.0
230
1.0
  2
Default_Hatch
 70
               0
 71
               1
 91
        1
 92
        1
 93
        4
 72
               1
 10
6373.0592073706621
 20
900.38074406169972
 11
6403.0592073706621
 21
900.38074406169972
 72
               1
 10
6403.0592073706621
 20
900.38074406169972
 11
6403.0592073706621
 21
600.38074406169972
 72
               1
 10
6403.0592073706621
 20
600.38074406169972
 11
6373.0592073706621
 21
600.38074406169972
 72
               1
 10
6373.0592073706621
 20
600.38074406169972
 11
6373.0592073706621
 21
900.38074406169972
 97
        1
330
27F
 75
               0
 76
               2
 52
0.0
 41
1.0
 77
               0
 78
               1
 53
45.0
 43
0.0
 44
0.0
 45
22.4506409
 46
-22.4506409
 79
               0
 98
        1
 10
0.0
 20
0.0
  0
WIPEOUT
  5
286
100
AcDbEntity
  8
一般
370
               5
  6
STYLE_01
 92
        0
100
AcDbWipeout
 90
        0
 10
5666.3385363383104
 20
6178.8545796519929
 30
0.0
 11
300.0
 21
0.0
 31
0.0
 12
0.0
 22
300.0
 32
0.0
 13
1.0
 23
1.0
340
0
 70
               7
280
               1
281
              50
282
              50
283
               0
360
0
 71
               2
 91
        5
 14
-0.5
 24
18.094912785300981
 14
-0.4
 24
18.094912785300981
 14
-0.4
 24
19.094912785300981
 14
-0.5
 24
19.094912785300981
 14
-0.5
 24
18.094912785300981
  0
POLYLINE
  5
287
102
{ACAD_REACTORS
330
28D
102
}
100
AcDbEntity
  8
一般
370
               5
  6
STYLE_01
100
AcDb2dPolyline
 66
               1
 10
0.0
 20
0.0
 30
0.0
 70
               1
 75
               5
  0
VERTEX
  5
288
100
AcDbEntity
  8
一般
370
               5
  6
STYLE_01
100
AcDbVertex
100
AcDb2dVertex
 10
5666.3385363383104
 20
900.38074406169972
 30
0.0
  0
VERTEX
  5
289
100
AcDbEntity
  8
一般
370
               5
  6
STYLE_01
100
AcDbVertex
100
AcDb2dVertex
 10
5696.3385363383104
 20
900.38074406169972
 30
0.0
  0
VERTEX
  5
28A
100
AcDbEntity
  8
一般
370
               5
  6
STYLE_01
100
AcDbVertex
100
AcDb2dVertex
 10
5696.3385363383104
 20
600.38074406169972
 30
0.0
  0
VERTEX
  5
28B
100
AcDbEntity
  8
一般
370
               5
  6
STYLE_01
100
AcDbVertex
100
AcDb2dVertex
 10
5666.3385363383104
 20
600.38074406169972
 30
0.0
  0
SEQEND
  5
28C
100
AcDbEntity
  8
一般
370
               5
  6
STYLE_01
  0
HATCH
  5
28D
100
AcDbEntity
  8
一般
370
               5
  6
Continuous
 62
               7
100
AcDbHatch
 10
0.0
 20
0.0
 30
0.0
210
0.0
220
0.0
230
1.0
  2
Default_Hatch
 70
               0
 71
               1
 91
        1
 92
        1
 93
        4
 72
               1
 10
5666.3385363383104
 20
900.38074406169972
 11
5696.3385363383104
 21
900.38074406169972
 72
               1
 10
5696.3385363383104
 20
900.38074406169972
 11
5696.3385363383104
 21
600.38074406169972
 72
               1
 10
5696.3385363383104
 20
600.38074406169972
 11
5666.3385363383104
 21
600.38074406169972
 72
               1
 10
5666.3385363383104
 20
600.38074406169972
 11
5666.3385363383104
 21
900.38074406169972
 97
        1
330
287
 75
               0
 76
               2
 52
0.0
 41
1.0
 77
               0
 78
               1
 53
45.0
 43
0.0
 44
0.0
 45
22.4506409
 46
-22.4506409
 79
               0
 98
        1
 10
0.0
 20
0.0
  0
DIMENSION
  5
28E
100
AcDbEntity
  8
寸法
370
              15
  6
Continuous
100
AcDbDimension
  2
*D14
 10
6021.2638430119423
 20
916.94571521915543
 30
0.0
 11
6093.75
 21
957.68187220721302
 31
0.0
 70
               3
 71
               5
 72
               1
 41
1.0
 42
0.0
  3
Ekitchen
100
AcDbDiametricDimension
 15
6048.1339006970311
 25
943.815772904244
 35
0.0
 40
19.609625691470928
1001
ACAD
1000
DSTYLE
1002
{
1070
             289
1070
               0
1070
             342
1005
7C
1070
             340
1005
42
1070
             140
1040
16.123046874999996
1070
              73
1070
               1
1070
              74
1070
               1
1070
              75
1070
               1
1070
              76
1070
               1
1070
               3
1000
水栓穴φ<>
1070
             174
1070
               0
1070
             147
1040
4.0
1002
}
  0
DIMENSION
  5
28F
100
AcDbEntity
  8
寸法
370
              15
  6
Continuous
100
AcDbDimension
  2
*D15
 10
6656.8478799172899
 20
500.38074406169972
 30
0.0
 11
6656.8478799172899
 21
515.38074406169972
 31
0.0
 71
               5
 72
               1
 41
1.0
 42
0.0
  3
Ekitchen
100
AcDbAlignedDimension
 13
6709.3732176321282
 23
530.38074406169972
 33
0.0
 14
6787.8478799172899
 24
500.38074406169972
 34
0.0
 50
90.0
100
AcDbRotatedDimension
1001
ACAD
1000
DSTYLE
1002
{
1070
             279
1070
               2
1070
             340
1005
42
1070
             140
1040
16.123046874999996
1070
             147
1040
4.0
1002
}
  0
DIMENSION
  5
290
100
AcDbEntity
  8
寸法
370
              15
  6
Continuous
100
AcDbDimension
  2
*D16
 10
6656.8478799172917
 20
530.38074406169972
 30
0.0
 11
6656.8478799172917
 21
705.38074406169972
 31
0.0
 71
               5
 72
               1
 41
1.0
 42
0.0
  3
Ekitchen
100
AcDbAlignedDimension
 13
6709.7400226555619
 23
880.38074406169972
 33
0.0
 14
6704.3732176321282
 24
530.38074406169972
 34
0.0
 50
90.0
100
AcDbRotatedDimension
1001
ACAD
1000
DSTYLE
1002
{
1070
             279
1070
               2
1070
             340
1005
42
1070
             140
1040
16.123046874999996
1070
             147
1040
4.0
1002
}
  0
DIMENSION
  5
291
100
AcDbEntity
  8
寸法
370
              15
  6
Continuous
100
AcDbDimension
  2
*D17
 10
6656.8478799172917
 20
880.38074406169972
 30
0.0
 11
6656.8478799172917
 21
940.38074406169994
 31
0.0
 71
               5
 72
               1
 41
1.0
 42
0.0
  3
Ekitchen
100
AcDbAlignedDimension
 13
6787.8478799172899
 23
1000.3807440617001
 33
0.0
 14
6701.3478799172917
 24
880.38074406169972
 34
0.0
 50
90.0
100
AcDbRotatedDimension
1001
ACAD
1000
DSTYLE
1002
{
1070
             279
1070
               2
1070
             340
1005
42
1070
             140
1040
16.123046874999996
1070
             147
1040
4.0
1002
}
  0
DIMENSION
  5
292
100
AcDbEntity
  8
寸法
370
              15
  6
Continuous
100
AcDbDimension
  2
*D18
 10
6609.8478799172917
 20
500.38074406169972
 30
0.0
 11
6609.8478799172917
 21
750.38074406169994
 31
0.0
 71
               5
 72
               1
 41
1.0
 42
0.0
  3
Ekitchen
100
AcDbAlignedDimension
 13
6701.8478799172917
 23
1000.3807440617001
 33
0.0
 14
6701.8478799172917
 24
500.38074406169972
 34
0.0
 50
90.0
100
AcDbRotatedDimension
1001
ACAD
1000
DSTYLE
1002
{
1070
             279
1070
               2
1070
             340
1005
42
1070
             140
1040
16.123046874999996
1070
             147
1040
4.0
1002
}
  0
DIMENSION
  5
293
100
AcDbEntity
  8
寸法
370
              15
  6
Continuous
100
AcDbDimension
  2
*D19
 10
6707.8478799172917
 20
442.5
 30
0.0
 11
6747.8478799172908
 21
442.5
 31
0.0
 71
               5
 72
               1
 41
1.0
 42
0.0
  3
Ekitchen
100
AcDbAlignedDimension
 13
6787.8478799172899
 23
500.38074406169972
 33
0.0
 14
6707.8478799172917
 24
521.5
 34
0.0
100
AcDbRotatedDimension
1001
ACAD
1000
DSTYLE
1002
{
1070
             279
1070
               2
1070
             340
1005
42
1070
             140
1040
16.123046874999996
1070
             147
1040
4.0
1002
}
  0
DIMENSION
  5
294
100
AcDbEntity
  8
寸法
370
              15
  6
Continuous
100
AcDbDimension
  2
*D20
 10
6787.8478799172899
 20
442.5
 30
0.0
 11
6823.8478799172899
 21
442.5
 31
0.0
 71
               5
 72
               1
 41
1.0
 42
0.0
  3
Ekitchen
100
AcDbAlignedDimension
 13
6859.8478799172899
 23
505.5
 33
0.0
 14
6787.8478799172899
 24
491.0
 34
0.0
100
AcDbRotatedDimension
1001
ACAD
1000
DSTYLE
1002
{
1070
             279
1070
               2
1070
             340
1005
42
1070
             140
1040
16.123046874999996
1070
             147
1040
4.0
1002
}
  0
DIMENSION
  5
295
100
AcDbEntity
  8
寸法
370
              15
  6
Continuous
100
AcDbDimension
  2
*D21
 10
6832.8478799172899
 20
500.38074406169972
 30
0.0
 11
6832.8478799172899
 21
526.98074406169974
 31
0.0
 71
               5
 72
               1
 41
1.0
 42
0.0
  3
Ekitchen
100
AcDbAlignedDimension
 13
6787.8478799172899
 23
553.58074406169976
 33
0.0
 14
6787.8478799172899
 24
500.38074406169972
 34
0.0
 50
90.0
100
AcDbRotatedDimension
1001
ACAD
1000
DSTYLE
1002
{
1070
             279
1070
               2
1070
             340
1005
42
1070
             140
1040
16.123046874999996
1070
             147
1040
4.0
1002
}
  0
DIMENSION
  5
296
100
AcDbEntity
  8
寸法
370
              15
  6
Continuous
100
AcDbDimension
  2
*D22
 10
6902.8478799172899
 20
765.63074406170006
 30
0.0
 11
6902.8478799172899
 21
790.38074406170006
 31
0.0
 71
               5
 72
               1
 41
1.0
 42
0.0
  3
Ekitchen
100
AcDbAlignedDimension
 13
6859.8478799172899
 23
815.13074406170006
 33
0.0
 14
6859.8478799172899
 24
765.63074406170006
 34
0.0
 50
90.0
100
AcDbRotatedDimension
1001
ACAD
1000
DSTYLE
1002
{
1070
             279
1070
               2
1070
             340
1005
42
1070
             140
1040
16.123046874999996
1070
               3
1000
Φ<>
1070
             147
1040
4.0
1002
}
  0
DIMENSION
  5
297
100
AcDbEntity
  8
寸法
370
              15
  6
Continuous
100
AcDbDimension
  2
*D23
 10
6945.8478799172899
 20
753.38074406170006
 30
0.0
 11
6945.8478799172899
 21
790.38074406170017
 31
0.0
 71
               5
 72
               1
 41
1.0
 42
0.0
  3
Ekitchen
100
AcDbAlignedDimension
 13
6857.9626330904757
 23
827.38074406170017
 33
0.0
 14
6857.9626330904757
 24
753.38074406170006
 34
0.0
 50
90.0
100
AcDbRotatedDimension
1001
ACAD
1000
DSTYLE
1002
{
1070
             279
1070
               2
1070
             340
1005
42
1070
             140
1040
16.123046874999996
1070
               3
1000
Φ<>
1070
             147
1040
4.0
1002
}
  0
INSERT
  5
298
100
AcDbEntity
  8
一般
100
AcDbBlockReference
  2
*U24
 10
6200.6408935367845
 20
622.16705794649101
 30
0.0
  0
INSERT
  5
299
100
AcDbEntity
  8
一般
100
AcDbBlockReference
  2
*U25
 10
6200.6408935367845
 20
622.16705794649101
 30
0.0
  0
DIMENSION
  5
29A
100
AcDbEntity
  8
寸法
370
              15
  6
Continuous
100
AcDbDimension
  2
*D26
 10
5666.0364757709904
 20
130.0
 30
0.0
 11
5681.0364757709904
 21
130.0
 31
0.0
 71
               5
 72
               1
 41
1.0
 42
0.0
  3
Ekitchen
100
AcDbAlignedDimension
 13
5696.0364757709904
 23
176.05824519573122
 33
0.0
 14
5666.0364757709904
 24
175.96504692921371
 34
0.0
100
AcDbRotatedDimension
1001
ACAD
1000
DSTYLE
1002
{
1070
             279
1070
               2
1070
             340
1005
42
1070
             140
1040
16.123046874999996
1070
             147
1040
4.0
1002
}
  0
DIMENSION
  5
29B
100
AcDbEntity
  8
寸法
370
              15
  6
Continuous
100
AcDbDimension
  2
*D27
 10
5731.8000000000002
 20
176.05824519573122
 30
0.0
 11
5731.8000000000002
 21
185.55824519573122
 31
0.0
 71
               5
 72
               1
 41
1.0
 42
0.0
  3
Ekitchen
100
AcDbAlignedDimension
 13
5691.0
 23
195.05824519573122
 33
0.0
 14
5691.0
 24
176.05824519573122
 34
0.0
 50
90.0
100
AcDbRotatedDimension
1001
ACAD
1000
DSTYLE
1002
{
1070
             279
1070
               2
1070
             340
1005
42
1070
             140
1040
16.123046874999996
1070
             147
1040
4.0
1002
}
  0
DIMENSION
  5
29C
100
AcDbEntity
  8
寸法
370
              15
  6
Continuous
100
AcDbDimension
  2
*D28
 10
5731.8000000000002
 20
175.0
 30
0.0
 11
5735.8000000000002
 21
166.60000000000002
 31
0.0
 70
             128
 71
               5
 72
               1
 41
1.0
 42
0.0
  3
Ekitchen
100
AcDbAlignedDimension
 13
5690.2000000000007
 23
176.0
 33
0.0
 14
5690.4000000000005
 24
175.0
 34
0.0
 50
90.0
100
AcDbRotatedDimension
1001
ACAD
1000
DSTYLE
1002
{
1070
             279
1070
               2
1070
             340
1005
42
1070
             140
1040
16.123046874999996
1070
             174
1070
               0
1070
             147
1040
4.0
1002
}
  0
MTEXT
  5
29D
100
AcDbEntity
  8
一般
100
AcDbMText
 10
6258.914785111062
 20
145.86645943325362
 30
0.0
 40
13.435872395833334
 41
0.0
 71
               1
 72
               1
  1
取付用裏貼り
  7
小塚ゴシック Pr6N R
 73
               1
 44
1.3839975285758417
  0
LINE
  5
29E
100
AcDbEntity
  8
一般
370
              15
  6
Continuous
100
AcDbLine
 10
6389.167035653456
 20
185.21249155379206
 30
0.0
 11
6360.3029237370902
 21
128.97924379735144
 31
0.0
  0
SOLID
  5
29F
100
AcDbEntity
  8
一般
370
              15
100
AcDbTrace
 10
6389.167035653456
 20
185.21249155379206
 30
0.0
 11
6385.4699629688712
 21
169.19871041503563
 31
0.0
 12
6377.9583862195896
 22
173.19268661927759
 32
0.0
 13
6377.9583862195896
 23
173.19268661927759
 33
0.0
  0
LINE
  5
2A0
100
AcDbEntity
  8
一般
370
              15
  6
Continuous
100
AcDbLine
 10
6360.3029237370902
 20
128.97924379735144
 30
0.0
 11
6260.5
 21
128.97924379735144
 31
0.0
  0
LINE
  5
2A1
100
AcDbEntity
  8
sen-c
  6
STYLE_03
100
AcDbLine
 10
5617.8135785886534
 20
790.0
 30
0.0
 11
6456.0
 21
790.0
 31
0.0
  0
LINE
  5
2A2
100
AcDbEntity
  8
一般
370
              15
  6
Continuous
100
AcDbLine
 10
6456.0
 20
790.0
 30
0.0
 11
6456.0
 21
820.69887185448624
 31
0.0
  0
LINE
  5
2A3
100
AcDbEntity
  8
一般
370
              15
  6
Continuous
100
AcDbLine
 10
6456.0
 20
820.69887185448624
 30
0.0
 11
6460.2536934298441
 21
804.82387185448624
 31
0.0
  0
LINE
  5
2A4
100
AcDbEntity
  8
一般
370
              15
  6
Continuous
100
AcDbLine
 10
6456.0
 20
820.69887185448624
 30
0.0
 11
6451.7463065701559
 21
804.82387185448624
 31
0.0
  0
LINE
  5
2A5
100
AcDbEntity
  8
一般
370
              15
  6
Continuous
100
AcDbLine
 10
5617.8135785886534
 20
790.0
 30
0.0
 11
5617.8135785886534
 21
820.69887185448624
 31
0.0
  0
LINE
  5
2A6
100
AcDbEntity
  8
一般
370
              15
  6
Continuous
100
AcDbLine
 10
5617.8135785886534
 20
820.69887185448624
 30
0.0
 11
5622.0672720184975
 21
804.82387185448624
 31
0.0
  0
LINE
  5
2A7
100
AcDbEntity
  8
一般
370
              15
  6
Continuous
100
AcDbLine
 10
5617.8135785886534
 20
820.69887185448624
 30
0.0
 11
5613.5598851588093
 21
804.82387185448624
 31
0.0
  0
LINE
  5
2A8
100
AcDbEntity
  8
一般
370
              15
  6
Continuous
100
AcDbLine
 10
6034.6988718544862
 20
465.0
 30
0.0
 11
6004.0
 21
465.0
 31
0.0
  0
LINE
  5
2A9
100
AcDbEntity
  8
一般
370
              15
  6
Continuous
100
AcDbLine
 10
6004.0
 20
465.0
 30
0.0
 11
6019.875
 21
469.25369342984408
 31
0.0
  0
LINE
  5
2AA
100
AcDbEntity
  8
一般
370
              15
  6
Continuous
100
AcDbLine
 10
6004.0
 20
465.0
 30
0.0
 11
6019.875
 21
460.74630657015592
 31
0.0
  0
LINE
  5
2AB
100
AcDbEntity
  8
一般
370
              15
  6
Continuous
100
AcDbLine
 10
6034.6988718544862
 20
1039.0
 30
0.0
 11
6004.0
 21
1039.0
 31
0.0
  0
LINE
  5
2AC
100
AcDbEntity
  8
一般
370
              15
  6
Continuous
100
AcDbLine
 10
6004.0
 20
1039.0
 30
0.0
 11
6019.875
 21
1043.2536934298441
 31
0.0
  0
LINE
  5
2AD
100
AcDbEntity
  8
一般
370
              15
  6
Continuous
100
AcDbLine
 10
6004.0
 20
1039.0
 30
0.0
 11
6019.875
 21
1034.7463065701559
 31
0.0
  0
MTEXT
  5
2AE
100
AcDbEntity
  8
一般
100
AcDbMText
 10
5983.0
 20
472.1222005208333
 30
0.0
 40
15.172200520833332
 41
0.0
 71
               1
 72
               1
  1
B
  7
Arial
 73
               1
 44
0.9664817307376644
  0
MTEXT
  5
2AF
100
AcDbEntity
  8
一般
100
AcDbMText
 10
5986.398885960818
 20
1045.6615190125117
 30
0.0
 40
15.172200520833332
 41
0.0
 71
               1
 72
               1
  1
B
  7
Arial
 73
               1
 44
0.9664817307376644
  0
MTEXT
  5
2B0
100
AcDbEntity
  8
一般
100
AcDbMText
 10
6430.7680119617753
 20
818.76953485098124
 30
0.0
 40
15.172200520833332
 41
0.0
 71
               1
 72
               1
  1
A
  7
Arial
 73
               1
 44
0.9664817307376644
  0
MTEXT
  5
2B1
100
AcDbEntity
  8
一般
100
AcDbMText
 10
5628.5547541387459
 20
818.24342644241142
 30
0.0
 40
15.172200520833332
 41
0.0
 71
               1
 72
               1
  1
A
  7
Arial
 73
               1
 44
0.9664817307376644
  0
MTEXT
  5
2B2
100
AcDbEntity
  8
一般
100
AcDbMText
 10
6611.8866668012406
 20
1057.0327213541668
 30
0.0
 40
18.810221354166668
 41
0.0
 71
               1
 72
               1
  1
断面図　{\fArial|b0|i0|c0|p0;\H0.941x;\lB}-{\fArial|b0|i0|c0|p0;\H0.941x;\lB}
  7
小塚ゴシック Pr6N R
 73
               1
 44
1.3839975285758421
  0
MTEXT
  5
2B3
100
AcDbEntity
  8
一般
100
AcDbMText
 10
5635.8866668012406
 20
309.03272135416677
 30
0.0
 40
18.810221354166668
 41
0.0
 71
               1
 72
               1
  1
断面図　{\fArial|b0|i0|c0|p0;\H0.941x;\lA}-{\fArial|b0|i0|c0|p0;\H0.941x;\lA}
  7
小塚ゴシック Pr6N R
 73
               1
 44
1.3839975285758421
  0
MTEXT
  5
2B4
100
AcDbEntity
  8
一般
100
AcDbMText
 10
6838.9272979051393
 20
30.236597355486765
 30
0.0
 40
17.700900607638889
 41
0.0
 71
               1
 72
               1
  1
SQR{\f小塚ゴシック Pr6N R|b0|i0|c0|p0;\H1.063x;\l750-80}
  7
Arial
 73
               1
 44
1.3839975285758421
  0
DIMENSION
  5
2B5
100
AcDbEntity
  8
寸法
370
              15
  6
Continuous
100
AcDbDimension
  2
*D29
 10
6707.8478799172917
 20
401.68398870383584
 30
0.0
 11
6783.8478799172908
 21
401.68398870383584
 31
0.0
 71
               5
 72
               1
 41
1.0
 42
0.0
  3
Ekitchen
100
AcDbAlignedDimension
 13
6859.8478799172899
 23
476.25
 33
0.0
 14
6707.8478799172917
 24
476.25
 34
0.0
100
AcDbRotatedDimension
1001
ACAD
1000
DSTYLE
1002
{
1070
             279
1070
               2
1070
             340
1005
42
1070
             140
1040
16.123046874999996
1070
             147
1040
4.0
1002
}
  0
ENDSEC
  0
SECTION
  2
OBJECTS
  0
DICTIONARY
  5
19
100
AcDbDictionary
280
               0
281
               1
  3
ACAD_GROUP
350
1A
  3
ACAD_MLINESTYLE
350
1B
  3
ACAD_LAYOUT
350
1E
  3
ACAD_PLOTSETTINGS
350
22
  3
ACAD_PLOTSTYLENAME
350
1F
  3
ACAD_WIPEOUT_VARS
350
23
  0
DICTIONARY
  5
1A
102
{ACAD_REACTORS
330
19
102
}
100
AcDbDictionary
280
               0
281
               1
  0
DICTIONARY
  5
1B
102
{ACAD_REACTORS
330
19
102
}
100
AcDbDictionary
280
               0
281
               1
  3
Standard
350
1C
  0
MLINESTYLE
  5
1C
102
{ACAD_REACTORS
330
1B
102
}
100
AcDbMlineStyle
  2
Standard
 70
               0
  3

 62
               0
 51
90.0
 52
90.0
 71
               2
 49
0.5
 62
             256
  6
ByLayer
 49
-0.5
 62
             256
  6
ByLayer
  0
ACDBDICTIONARYWDFLT
  5
1F
102
{ACAD_REACTORS
330
19
102
}
100
AcDbDictionary
281
               1
  3
Normal
350
1D
100
AcDbDictionaryWithDefault
340
1D
  0
ACDBPLACEHOLDER
  5
1D
102
{ACAD_REACTORS
330
1F
102
}
  0
LAYOUT
  5
20
102
{ACAD_REACTORS
330
1E
102
}
100
AcDbPlotSettings
  1

  2

  4

  6

 40
0.0
 41
0.0
 42
0.0
 43
0.0
 44
0.0
 45
0.0
 46
0.0
 47
0.0
 48
0.0
 49
0.0
140
0.0
141
0.0
142
1.0
143
1.0
 70
            1024
 72
               0
 73
               0
 74
               0
  7

 75
               0
147
1.0
148
0.0
149
0.0
100
AcDbLayout
  1
Model
 70
               0
 71
               0
 10
0.0
 20
0.0
 11
0.0
 21
0.0
 12
0.0
 22
0.0
 32
0.0
 14
0.0
 24
0.0
 34
0.0
 15
0.0
 25
0.0
 35
0.0
146
0.0
 13
0.0
 23
0.0
 33
0.0
 16
0.0
 26
0.0
 36
0.0
 17
0.0
 27
0.0
 37
0.0
 76
               0
330
A
331
0
345
0
346
0
  0
LAYOUT
  5
21
102
{ACAD_REACTORS
330
1E
102
}
100
AcDbPlotSettings
  1

  2

  4

  6

 40
0.0
 41
0.0
 42
0.0
 43
0.0
 44
0.0
 45
0.0
 46
0.0
 47
0.0
 48
0.0
 49
0.0
140
0.0
141
0.0
142
1.0
143
1.0
 70
               0
 72
               0
 73
               0
 74
               0
  7

 75
               0
147
1.0
148
0.0
149
0.0
100
AcDbLayout
  1
Layout1
 70
               0
 71
               0
 10
0.0
 20
0.0
 11
0.0
 21
0.0
 12
0.0
 22
0.0
 32
0.0
 14
0.0
 24
0.0
 34
0.0
 15
0.0
 25
0.0
 35
0.0
146
0.0
 13
0.0
 23
0.0
 33
0.0
 16
0.0
 26
0.0
 36
0.0
 17
0.0
 27
0.0
 37
0.0
 76
               0
330
B
331
0
345
0
346
0
  0
DICTIONARY
  5
1E
102
{ACAD_REACTORS
330
19
102
}
100
AcDbDictionary
280
               0
281
               1
  3
Layout1
350
21
  3
Model
350
20
  0
DICTIONARY
  5
22
102
{ACAD_REACTORS
330
19
102
}
100
AcDbDictionary
280
               0
281
               1
  0
WIPEOUTVARIABLES
  5
23
100
AcDbWipeoutVariables
 70
               0
  0
ENDSEC
  0
EOF
