  0
SECTION
  2
HEADER
  9
$ACADVER
  1
AC1015
  9
$ACADMAINTVER
 70
               6
  9
$DWGCODEPAGE
  3
ANSI_932
  9
$INSBASE
 10
0.0
 20
0.0
 30
0.0
  9
$EXTMIN
 10
631.5
 20
-727.54876209732561
 30
0.0
  9
$EXTMAX
 10
2561.5
 20
672.45123790267439
 30
0.0
  9
$LIMMIN
 10
0.0
 20
0.0
  9
$LIMMAX
 10
0.0
 20
0.0
  9
$ORTHOMODE
 70
               0
  9
$REGENMODE
 70
               1
  9
$FILLMODE
 70
               1
  9
$QTEXTMODE
 70
               0
  9
$MIRRTEXT
 70
               1
  9
$LTSCALE
 40
12.699999999999999
  9
$ATTMODE
 70
               1
  9
$TEXTSIZE
 40
0.2
  9
$TRACEWID
 40
1.0
  9
$TEXTSTYLE
  7
Standard
  9
$CLAYER
  8
一般
  9
$CELTYPE
  6
Continuous
  9
$CECOLOR
 62
             256
  9
$CELTSCALE
 40
1.0
  9
$DISPSILH
 70
               0
  9
$DIMSCALE
 40
1.0
  9
$DIMASZ
 40
7.5034179687499991
  9
$DIMEXO
 40
4.9999999999999991
  9
$DIMDLI
 40
4.9999999999999991
  9
$DIMRND
 40
0.0
  9
$DIMDLE
 40
0.0
  9
$DIMEXE
 40
0.0
  9
$DIMTP
 40
0.0
  9
$DIMTM
 40
0.0
  9
$DIMTXT
 40
16.288411458333332
  9
$DIMCEN
 40
0.0
  9
$DIMTSZ
 40
0.0
  9
$DIMTOL
 70
               0
  9
$DIMLIM
 70
               0
  9
$DIMTIH
 70
               0
  9
$DIMTOH
 70
               0
  9
$DIMSE1
 70
               0
  9
$DIMSE2
 70
               0
  9
$DIMTAD
 70
               1
  9
$DIMZIN
 70
              11
  9
$DIMBLK
  1
VW_FILLEDARROW
  9
$DIMASO
 70
               1
  9
$DIMSHO
 70
               1
  9
$DIMPOST
  1
<>
  9
$DIMAPOST
  1
[]
  9
$DIMALT
 70
               0
  9
$DIMALTD
 70
               2
  9
$DIMALTF
 40
1.0
  9
$DIMLFAC
 40
1.0
  9
$DIMTOFL
 70
               1
  9
$DIMTVP
 40
0.0
  9
$DIMTIX
 70
               1
  9
$DIMSOXD
 70
               0
  9
$DIMSAH
 70
               0
  9
$DIMBLK1
  1

  9
$DIMBLK2
  1

  9
$DIMSTYLE
  2
Ekitchen
  9
$DIMCLRD
 70
               0
  9
$DIMCLRE
 70
               0
  9
$DIMCLRT
 70
               0
  9
$DIMTFAC
 40
0.8
  9
$DIMGAP
 40
0.7999999999999999
  9
$DIMJUST
 70
               0
  9
$DIMSD1
 70
               0
  9
$DIMSD2
 70
               0
  9
$DIMTOLJ
 70
               1
  9
$DIMTZIN
 70
              11
  9
$DIMALTZ
 70
              11
  9
$DIMALTTZ
 70
              11
  9
$DIMUPT
 70
               0
  9
$DIMDEC
 70
               2
  9
$DIMTDEC
 70
               2
  9
$DIMALTU
 70
               2
  9
$DIMALTTD
 70
               2
  9
$DIMTXSTY
  7
ＭＳ ゴシック
  9
$DIMAUNIT
 70
               0
  9
$DIMADEC
 70
               0
  9
$DIMALTRND
 40
0.0
  9
$DIMAZIN
 70
               0
  9
$DIMDSEP
 70
              46
  9
$DIMATFIT
 70
               0
  9
$DIMFRAC
 70
               2
  9
$DIMLDRBLK
  1

  9
$DIMLUNIT
 70
               2
  9
$DIMLWD
 70
              -2
  9
$DIMLWE
 70
              -2
  9
$DIMTMOVE
 70
               0
  9
$LUNITS
 70
               2
  9
$LUPREC
 70
               4
  9
$SKETCHINC
 40
0.1
  9
$FILLETRAD
 40
0.0
  9
$AUNITS
 70
               0
  9
$AUPREC
 70
               0
  9
$MENU
  1
acad
  9
$ELEVATION
 40
0.0
  9
$PELEVATION
 40
0.0
  9
$THICKNESS
 40
0.0
  9
$LIMCHECK
 70
               0
  9
$CHAMFERA
 40
0.0
  9
$CHAMFERB
 40
0.0
  9
$CHAMFERC
 40
0.0
  9
$CHAMFERD
 40
0.0
  9
$SKPOLY
 70
               0
  9
$TDCREATE
 40
2458285.692129630
  9
$TDUCREATE
 40
0.000000000
  9
$TDUPDATE
 40
2458285.692129630
  9
$TDUUPDATE
 40
0.000000000
  9
$TDINDWG
 40
0.0000000000
  9
$TDUSRTIMER
 40
0.0000000000
  9
$USRTIMER
 70
               1
  9
$ANGBASE
 50
0.0
  9
$ANGDIR
 70
               0
  9
$PDMODE
 70
               1
  9
$PDSIZE
 40
-2.0
  9
$PLINEWID
 40
0.0
  9
$SPLFRAME
 70
               0
  9
$SPLINETYPE
 70
               6
  9
$SPLINESEGS
 70
               8
  9
$HANDSEED
  5
301
  9
$SURFTAB1
 70
               6
  9
$SURFTAB2
 70
               6
  9
$SURFTYPE
 70
               6
  9
$SURFU
 70
               6
  9
$SURFV
 70
               6
  9
$UCSBASE
  2

  9
$UCSNAME
  2

  9
$UCSORG
 10
0.0
 20
0.0
 30
0.0
  9
$UCSXDIR
 10
1.0
 20
0.0
 30
0.0
  9
$UCSYDIR
 10
0.0
 20
1.0
 30
0.0
  9
$UCSORTHOREF
  2

  9
$UCSORTHOVIEW
 70
               0
  9
$UCSORGTOP
 10
0.0
 20
0.0
 30
0.0
  9
$UCSORGBOTTOM
 10
0.0
 20
0.0
 30
0.0
  9
$UCSORGLEFT
 10
0.0
 20
0.0
 30
0.0
  9
$UCSORGRIGHT
 10
0.0
 20
0.0
 30
0.0
  9
$UCSORGFRONT
 10
0.0
 20
0.0
 30
0.0
  9
$UCSORGBACK
 10
0.0
 20
0.0
 30
0.0
  9
$PUCSBASE
  2

  9
$PUCSNAME
  2

  9
$PUCSORG
 10
0.0
 20
0.0
 30
0.0
  9
$PUCSXDIR
 10
1.0
 20
0.0
 30
0.0
  9
$PUCSYDIR
 10
0.0
 20
1.0
 30
0.0
  9
$PUCSORTHOREF
  2

  9
$PUCSORTHOVIEW
 70
               0
  9
$PUCSORGTOP
 10
0.0
 20
0.0
 30
0.0
  9
$PUCSORGBOTTOM
 10
0.0
 20
0.0
 30
0.0
  9
$PUCSORGLEFT
 10
0.0
 20
0.0
 30
0.0
  9
$PUCSORGRIGHT
 10
0.0
 20
0.0
 30
0.0
  9
$PUCSORGFRONT
 10
0.0
 20
0.0
 30
0.0
  9
$PUCSORGBACK
 10
0.0
 20
0.0
 30
0.0
  9
$USERI1
 70
               0
  9
$USERI2
 70
               0
  9
$USERI3
 70
               0
  9
$USERI4
 70
               0
  9
$USERI5
 70
               0
  9
$USERR1
 40
0.0
  9
$USERR2
 40
0.0
  9
$USERR3
 40
0.0
  9
$USERR4
 40
0.0
  9
$USERR5
 40
0.0
  9
$WORLDVIEW
 70
               1
  9
$SHADEDGE
 70
               3
  9
$SHADEDIF
 70
              70
  9
$TILEMODE
 70
               1
  9
$MAXACTVP
 70
              16
  9
$PINSBASE
 10
0.0
 20
0.0
 30
0.0
  9
$PLIMCHECK
 70
               0
  9
$PEXTMIN
 10
1.0000000000000000E+20
 20
1.0000000000000000E+20
 30
1.0000000000000000E+20
  9
$PEXTMAX
 10
-1.0000000000000000E+20
 20
-1.0000000000000000E+20
 30
-1.0000000000000000E+20
  9
$PLIMMIN
 10
0.0
 20
0.0
  9
$PLIMMAX
 10
12.0
 20
9.0
  9
$UNITMODE
 70
               0
  9
$VISRETAIN
 70
               0
  9
$PLINEGEN
 70
               1
  9
$PSLTSCALE
 70
               0
  9
$TREEDEPTH
 70
            3020
  9
$CMLSTYLE
  2
Standard
  9
$CMLJUST
 70
               0
  9
$CMLSCALE
 40
1.0
  9
$PROXYGRAPHICS
 70
               0
  9
$MEASUREMENT
 70
               1
  9
$CELWEIGHT
370
               0
  9
$ENDCAPS
280
               0
  9
$JOINSTYLE
280
               0
  9
$LWDISPLAY
290
               1
  9
$INSUNITS
 70
               4
  9
$HYPERLINKBASE
  1

  9
$STYLESHEET
  1

  9
$XEDIT
290
               1
  9
$CEPSNTYPE
380
               0
  9
$PSTYLEMODE
290
               1
  9
$FINGERPRINTGUID
  2

  9
$VERSIONGUID
  2

  9
$EXTNAMES
290
               1
  9
$PSVPSCALE
 40
0.0
  0
ENDSEC
  0
SECTION
  2
CLASSES
  0
CLASS
  1
LWPOLYLINE
  2
AcDbPolyline
  3
AutoCAD 2000
 90
        0
280
               0
281
               1
  0
CLASS
  1
IMAGE
  2
AcDbRasterImage
  3
ISM
 90
    32895
280
               0
281
               1
  0
CLASS
  1
OLE2FRAME
  2
AcDbOle2Frame
  3
AutoCAD 2000
 90
    32768
280
               0
281
               1
  0
CLASS
  1
HATCH
  2
AcDbHatch
  3
AutoCAD 2000
 90
        0
280
               0
281
               1
  0
CLASS
  1
DICTIONARYVAR
  2
AcDbDictionaryVar
  3
AutoCAD 2000
 90
    32768
280
               0
281
               0
  0
CLASS
  1
RASTERVARIABLES
  2
AcDbRasterVariables
  3
ISM
 90
    32768
280
               0
281
               0
  0
CLASS
  1
IMAGEDEF
  2
AcDbRasterImageDef
  3
ISM
 90
    32768
280
               0
281
               0
  0
CLASS
  1
IMAGEDEF_REACTOR
  2
AcDbRasterImageDefReactor
  3
ISM
 90
    32769
280
               0
281
               0
  0
CLASS
  1
IDBUFFER
  2
AcDbIdBuffer
  3
AutoCAD 2000
 90
    32768
280
               0
281
               0
  0
CLASS
  1
SPATIAL_FILTER
  2
AcDbSpatialFilter
  3
AutoCAD 2000
 90
    32768
280
               0
281
               0
  0
CLASS
  1
XRECORD
  2
AcDbXrecord
  3
AutoCAD 2000
 90
    32768
280
               0
281
               0
  0
CLASS
  1
SORTENTSTABLE
  2
AcDbSortentsTable
  3
AutoCAD 2000
 90
    32768
280
               0
281
               0
  0
CLASS
  1
LAYER_INDEX
  2
AcDbLayerIndex
  3
AutoCAD 2000
 90
    32768
280
               0
281
               0
  0
CLASS
  1
SPATIAL_INDEX
  2
AcDbSpatialIndex
  3
AutoCAD 2000
 90
    32768
280
               0
281
               0
  0
CLASS
  1
OBJECT_PTR
  2
CAseDLPNTableRecord
  3
"ASE-LPNTableRecord"
 90
    32769
280
               0
281
               0
  0
CLASS
  1
LAYOUT
  2
AcDbLayout
  3
AutoCAD 2000
 90
        0
280
               0
281
               0
  0
CLASS
  1
PLOTSETTINGS
  2
AcDbPlotSettings
  3
AutoCAD 2000
 90
    32768
280
               0
281
               0
  0
CLASS
  1
ACDBDICTIONARYWDFLT
  2
AcDbDictionaryWithDefault
  3
AutoCAD 2000
 90
        0
280
               0
281
               0
  0
CLASS
  1
ACDBPLACEHOLDER
  2
AcDbPlaceHolder
  3
AutoCAD 2000
 90
        0
280
               0
281
               0
  0
CLASS
  1
VBA_PROJECT
  2
AcDbVbaProject
  3
acadvba
 90
    32768
280
               0
281
               0
  0
CLASS
  1
WIPEOUT
  2
AcDbWipeout
  3
WipeOut|AutoCAD Express Tool|expresstools@autodesk.com
 90
      127
280
               0
281
               1
  0
CLASS
  1
WIPEOUTVARIABLES
  2
AcDbWipeoutVariables
  3
WipeOut|AutoCAD Express Tool|expresstools@autodesk.com
 90
        0
280
               0
281
               0
  0
CLASS
  1
RTEXT
  2
RText
  3
RText|AutoCAD Express Tool|expresstools@autodesk.com
 90
    32768
280
               0
281
               1
  0
CLASS
  1
ARCALIGNEDTEXT
  2
AcDbArcAlignedText
  3
ATEXT|AutoCAD Express Tool|expresstools@autodesk.com
 90
    32768
280
               0
281
               1
  0
ENDSEC
  0
SECTION
  2
TABLES
  0
TABLE
  2
VPORT
  5
7
100
AcDbSymbolTable
 70
               1
  0
VPORT
  5
15
100
AcDbSymbolTableRecord
100
AcDbViewportTableRecord
  2
*ACTIVE
 70
               0
 10
0.0
 20
0.0
 11
1.0
 21
1.0
 12
1596.5
 22
-27.548762097325607
 13
0.0
 23
0.0
 14
1.0
 24
1.0
 15
0.0
 25
0.0
 16
0.0
 26
0.0
 36
1.0
 17
0.0
 27
0.0
 37
0.0
 40
1400.0
 41
0.688564
 42
50.0
 43
0.0
 44
0.0
 50
0.0
 51
0.0
 71
               0
 72
             100
 73
               1
 74
               1
 75
               0
 76
               0
 77
               0
 78
               0
281
               0
 65
               0
110
0.0
120
0.0
130
0.0
111
1.0
121
0.0
131
0.0
112
0.0
122
1.0
132
0.0
345
0
346
0
 79
               0
146
0.0
  0
ENDTAB
  0
TABLE
  2
LTYPE
  5
4
100
AcDbSymbolTable
 70
              22
  0
LTYPE
  5
11
100
AcDbSymbolTableRecord
100
AcDbLinetypeTableRecord
  2
ByBlock
 70
              64
  3

 72
              65
 73
               0
 40
0.0
  0
LTYPE
  5
12
100
AcDbSymbolTableRecord
100
AcDbLinetypeTableRecord
  2
ByLayer
 70
              64
  3

 72
              65
 73
               0
 40
0.0
  0
LTYPE
  5
13
100
AcDbSymbolTableRecord
100
AcDbLinetypeTableRecord
  2
Continuous
 70
              64
  3
Solid line
 72
              65
 73
               0
 40
0.0
  0
LTYPE
  5
46
100
AcDbSymbolTableRecord
100
AcDbLinetypeTableRecord
  2
STYLE_01
 70
               0
  3

 72
              65
 73
               2
 40
0.166656
 49
0.083312
 74
               0
 49
-0.083344
 74
               0
  0
LTYPE
  5
47
100
AcDbSymbolTableRecord
100
AcDbLinetypeTableRecord
  2
STYLE_02
 70
               0
  3

 72
              65
 73
               2
 40
0.27777
 49
0.194428
 74
               0
 49
-0.083342
 74
               0
  0
LTYPE
  5
48
100
AcDbSymbolTableRecord
100
AcDbLinetypeTableRecord
  2
STYLE_03
 70
               0
  3

 72
              65
 73
               2
 40
0.5
 49
0.416656
 74
               0
 49
-0.083344
 74
               0
  0
LTYPE
  5
49
100
AcDbSymbolTableRecord
100
AcDbLinetypeTableRecord
  2
STYLE_04
 70
               0
  3

 72
              65
 73
               2
 40
0.611084
 49
0.52777
 74
               0
 49
-0.083314
 74
               0
  0
LTYPE
  5
4A
100
AcDbSymbolTableRecord
100
AcDbLinetypeTableRecord
  2
STYLE_05
 70
               0
  3

 72
              65
 73
               2
 40
0.083312
 49
0.02777
 74
               0
 49
-0.055542
 74
               0
  0
LTYPE
  5
4B
100
AcDbSymbolTableRecord
100
AcDbLinetypeTableRecord
  2
STYLE_06
 70
               0
  3

 72
              65
 73
               4
 40
0.416656
 49
0.25
 74
               0
 49
-0.083312
 74
               0
 49
0.027772
 74
               0
 49
-0.055572
 74
               0
  0
LTYPE
  5
4C
100
AcDbSymbolTableRecord
100
AcDbLinetypeTableRecord
  2
STYLE_07
 70
               0
  3

 72
              65
 73
               6
 40
0.7500000000000002
 49
0.25
 74
               0
 49
-0.083312
 74
               0
 49
0.2500000000000001
 74
               0
 49
-0.0833440000000001
 74
               0
 49
0.0277720000000001
 74
               0
 49
-0.055572
 74
               0
  0
LTYPE
  5
4D
100
AcDbSymbolTableRecord
100
AcDbLinetypeTableRecord
  2
STYLE_08
 70
               0
  3

 72
              65
 73
               6
 40
0.5
 49
0.25
 74
               0
 49
-0.083312
 74
               0
 49
0.027772
 74
               0
 49
-0.055572
 74
               0
 49
0.027772
 74
               0
 49
-0.055572
 74
               0
  0
LTYPE
  5
4E
100
AcDbSymbolTableRecord
100
AcDbLinetypeTableRecord
  2
STYLE_09
 70
               0
  3

 72
              65
 73
               4
 40
2.0
 49
1.5000000000000002
 74
               0
 49
-0.1111139999999999
 74
               0
 49
0.277772
 74
               0
 49
-0.1111139999999999
 74
               0
  0
LTYPE
  5
4F
100
AcDbSymbolTableRecord
100
AcDbLinetypeTableRecord
  2
STYLE_10
 70
               0
  3

 72
              65
 73
               6
 40
2.375
 49
1.5000000000000002
 74
               0
 49
-0.1111139999999999
 74
               0
 49
0.277772
 74
               0
 49
-0.1111139999999999
 74
               0
 49
0.2499999999999999
 74
               0
 49
-0.1250000000000001
 74
               0
  0
LTYPE
  5
50
100
AcDbSymbolTableRecord
100
AcDbLinetypeTableRecord
  2
STYLE_11
 70
               0
  3

 72
              65
 73
               4
 40
1.111114501953125
 49
0.9444580078125
 74
               0
 49
-0.0555419921875
 74
               0
 49
0.0555419921875
 74
               0
 49
-0.055572509765625
 74
               0
  0
LTYPE
  5
51
100
AcDbSymbolTableRecord
100
AcDbLinetypeTableRecord
  2
STYLE_12
 70
               0
  3

 72
              65
 73
               6
 40
0.9166666666666669
 49
0.611114501953125
 74
               0
 49
-0.0555521647135417
 74
               0
 49
0.0555555555555556
 74
               0
 49
-0.0833333333333335
 74
               0
 49
0.0555555555555556
 74
               0
 49
-0.0555555555555555
 74
               0
  0
LTYPE
  5
52
100
AcDbSymbolTableRecord
100
AcDbLinetypeTableRecord
  2
STYLE_13
 70
               0
  3

 72
              65
 73
               4
 40
1.0277777777777777
 49
0.6944444444444444
 74
               0
 49
-0.1111111111111113
 74
               0
 49
0.111111111111111
 74
               0
 49
-0.111111111111111
 74
               0
  0
LTYPE
  5
53
100
AcDbSymbolTableRecord
100
AcDbLinetypeTableRecord
  2
STYLE_14
 70
               0
  3

 72
              65
 73
               4
 40
0.416656
 49
0.25
 74
               0
 49
-0.083312
 74
               0
 49
0.027772
 74
               0
 49
-0.055572
 74
               0
  0
LTYPE
  5
54
100
AcDbSymbolTableRecord
100
AcDbLinetypeTableRecord
  2
STYLE_15
 70
               0
  3

 72
              65
 73
               4
 40
0.583343505859375
 49
0.4166564941406251
 74
               0
 49
-0.055572509765625
 74
               0
 49
0.0555419921875
 74
               0
 49
-0.055572509765625
 74
               0
  0
LTYPE
  5
55
100
AcDbSymbolTableRecord
100
AcDbLinetypeTableRecord
  2
STYLE_16
 70
               0
  3

 72
              65
 73
               2
 40
0.27774
 49
0.194428
 74
               0
 49
-0.083312
 74
               0
  0
LTYPE
  5
56
100
AcDbSymbolTableRecord
100
AcDbLinetypeTableRecord
  2
STYLE_17
 70
               0
  3

 72
              65
 73
               2
 40
2.25
 49
1.5000000000000002
 74
               0
 49
-0.7499999999999998
 74
               0
  0
LTYPE
  5
57
100
AcDbSymbolTableRecord
100
AcDbLinetypeTableRecord
  2
STYLE_18
 70
               0
  3

 72
              65
 73
               2
 40
8.0
 49
7.5
 74
               0
 49
-0.5000000000000004
 74
               0
  0
LTYPE
  5
58
100
AcDbSymbolTableRecord
100
AcDbLinetypeTableRecord
  2
STYLE_19
 70
               0
  3

 72
              65
 73
               2
 40
8.0
 49
7.5
 74
               0
 49
-0.5000000000000004
 74
               0
  0
ENDTAB
  0
TABLE
  2
LAYER
  5
2
100
AcDbSymbolTable
 70
              33
  0
LAYER
  5
14
100
AcDbSymbolTableRecord
100
AcDbLayerTableRecord
  2
0
 70
               0
 62
               7
  6
Continuous
290
               1
370
              20
390
1D
  0
LAYER
  5
59
100
AcDbSymbolTableRecord
100
AcDbLayerTableRecord
  2
Defpoints
 70
               0
 62
               7
  6
Continuous
290
               0
370
              -3
390
1D
  0
LAYER
  5
5A
100
AcDbSymbolTableRecord
100
AcDbLayerTableRecord
  2
一般
 70
               0
 62
               7
  6
Continuous
290
               1
370
               9
390
1D
  0
LAYER
  5
5B
100
AcDbSymbolTableRecord
100
AcDbLayerTableRecord
  2
寸法
 70
               0
 62
               7
  6
Continuous
290
               1
370
               9
390
1D
  0
LAYER
  5
5C
100
AcDbSymbolTableRecord
100
AcDbLayerTableRecord
  2
文字-室名
 70
               1
 62
               7
  6
Continuous
290
               1
370
               5
390
1D
  0
LAYER
  5
5D
100
AcDbSymbolTableRecord
100
AcDbLayerTableRecord
  2
文字-メモ
 70
               1
 62
               7
  6
Continuous
290
               1
370
               5
390
1D
  0
LAYER
  5
5E
100
AcDbSymbolTableRecord
100
AcDbLayerTableRecord
  2
線-通り芯
 70
               1
 62
               7
  6
STYLE_06
290
               1
370
               5
390
1D
  0
LAYER
  5
5F
100
AcDbSymbolTableRecord
100
AcDbLayerTableRecord
  2
線-詳細
 70
               1
 62
               7
  6
Continuous
290
               1
370
               5
390
1D
  0
LAYER
  5
60
100
AcDbSymbolTableRecord
100
AcDbLayerTableRecord
  2
床
 70
               1
 62
               7
  6
Continuous
290
               1
370
               5
390
1D
  0
LAYER
  5
61
100
AcDbSymbolTableRecord
100
AcDbLayerTableRecord
  2
線-仕上線
 70
               1
 62
               7
  6
Continuous
290
               1
370
              30
390
1D
  0
LAYER
  5
62
100
AcDbSymbolTableRecord
100
AcDbLayerTableRecord
  2
線-躯体
 70
               1
 62
               7
  6
Continuous
290
               1
370
               5
390
1D
  0
LAYER
  5
63
100
AcDbSymbolTableRecord
100
AcDbLayerTableRecord
  2
工事区分-計画
 70
               1
 62
               7
  6
Continuous
290
               1
370
               5
390
1D
  0
LAYER
  5
64
100
AcDbSymbolTableRecord
100
AcDbLayerTableRecord
  2
工事区分-既存
 70
               1
 62
               7
  6
Continuous
290
               1
370
               5
390
1D
  0
LAYER
  5
65
100
AcDbSymbolTableRecord
100
AcDbLayerTableRecord
  2
家具
 70
               1
 62
               7
  6
Continuous
290
               1
370
               5
390
1D
  0
LAYER
  5
66
100
AcDbSymbolTableRecord
100
AcDbLayerTableRecord
  2
sunpo
 70
               0
 62
               7
  6
Continuous
290
               1
370
              15
390
1D
  0
LAYER
  5
67
100
AcDbSymbolTableRecord
100
AcDbLayerTableRecord
  2
ﾀｲﾄﾙ枠
 70
               0
 62
               7
  6
Continuous
290
               1
370
              30
390
1D
  0
LAYER
  5
68
100
AcDbSymbolTableRecord
100
AcDbLayerTableRecord
  2
view
 70
               1
 62
               7
  6
Continuous
290
               1
370
              15
390
1D
  0
LAYER
  5
69
100
AcDbSymbolTableRecord
100
AcDbLayerTableRecord
  2
Defpoints
 70
               0
 62
               7
  6
Continuous
290
               0
370
              15
390
1D
  0
LAYER
  5
6A
100
AcDbSymbolTableRecord
100
AcDbLayerTableRecord
  2
sen-h
 70
               0
 62
               7
  6
STYLE_17
290
               1
370
              15
390
1D
  0
LAYER
  5
6B
100
AcDbSymbolTableRecord
100
AcDbLayerTableRecord
  2
sen-c
 70
               0
 62
               7
  6
STYLE_18
290
               1
370
              15
390
1D
  0
LAYER
  5
6C
100
AcDbSymbolTableRecord
100
AcDbLayerTableRecord
  2
sen2
 70
               0
 62
               7
  6
Continuous
290
               1
370
              15
390
1D
  0
LAYER
  5
6D
100
AcDbSymbolTableRecord
100
AcDbLayerTableRecord
  2
sen-p
 70
               0
 62
               7
  6
STYLE_03
290
               1
370
               9
390
1D
  0
LAYER
  5
6E
100
AcDbSymbolTableRecord
100
AcDbLayerTableRecord
  2
1_2
 70
               0
 62
               7
  6
STYLE_03
290
               1
370
              15
390
1D
  0
LAYER
  5
6F
100
AcDbSymbolTableRecord
100
AcDbLayerTableRecord
  2
レイヤー_1
 70
               0
 62
               7
  6
Continuous
290
               1
370
              20
390
1D
  0
LAYER
  5
70
100
AcDbSymbolTableRecord
100
AcDbLayerTableRecord
  2
sunpo2
 70
               0
 62
               7
  6
Continuous
290
               1
370
               9
390
1D
  0
LAYER
  5
71
100
AcDbSymbolTableRecord
100
AcDbLayerTableRecord
  2
補強
 70
               0
 62
               7
  6
STYLE_03
290
               1
370
               9
390
1D
  0
LAYER
  5
72
100
AcDbSymbolTableRecord
100
AcDbLayerTableRecord
  2
水栓
 70
               0
 62
               7
  6
Continuous
290
               1
370
               9
390
1D
  0
LAYER
  5
73
100
AcDbSymbolTableRecord
100
AcDbLayerTableRecord
  2
1
 70
               0
 62
               7
  6
Continuous
290
               1
370
               9
390
1D
  0
LAYER
  5
74
100
AcDbSymbolTableRecord
100
AcDbLayerTableRecord
  2
3
 70
               0
 62
               7
  6
Continuous
290
               1
370
               9
390
1D
  0
LAYER
  5
75
100
AcDbSymbolTableRecord
100
AcDbLayerTableRecord
  2
2
 70
               0
 62
               7
  6
Continuous
290
               1
370
               9
390
1D
  0
LAYER
  5
76
100
AcDbSymbolTableRecord
100
AcDbLayerTableRecord
  2
補助グリッド-1
 70
               0
 62
               7
  6
Continuous
290
               1
370
              13
390
1D
  0
LAYER
  5
77
100
AcDbSymbolTableRecord
100
AcDbLayerTableRecord
  2
カットライン
 70
               0
 62
               7
  6
STYLE_19
290
               1
370
              15
390
1D
  0
LAYER
  5
78
100
AcDbSymbolTableRecord
100
AcDbLayerTableRecord
  2
_Viewport_Crop
 70
               1
 62
               7
  6
Continuous
290
               1
370
              15
390
1D
  0
ENDTAB
  0
TABLE
  2
STYLE
  5
3
100
AcDbSymbolTable
 70
               5
  0
STYLE
  5
17
100
AcDbSymbolTableRecord
100
AcDbTextStyleTableRecord
  2
Standard
 70
               0
 40
0.0
 41
1.0
 50
0.0
 71
               0
 42
0.0
  3
txt
  4
BIGFONT.SHX
  0
STYLE
  5
42
100
AcDbSymbolTableRecord
100
AcDbTextStyleTableRecord
  2
Arial
 70
               0
 40
0.0
 41
1.0
 50
0.0
 71
               0
 42
0.0
  3
Arial
  4

1001
ACAD
1000
Arial
1071
        0
  0
STYLE
  5
43
100
AcDbSymbolTableRecord
100
AcDbTextStyleTableRecord
  2
ＭＳ ゴシック
 70
               0
 40
0.0
 41
1.0
 50
0.0
 71
               0
 42
0.0
  3
ＭＳ ゴシック
  4

1001
ACAD
1000
ＭＳ ゴシック
1071
        0
  0
STYLE
  5
44
100
AcDbSymbolTableRecord
100
AcDbTextStyleTableRecord
  2
メイリオ
 70
               0
 40
0.0
 41
1.0
 50
0.0
 71
               0
 42
0.0
  3
メイリオ
  4

1001
ACAD
1000
メイリオ
1071
        0
  0
STYLE
  5
45
100
AcDbSymbolTableRecord
100
AcDbTextStyleTableRecord
  2
小塚ゴシック Pr6N R
 70
               0
 40
0.0
 41
1.0
 50
0.0
 71
               0
 42
0.0
  3
小塚ゴシック Pr6N R
  4

1001
ACAD
1000
小塚ゴシック Pr6N R
1071
        0
  0
ENDTAB
  0
TABLE
  2
VIEW
  5
5
100
AcDbSymbolTable
 70
               0
  0
ENDTAB
  0
TABLE
  2
UCS
  5
6
100
AcDbSymbolTable
 70
               0
  0
ENDTAB
  0
TABLE
  2
APPID
  5
8
100
AcDbSymbolTable
 70
               1
  0
APPID
  5
16
100
AcDbSymbolTableRecord
100
AcDbRegAppTableRecord
  2
ACAD
 70
               0
  0
ENDTAB
  0
TABLE
  2
DIMSTYLE
  5
9
100
AcDbSymbolTable
 70
               2
100
AcDbDimStyleTable
 71
               0
  0
DIMSTYLE
105
18
100
AcDbSymbolTableRecord
100
AcDbDimStyleTableRecord
  2
Standard
 70
               0
  3

  4

 40
1.0
 41
0.18
 42
0.0625
 43
0.38
 44
0.18
 45
0.0
 46
0.0
 47
0.0
 48
0.0
 71
               0
 72
               0
 73
               1
 74
               1
 75
               0
 76
               0
 77
               0
 78
               0
 79
               0
140
0.18
141
0.09
142
0.0
143
25.399999999999999
144
1.0
145
0.0
146
1.0
147
0.09
148
0.0
170
               0
171
               2
172
               0
173
               0
174
               0
175
               0
176
               0
177
               0
178
               0
179
               0
271
               4
272
               4
273
               2
274
               2
275
               0
276
               0
277
               2
278
              46
279
               0
280
               0
281
               0
282
               0
283
               1
284
               0
285
               0
286
               0
288
               0
340
17
341
0
342
0
343
0
344
0
371
              -2
372
              -2
  0
DIMSTYLE
105
81
100
AcDbSymbolTableRecord
100
AcDbDimStyleTableRecord
  2
Ekitchen
 70
               0
  3
<>
  4
[]
 40
1.0
 41
7.5034179687499991
 42
4.9999999999999991
 43
4.9999999999999991
 44
0.0
 45
0.0
 46
0.0
 47
0.0
 48
0.0
 71
               0
 72
               0
 73
               0
 74
               0
 75
               0
 76
               0
 77
               1
 78
              11
 79
               0
140
16.288411458333332
141
0.0
142
0.0
143
1.0
144
1.0
145
0.0
146
0.8
147
0.7999999999999999
148
0.0
170
               0
171
               2
172
               1
173
               0
174
               1
175
               0
176
               0
177
               0
178
               0
179
               0
271
               2
272
               2
273
               2
274
               2
275
               0
276
               2
277
               2
278
              46
279
               0
280
               0
281
               0
282
               0
283
               1
284
              11
285
              11
286
              11
288
               0
340
43
341
7D
342
79
343
0
344
0
371
              -2
372
              -2
  0
ENDTAB
  0
TABLE
  2
BLOCK_RECORD
  5
1
100
AcDbSymbolTable
 70
              32
  0
BLOCK_RECORD
  5
A
100
AcDbSymbolTableRecord
100
AcDbBlockTableRecord
  2
*MODEL_SPACE
340
20
  0
BLOCK_RECORD
  5
B
100
AcDbSymbolTableRecord
100
AcDbBlockTableRecord
  2
*PAPER_SPACE
340
21
  0
BLOCK_RECORD
  5
79
100
AcDbSymbolTableRecord
100
AcDbBlockTableRecord
  2
VW_FILLEDARROW
340
0
  0
BLOCK_RECORD
  5
7D
100
AcDbSymbolTableRecord
100
AcDbBlockTableRecord
  2
VW_FILLEDARROW-1
340
0
  0
BLOCK_RECORD
  5
24
100
AcDbSymbolTableRecord
100
AcDbBlockTableRecord
  2
*D2
340
0
  0
BLOCK_RECORD
  5
25
100
AcDbSymbolTableRecord
100
AcDbBlockTableRecord
  2
*D3
340
0
  0
BLOCK_RECORD
  5
26
100
AcDbSymbolTableRecord
100
AcDbBlockTableRecord
  2
*D4
340
0
  0
BLOCK_RECORD
  5
27
100
AcDbSymbolTableRecord
100
AcDbBlockTableRecord
  2
*D5
340
0
  0
BLOCK_RECORD
  5
28
100
AcDbSymbolTableRecord
100
AcDbBlockTableRecord
  2
*D6
340
0
  0
BLOCK_RECORD
  5
29
100
AcDbSymbolTableRecord
100
AcDbBlockTableRecord
  2
*D7
340
0
  0
BLOCK_RECORD
  5
2A
100
AcDbSymbolTableRecord
100
AcDbBlockTableRecord
  2
*D8
340
0
  0
BLOCK_RECORD
  5
2B
100
AcDbSymbolTableRecord
100
AcDbBlockTableRecord
  2
*D9
340
0
  0
BLOCK_RECORD
  5
2C
100
AcDbSymbolTableRecord
100
AcDbBlockTableRecord
  2
*D10
340
0
  0
BLOCK_RECORD
  5
2D
100
AcDbSymbolTableRecord
100
AcDbBlockTableRecord
  2
*D11
340
0
  0
BLOCK_RECORD
  5
2E
100
AcDbSymbolTableRecord
100
AcDbBlockTableRecord
  2
*D12
340
0
  0
BLOCK_RECORD
  5
2F
100
AcDbSymbolTableRecord
100
AcDbBlockTableRecord
  2
*D13
340
0
  0
BLOCK_RECORD
  5
30
100
AcDbSymbolTableRecord
100
AcDbBlockTableRecord
  2
*D14
340
0
  0
BLOCK_RECORD
  5
31
100
AcDbSymbolTableRecord
100
AcDbBlockTableRecord
  2
*D15
340
0
  0
BLOCK_RECORD
  5
32
100
AcDbSymbolTableRecord
100
AcDbBlockTableRecord
  2
*D16
340
0
  0
BLOCK_RECORD
  5
33
100
AcDbSymbolTableRecord
100
AcDbBlockTableRecord
  2
*D17
340
0
  0
BLOCK_RECORD
  5
34
100
AcDbSymbolTableRecord
100
AcDbBlockTableRecord
  2
グループ-2-4
340
0
102
{BLKREFS
331
2AC
102
}
  0
BLOCK_RECORD
  5
35
100
AcDbSymbolTableRecord
100
AcDbBlockTableRecord
  2
グループ-3-4
340
0
102
{BLKREFS
331
2AD
102
}
  0
BLOCK_RECORD
  5
36
100
AcDbSymbolTableRecord
100
AcDbBlockTableRecord
  2
グループ-4-4
340
0
102
{BLKREFS
331
2AE
102
}
  0
BLOCK_RECORD
  5
37
100
AcDbSymbolTableRecord
100
AcDbBlockTableRecord
  2
*D21
340
0
  0
BLOCK_RECORD
  5
38
100
AcDbSymbolTableRecord
100
AcDbBlockTableRecord
  2
*D22
340
0
  0
BLOCK_RECORD
  5
39
100
AcDbSymbolTableRecord
100
AcDbBlockTableRecord
  2
グループ-5-4
340
0
102
{BLKREFS
331
2B4
102
}
  0
BLOCK_RECORD
  5
3A
100
AcDbSymbolTableRecord
100
AcDbBlockTableRecord
  2
グループ-6-4
340
0
102
{BLKREFS
331
18F
102
}
  0
BLOCK_RECORD
  5
3B
100
AcDbSymbolTableRecord
100
AcDbBlockTableRecord
  2
グループ-7-3
340
0
102
{BLKREFS
331
190
102
}
  0
BLOCK_RECORD
  5
3C
100
AcDbSymbolTableRecord
100
AcDbBlockTableRecord
  2
グループ-8-3
340
0
102
{BLKREFS
331
2B6
102
}
  0
BLOCK_RECORD
  5
3D
100
AcDbSymbolTableRecord
100
AcDbBlockTableRecord
  2
グループ-9-1
340
0
102
{BLKREFS
331
2D6
102
}
  0
BLOCK_RECORD
  5
3E
100
AcDbSymbolTableRecord
100
AcDbBlockTableRecord
  2
*D28
340
0
  0
BLOCK_RECORD
  5
3F
100
AcDbSymbolTableRecord
100
AcDbBlockTableRecord
  2
*D29
340
0
  0
BLOCK_RECORD
  5
40
100
AcDbSymbolTableRecord
100
AcDbBlockTableRecord
  2
*D30
340
0
  0
BLOCK_RECORD
  5
41
100
AcDbSymbolTableRecord
100
AcDbBlockTableRecord
  2
*D31
340
0
  0
ENDTAB
  0
ENDSEC
  0
SECTION
  2
BLOCKS
  0
BLOCK
  5
D
100
AcDbEntity
  8
0
100
AcDbBlockBegin
  2
*MODEL_SPACE
 70
               0
 10
0.0
 20
0.0
 30
0.0
  3
*MODEL_SPACE
  1

  0
ENDBLK
  5
E
100
AcDbEntity
  8
0
100
AcDbBlockEnd
  0
BLOCK
  5
F
100
AcDbEntity
 67
               1
  8
0
100
AcDbBlockBegin
  2
*PAPER_SPACE
 70
               0
 10
0.0
 20
0.0
 30
0.0
  3
*PAPER_SPACE
  1

  0
ENDBLK
  5
10
100
AcDbEntity
 67
               1
  8
0
100
AcDbBlockEnd
  0
BLOCK
  5
7A
100
AcDbEntity
  8
0
370
              -2
  6
ByBlock
 62
               0
100
AcDbBlockBegin
  2
VW_FILLEDARROW
 70
               0
 10
0.0
 20
0.0
 30
0.0
  3
VW_FILLEDARROW
  1

  0
SOLID
  5
7B
100
AcDbEntity
  8
0
370
              -2
 62
               0
100
AcDbTrace
 10
0.0
 20
0.0
 30
0.0
 11
-0.9999389648437499
 21
-0.2679328381102956
 31
0.0
 12
-0.9999389648437499
 22
0.2679328381102958
 32
0.0
 13
-0.9999389648437499
 23
0.2679328381102958
 33
0.0
  0
ENDBLK
  5
7C
100
AcDbEntity
  8
0
100
AcDbBlockEnd
  0
BLOCK
  5
7E
100
AcDbEntity
  8
0
370
              -2
  6
ByBlock
 62
               0
100
AcDbBlockBegin
  2
VW_FILLEDARROW-1
 70
               0
 10
0.0
 20
0.0
 30
0.0
  3
VW_FILLEDARROW
  1

  0
SOLID
  5
7F
100
AcDbEntity
  8
0
370
              -2
 62
               0
100
AcDbTrace
 10
0.0
 20
0.0
 30
0.0
 11
-2.1083984375
 21
-0.5649436586511659
 31
0.0
 12
-2.1083984374999996
 22
0.5649436586511665
 32
0.0
 13
-2.1083984374999996
 23
0.5649436586511665
 33
0.0
  0
ENDBLK
  5
80
100
AcDbEntity
  8
0
100
AcDbBlockEnd
  0
BLOCK
  5
82
100
AcDbEntity
  8
寸法
100
AcDbBlockBegin
  2
*D2
 70
               1
 10
0.0
 20
0.0
 30
0.0
  3
*D2
  1

  0
LINE
  5
83
100
AcDbEntity
  8
寸法
370
              -2
  6
Continuous
 62
               0
100
AcDbLine
 10
1847.4921517331591
 20
-184.7924037345297
 30
0.0
 11
2057.4921517331591
 21
-184.7924037345297
 31
0.0
  0
LINE
  5
84
100
AcDbEntity
  8
寸法
370
              -2
  6
Continuous
 62
               0
100
AcDbLine
 10
1915.4921517331591
 20
375.20731865688572
 30
0.0
 11
2057.4921517331591
 21
375.20731865688572
 31
0.0
  0
LINE
  5
85
100
AcDbEntity
  8
寸法
370
              -2
  6
Continuous
 62
               0
100
AcDbLine
 10
2057.4921517331591
 20
-184.7924037345297
 30
0.0
 11
2057.4921517331591
 21
375.20731865688572
 31
0.0
  0
SOLID
  5
86
100
AcDbEntity
  8
寸法
370
              -2
 62
               0
100
AcDbTrace
 10
2057.4921517331591
 20
-184.7924037345297
 30
0.0
 11
2055.4816169479591
 21
-177.2889857657797
 31
0.0
 12
2059.5026865183586
 22
-177.2889857657797
 32
0.0
 13
2059.5026865183586
 23
-177.2889857657797
 33
0.0
  0
SOLID
  5
87
100
AcDbEntity
  8
寸法
370
              -2
 62
               0
100
AcDbTrace
 10
2057.4921517331591
 20
375.20731865688572
 30
0.0
 11
2059.5026865183586
 21
367.70390068813572
 31
0.0
 12
2055.4816169479591
 22
367.70390068813572
 32
0.0
 13
2055.4816169479591
 23
367.70390068813572
 33
0.0
  0
WIPEOUT
  5
88
100
AcDbEntity
  8
寸法
370
              -2
  6
Continuous
 62
               0
 92
        0
100
AcDbWipeout
 90
        0
 10
2035.3254850702176
 20
1704.2189973333013
 30
0.0
 11
31.75
 21
0.0
 31
0.0
 12
0.0
 22
31.75
 32
0.0
 13
1.0
 23
1.0
340
0
 70
               7
280
               1
281
              50
282
              50
283
               0
360
0
 71
               2
 91
        5
 14
0.1666666666666691
 24
51.677528814870023
 14
0.1666666666666691
 24
50.677528814870023
 14
-0.5
 24
50.677528814870023
 14
-0.5
 24
51.677528814870023
 14
0.1666666666666691
 24
51.677528814870023
  0
MTEXT
  5
89
100
AcDbEntity
  8
寸法
 62
               0
100
AcDbMText
 10
2037.2404069452177
 20
79.332457461178024
 30
0.0
 40
16.288411458333332
 41
0.0
 71
               1
 72
               1
  1
560
  7
ＭＳ ゴシック
 11
0.0
 21
1.0
 31
0.0
 73
               1
 44
0.7828267384257843
  0
POINT
  5
8A
100
AcDbEntity
  8
Defpoints
370
               0
 62
               0
100
AcDbPoint
 10
1910.4921517331591
 20
375.20731865688572
 30
0.0
  0
POINT
  5
8B
100
AcDbEntity
  8
Defpoints
370
               0
 62
               0
100
AcDbPoint
 10
1842.4921517331591
 20
-184.7924037345297
 30
0.0
  0
POINT
  5
8C
100
AcDbEntity
  8
Defpoints
370
               0
 62
               0
100
AcDbPoint
 10
2057.4921517331591
 20
-184.7924037345297
 30
0.0
  0
ENDBLK
  5
8D
100
AcDbEntity
  8
寸法
100
AcDbBlockEnd
  0
BLOCK
  5
8E
100
AcDbEntity
  8
寸法
100
AcDbBlockBegin
  2
*D3
 70
               1
 10
0.0
 20
0.0
 30
0.0
  3
*D3
  1

  0
LINE
  5
8F
100
AcDbEntity
  8
寸法
370
              -2
  6
Continuous
 62
               0
100
AcDbLine
 10
1685.4921517331588
 20
411.000059235251
 30
0.0
 11
1685.4921517331588
 21
430.000059235251
 31
0.0
  0
LINE
  5
90
100
AcDbEntity
  8
寸法
370
              -2
  6
Continuous
 62
               0
100
AcDbLine
 10
935.49215173315883
 20
401.000059235251
 30
0.0
 11
935.49215173315883
 21
430.000059235251
 31
0.0
  0
LINE
  5
91
100
AcDbEntity
  8
寸法
370
              -2
  6
Continuous
 62
               0
100
AcDbLine
 10
1685.4921517331588
 20
430.000059235251
 30
0.0
 11
935.49215173315883
 21
430.000059235251
 31
0.0
  0
SOLID
  5
92
100
AcDbEntity
  8
寸法
370
              -2
 62
               0
100
AcDbTrace
 10
1685.4921517331588
 20
430.000059235251
 30
0.0
 11
1677.9887337644088
 21
427.98952445005125
 31
0.0
 12
1677.9887337644088
 22
432.01059402045075
 32
0.0
 13
1677.9887337644088
 23
432.01059402045075
 33
0.0
  0
SOLID
  5
93
100
AcDbEntity
  8
寸法
370
              -2
 62
               0
100
AcDbTrace
 10
935.49215173315883
 20
430.000059235251
 30
0.0
 11
942.99556970190883
 21
432.01059402045075
 31
0.0
 12
942.99556970190883
 22
427.98952445005125
 32
0.0
 13
942.99556970190883
 23
427.98952445005125
 33
0.0
  0
WIPEOUT
  5
94
100
AcDbEntity
  8
寸法
370
              -2
  6
Continuous
 62
               0
 92
        0
100
AcDbWipeout
 90
        0
 10
1294.6171517331588
 20
2055.8865991036491
 30
0.0
 11
31.75
 21
0.0
 31
0.0
 12
0.0
 22
31.75
 32
0.0
 13
1.0
 23
1.0
340
0
 70
               7
280
               1
281
              50
282
              50
283
               0
360
0
 71
               2
 91
        5
 14
-0.5
 24
51.67752881487003
 14
0.5
 24
51.67752881487003
 14
0.5
 24
51.010862148203358
 14
-0.5
 24
51.010862148203358
 14
-0.5
 24
51.67752881487003
  0
MTEXT
  5
95
100
AcDbEntity
  8
寸法
 62
               0
100
AcDbMText
 10
1294.6171517331588
 20
450.25180402319239
 30
0.0
 40
16.288411458333332
 41
0.0
 71
               1
 72
               1
  1
750
  7
ＭＳ ゴシック
 73
               1
 44
0.7828267384257843
  0
POINT
  5
96
100
AcDbEntity
  8
Defpoints
370
               0
 62
               0
100
AcDbPoint
 10
935.49215173315883
 20
396.000059235251
 30
0.0
  0
POINT
  5
97
100
AcDbEntity
  8
Defpoints
370
               0
 62
               0
100
AcDbPoint
 10
1685.4921517331588
 20
406.000059235251
 30
0.0
  0
POINT
  5
98
100
AcDbEntity
  8
Defpoints
370
               0
 62
               0
100
AcDbPoint
 10
1685.4921517331588
 20
430.000059235251
 30
0.0
  0
ENDBLK
  5
99
100
AcDbEntity
  8
寸法
100
AcDbBlockEnd
  0
BLOCK
  5
9A
100
AcDbEntity
  8
寸法
100
AcDbBlockBegin
  2
*D4
 70
               1
 10
0.0
 20
0.0
 30
0.0
  3
*D4
  1

  0
LINE
  5
9B
100
AcDbEntity
  8
寸法
370
              -2
  6
Continuous
 62
               0
100
AcDbLine
 10
2293.7930284565045
 20
260.20734022615102
 30
0.0
 11
2205.7930284565045
 21
260.20734022615102
 31
0.0
  0
LINE
  5
9C
100
AcDbEntity
  8
寸法
370
              -2
  6
Continuous
 62
               0
100
AcDbLine
 10
2275.7930284751319
 20
350.20731865688572
 30
0.0
 11
2205.7930284565045
 21
350.20731865688572
 31
0.0
  0
LINE
  5
9D
100
AcDbEntity
  8
寸法
370
              -2
  6
Continuous
 62
               0
100
AcDbLine
 10
2205.7930284565045
 20
260.20734022615102
 30
0.0
 11
2205.7930284565045
 21
350.20731865688572
 31
0.0
  0
SOLID
  5
9E
100
AcDbEntity
  8
寸法
370
              -2
 62
               0
100
AcDbTrace
 10
2205.7930284565045
 20
260.20734022615102
 30
0.0
 11
2203.782493671305
 21
267.71075819490102
 31
0.0
 12
2207.8035632417045
 22
267.71075819490102
 32
0.0
 13
2207.8035632417045
 23
267.71075819490102
 33
0.0
  0
SOLID
  5
9F
100
AcDbEntity
  8
寸法
370
              -2
 62
               0
100
AcDbTrace
 10
2205.7930284565045
 20
350.20731865688572
 30
0.0
 11
2207.8035632417045
 21
342.70390068813572
 31
0.0
 12
2203.782493671305
 22
342.70390068813572
 32
0.0
 13
2203.782493671305
 23
342.70390068813572
 33
0.0
  0
WIPEOUT
  5
A0
100
AcDbEntity
  8
寸法
370
              -2
  6
Continuous
 62
               0
 92
        0
100
AcDbWipeout
 90
        0
 10
2183.626361789838
 20
1920.4427309819105
 30
0.0
 11
21.166666666666686
 21
0.0
 31
0.0
 12
0.0
 22
21.166666666666686
 32
0.0
 13
1.0
 23
1.0
340
0
 70
               7
280
               1
281
              50
282
              50
283
               0
360
0
 71
               2
 91
        5
 14
0.4999999999999919
 24
77.266293222304967
 14
0.4999999999999919
 24
76.266293222304967
 14
-0.5
 24
76.266293222304967
 14
-0.5
 24
77.266293222304967
 14
0.4999999999999919
 24
77.266293222304967
  0
MTEXT
  5
A1
100
AcDbEntity
  8
寸法
 62
               0
100
AcDbMText
 10
2185.5412836648379
 20
295.55619110978728
 30
0.0
 40
16.288411458333332
 41
0.0
 71
               1
 72
               1
  1
90
  7
ＭＳ ゴシック
 11
0.0
 21
1.0
 31
0.0
 73
               1
 44
0.7828267384257843
  0
POINT
  5
A2
100
AcDbEntity
  8
Defpoints
370
               0
 62
               0
100
AcDbPoint
 10
2280.7930284751319
 20
350.20731865688572
 30
0.0
  0
POINT
  5
A3
100
AcDbEntity
  8
Defpoints
370
               0
 62
               0
100
AcDbPoint
 10
2298.7930284565045
 20
260.20734022615102
 30
0.0
  0
POINT
  5
A4
100
AcDbEntity
  8
Defpoints
370
               0
 62
               0
100
AcDbPoint
 10
2205.7930284565045
 20
260.20734022615102
 30
0.0
  0
ENDBLK
  5
A5
100
AcDbEntity
  8
寸法
100
AcDbBlockEnd
  0
BLOCK
  5
A6
100
AcDbEntity
  8
寸法
100
AcDbBlockBegin
  2
*D5
 70
               1
 10
0.0
 20
0.0
 30
0.0
  3
*D5
  1

  0
LINE
  5
A7
100
AcDbEntity
  8
寸法
370
              -2
  6
Continuous
 62
               0
100
AcDbLine
 10
2303.7930284565045
 20
128.044947027885
 30
0.0
 11
2303.7930284565045
 21
168.20731865688572
 31
0.0
  0
LINE
  5
A8
100
AcDbEntity
  8
寸法
370
              -2
  6
Continuous
 62
               0
100
AcDbLine
 10
2453.7930284565045
 20
144.20731865688572
 30
0.0
 11
2453.7930284565045
 21
168.20731865688572
 31
0.0
  0
LINE
  5
A9
100
AcDbEntity
  8
寸法
370
              -2
  6
Continuous
 62
               0
100
AcDbLine
 10
2303.7930284565045
 20
168.20731865688572
 30
0.0
 11
2453.7930284565045
 21
168.20731865688572
 31
0.0
  0
SOLID
  5
AA
100
AcDbEntity
  8
寸法
370
              -2
 62
               0
100
AcDbTrace
 10
2303.7930284565045
 20
168.20731865688572
 30
0.0
 11
2311.2964464252545
 21
170.21785344208544
 31
0.0
 12
2311.2964464252545
 22
166.19678387168599
 32
0.0
 13
2311.2964464252545
 23
166.19678387168599
 33
0.0
  0
SOLID
  5
AB
100
AcDbEntity
  8
寸法
370
              -2
 62
               0
100
AcDbTrace
 10
2453.7930284565045
 20
168.20731865688572
 30
0.0
 11
2446.2896104877545
 21
166.19678387168599
 31
0.0
 12
2446.2896104877545
 22
170.21785344208547
 32
0.0
 13
2446.2896104877545
 23
170.21785344208547
 33
0.0
  0
WIPEOUT
  5
AC
100
AcDbEntity
  8
寸法
370
              -2
  6
Continuous
 62
               0
 92
        0
100
AcDbWipeout
 90
        0
 10
2376.1284224222618
 20
1806.6174696401201
 30
0.0
 11
31.75
 21
0.0
 31
0.0
 12
0.0
 22
31.75
 32
0.0
 13
1.0
 23
1.0
340
0
 70
               7
280
               1
281
              50
282
              50
283
               0
360
0
 71
               2
 91
        5
 14
-0.5
 24
51.67752881487003
 14
0.5
 24
51.67752881487003
 14
0.5
 24
51.010862148203358
 14
-0.5
 24
51.010862148203358
 14
-0.5
 24
51.67752881487003
  0
MTEXT
  5
AD
100
AcDbEntity
  8
寸法
 62
               0
100
AcDbMText
 10
2376.1284224222618
 20
200.98267455966345
 30
0.0
 40
16.288411458333332
 41
0.0
 71
               1
 72
               1
  1
150
  7
ＭＳ ゴシック
 73
               1
 44
0.7828267384257843
  0
POINT
  5
AE
100
AcDbEntity
  8
Defpoints
370
               0
 62
               0
100
AcDbPoint
 10
2453.7930284565045
 20
139.20731865688572
 30
0.0
  0
POINT
  5
AF
100
AcDbEntity
  8
Defpoints
370
               0
 62
               0
100
AcDbPoint
 10
2303.7930284565045
 20
123.044947027885
 30
0.0
  0
POINT
  5
B0
100
AcDbEntity
  8
Defpoints
370
               0
 62
               0
100
AcDbPoint
 10
2303.7930284565045
 20
168.20731865688572
 30
0.0
  0
ENDBLK
  5
B1
100
AcDbEntity
  8
寸法
100
AcDbBlockEnd
  0
BLOCK
  5
B2
100
AcDbEntity
  8
寸法
100
AcDbBlockBegin
  2
*D6
 70
               1
 10
0.0
 20
0.0
 30
0.0
  3
*D6
  1

  0
LINE
  5
B3
100
AcDbEntity
  8
寸法
370
              -2
  6
Continuous
 62
               0
100
AcDbLine
 10
2296.4921517331586
 20
-139.79268134311417
 30
0.0
 11
2205.7930284565055
 21
-139.79268134311417
 31
0.0
  0
LINE
  5
B4
100
AcDbEntity
  8
寸法
370
              -2
  6
Continuous
 62
               0
100
AcDbLine
 10
2300.7930284565045
 20
-184.79268134311519
 30
0.0
 11
2205.7930284565055
 21
-184.79268134311519
 31
0.0
  0
LINE
  5
B5
100
AcDbEntity
  8
寸法
370
              -2
  6
Continuous
 62
               0
100
AcDbLine
 10
2205.7930284565055
 20
-139.79268134311417
 30
0.0
 11
2205.7930284565055
 21
-184.79268134311519
 31
0.0
  0
SOLID
  5
B6
100
AcDbEntity
  8
寸法
370
              -2
 62
               0
100
AcDbTrace
 10
2205.7930284565055
 20
-139.79268134311417
 30
0.0
 11
2207.8035632417054
 21
-147.29609931186417
 31
0.0
 12
2203.7824936713059
 22
-147.29609931186417
 32
0.0
 13
2203.7824936713059
 23
-147.29609931186417
 33
0.0
  0
SOLID
  5
B7
100
AcDbEntity
  8
寸法
370
              -2
 62
               0
100
AcDbTrace
 10
2205.7930284565055
 20
-184.79268134311519
 30
0.0
 11
2203.7824936713059
 21
-177.28926337436519
 31
0.0
 12
2207.8035632417054
 22
-177.28926337436519
 32
0.0
 13
2207.8035632417054
 23
-177.28926337436519
 33
0.0
  0
WIPEOUT
  5
B8
100
AcDbEntity
  8
寸法
370
              -2
  6
Continuous
 62
               0
 92
        0
100
AcDbWipeout
 90
        0
 10
2183.6263617898389
 20
1452.0105251956752
 30
0.0
 11
21.166666666666657
 21
0.0
 31
0.0
 12
0.0
 22
21.166666666666657
 32
0.0
 13
1.0
 23
1.0
340
0
 70
               7
280
               1
281
              50
282
              50
283
               0
360
0
 71
               2
 91
        5
 14
0.4999999999999933
 24
77.266293222305066
 14
0.4999999999999933
 24
76.266293222305066
 14
-0.5
 24
76.266293222305066
 14
-0.5
 24
77.266293222305066
 14
0.4999999999999933
 24
77.266293222305066
  0
MTEXT
  5
B9
100
AcDbEntity
  8
寸法
 62
               0
100
AcDbMText
 10
2185.5412836648388
 20
-172.87601467644797
 30
0.0
 40
16.288411458333332
 41
0.0
 71
               1
 72
               1
  1
45
  7
ＭＳ ゴシック
 11
0.0
 21
1.0
 31
0.0
 73
               1
 44
0.7828267384257843
  0
POINT
  5
BA
100
AcDbEntity
  8
Defpoints
370
               0
 62
               0
100
AcDbPoint
 10
2305.7930284565045
 20
-184.79268134311519
 30
0.0
  0
POINT
  5
BB
100
AcDbEntity
  8
Defpoints
370
               0
 62
               0
100
AcDbPoint
 10
2301.4921517331586
 20
-139.79268134311417
 30
0.0
  0
POINT
  5
BC
100
AcDbEntity
  8
Defpoints
370
               0
 62
               0
100
AcDbPoint
 10
2205.7930284565055
 20
-139.79268134311417
 30
0.0
  0
ENDBLK
  5
BD
100
AcDbEntity
  8
寸法
100
AcDbBlockEnd
  0
BLOCK
  5
BE
100
AcDbEntity
  8
寸法
100
AcDbBlockBegin
  2
*D7
 70
               1
 10
0.0
 20
0.0
 30
0.0
  3
*D7
  1

  0
LINE
  5
BF
100
AcDbEntity
  8
寸法
370
              -2
  6
Continuous
 62
               0
100
AcDbLine
 10
2500.7930284565045
 20
180.20731865688572
 30
0.0
 11
2512.0
 21
180.20731865688572
 31
0.0
  0
LINE
  5
C0
100
AcDbEntity
  8
寸法
370
              -2
  6
Continuous
 62
               0
100
AcDbLine
 10
2302.7930284565045
 20
375.20731865688572
 30
0.0
 11
2512.0
 21
375.20731865688572
 31
0.0
  0
LINE
  5
C1
100
AcDbEntity
  8
寸法
370
              -2
  6
Continuous
 62
               0
100
AcDbLine
 10
2512.0
 20
180.20731865688572
 30
0.0
 11
2512.0
 21
375.20731865688572
 31
0.0
  0
SOLID
  5
C2
100
AcDbEntity
  8
寸法
370
              -2
 62
               0
100
AcDbTrace
 10
2512.0
 20
180.20731865688572
 30
0.0
 11
2509.9894652148005
 21
187.71073662563572
 31
0.0
 12
2514.0105347851995
 22
187.71073662563572
 32
0.0
 13
2514.0105347851995
 23
187.71073662563572
 33
0.0
  0
SOLID
  5
C3
100
AcDbEntity
  8
寸法
370
              -2
 62
               0
100
AcDbTrace
 10
2512.0
 20
375.20731865688572
 30
0.0
 11
2514.0105347851995
 21
367.70390068813572
 31
0.0
 12
2509.9894652148005
 22
367.70390068813572
 32
0.0
 13
2509.9894652148005
 23
367.70390068813572
 33
0.0
  0
WIPEOUT
  5
C4
100
AcDbEntity
  8
寸法
370
              -2
  6
Continuous
 62
               0
 92
        0
100
AcDbWipeout
 90
        0
 10
2489.833333333333
 20
1883.0115398721232
 30
0.0
 11
31.75
 21
0.0
 31
0.0
 12
0.0
 22
31.75
 32
0.0
 13
1.0
 23
1.0
340
0
 70
               7
280
               1
281
              50
282
              50
283
               0
360
0
 71
               2
 91
        5
 14
0.1666666666666762
 24
51.677528814870023
 14
0.1666666666666762
 24
50.677528814870023
 14
-0.5
 24
50.677528814870023
 14
-0.5
 24
51.677528814870023
 14
0.1666666666666762
 24
51.677528814870023
  0
MTEXT
  5
C5
100
AcDbEntity
  8
寸法
 62
               0
100
AcDbMText
 10
2491.7482552083334
 20
258.125
 30
0.0
 40
16.288411458333332
 41
0.0
 71
               1
 72
               1
  1
195
  7
ＭＳ ゴシック
 11
0.0
 21
1.0
 31
0.0
 73
               1
 44
0.7828267384257843
  0
POINT
  5
C6
100
AcDbEntity
  8
Defpoints
370
               0
 62
               0
100
AcDbPoint
 10
2297.7930284565045
 20
375.20731865688572
 30
0.0
  0
POINT
  5
C7
100
AcDbEntity
  8
Defpoints
370
               0
 62
               0
100
AcDbPoint
 10
2495.7930284565045
 20
180.20731865688572
 30
0.0
  0
POINT
  5
C8
100
AcDbEntity
  8
Defpoints
370
               0
 62
               0
100
AcDbPoint
 10
2512.0
 20
180.20731865688572
 30
0.0
  0
ENDBLK
  5
C9
100
AcDbEntity
  8
寸法
100
AcDbBlockEnd
  0
BLOCK
  5
CA
100
AcDbEntity
  8
寸法
100
AcDbBlockBegin
  2
*D8
 70
               1
 10
0.0
 20
0.0
 30
0.0
  3
*D8
  1

  0
LINE
  5
CB
100
AcDbEntity
  8
寸法
370
              -2
  6
Continuous
 62
               0
100
AcDbLine
 10
2301.4921517331586
 20
-139.79268134311417
 30
0.0
 11
2205.7930284565036
 21
-139.79268134311417
 31
0.0
  0
LINE
  5
CC
100
AcDbEntity
  8
寸法
370
              -2
  6
Continuous
 62
               0
100
AcDbLine
 10
2277.7930284565045
 20
260.20734022615102
 30
0.0
 11
2205.7930284565036
 21
260.20734022615102
 31
0.0
  0
LINE
  5
CD
100
AcDbEntity
  8
寸法
370
              -2
  6
Continuous
 62
               0
100
AcDbLine
 10
2205.7930284565036
 20
-139.79268134311417
 30
0.0
 11
2205.7930284565036
 21
260.20734022615102
 31
0.0
  0
SOLID
  5
CE
100
AcDbEntity
  8
寸法
370
              -2
 62
               0
100
AcDbTrace
 10
2205.7930284565036
 20
-139.79268134311417
 30
0.0
 11
2203.7824936713041
 21
-132.28926337436417
 31
0.0
 12
2207.8035632417036
 22
-132.28926337436417
 32
0.0
 13
2207.8035632417036
 23
-132.28926337436417
 33
0.0
  0
SOLID
  5
CF
100
AcDbEntity
  8
寸法
370
              -2
 62
               0
100
AcDbTrace
 10
2205.7930284565036
 20
260.20734022615102
 30
0.0
 11
2207.8035632417036
 21
252.70392225740102
 31
0.0
 12
2203.7824936713041
 22
252.70392225740102
 32
0.0
 13
2203.7824936713041
 23
252.70392225740102
 33
0.0
  0
WIPEOUT
  5
D0
100
AcDbEntity
  8
寸法
370
              -2
  6
Continuous
 62
               0
 92
        0
100
AcDbWipeout
 90
        0
 10
2183.6263617898371
 20
1671.2300209829061
 30
0.0
 11
31.75
 21
0.0
 31
0.0
 12
0.0
 22
31.75
 32
0.0
 13
1.0
 23
1.0
340
0
 70
               7
280
               1
281
              50
282
              50
283
               0
360
0
 71
               2
 91
        5
 14
0.1666666666666619
 24
51.677528814870023
 14
0.1666666666666619
 24
50.677528814870023
 14
-0.5
 24
50.677528814870023
 14
-0.5
 24
51.677528814870023
 14
0.1666666666666619
 24
51.677528814870023
  0
MTEXT
  5
D1
100
AcDbEntity
  8
寸法
 62
               0
100
AcDbMText
 10
2185.541283664837
 20
46.343481110782847
 30
0.0
 40
16.288411458333332
 41
0.0
 71
               1
 72
               1
  1
400
  7
ＭＳ ゴシック
 11
0.0
 21
1.0
 31
0.0
 73
               1
 44
0.7828267384257843
  0
POINT
  5
D2
100
AcDbEntity
  8
Defpoints
370
               0
 62
               0
100
AcDbPoint
 10
2282.7930284565045
 20
260.20734022615102
 30
0.0
  0
POINT
  5
D3
100
AcDbEntity
  8
Defpoints
370
               0
 62
               0
100
AcDbPoint
 10
2306.4921517331586
 20
-139.79268134311417
 30
0.0
  0
POINT
  5
D4
100
AcDbEntity
  8
Defpoints
370
               0
 62
               0
100
AcDbPoint
 10
2205.7930284565036
 20
-139.79268134311417
 30
0.0
  0
ENDBLK
  5
D5
100
AcDbEntity
  8
寸法
100
AcDbBlockEnd
  0
BLOCK
  5
D6
100
AcDbEntity
  8
寸法
100
AcDbBlockBegin
  2
*D9
 70
               1
 10
0.0
 20
0.0
 30
0.0
  3
*D9
  1

  0
LINE
  5
D7
100
AcDbEntity
  8
寸法
370
              -2
  6
Continuous
 62
               0
100
AcDbLine
 10
2298.7930284565045
 20
-184.79268134311519
 30
0.0
 11
2136.0034224222618
 21
-184.79268134311519
 31
0.0
  0
LINE
  5
D8
100
AcDbEntity
  8
寸法
370
              -2
  6
Continuous
 62
               0
100
AcDbLine
 10
2288.7930284565045
 20
375.20731865688572
 30
0.0
 11
2136.0034224222618
 21
375.20731865688572
 31
0.0
  0
LINE
  5
D9
100
AcDbEntity
  8
寸法
370
              -2
  6
Continuous
 62
               0
100
AcDbLine
 10
2136.0034224222618
 20
-184.79268134311519
 30
0.0
 11
2136.0034224222618
 21
375.20731865688572
 31
0.0
  0
SOLID
  5
DA
100
AcDbEntity
  8
寸法
370
              -2
 62
               0
100
AcDbTrace
 10
2136.0034224222618
 20
-184.79268134311519
 30
0.0
 11
2133.9928876370623
 21
-177.28926337436519
 31
0.0
 12
2138.0139572074618
 22
-177.28926337436519
 32
0.0
 13
2138.0139572074618
 23
-177.28926337436519
 33
0.0
  0
SOLID
  5
DB
100
AcDbEntity
  8
寸法
370
              -2
 62
               0
100
AcDbTrace
 10
2136.0034224222618
 20
375.20731865688572
 30
0.0
 11
2138.0139572074618
 21
367.70390068813572
 31
0.0
 12
2133.9928876370623
 22
367.70390068813572
 32
0.0
 13
2133.9928876370623
 23
367.70390068813572
 33
0.0
  0
WIPEOUT
  5
DC
100
AcDbEntity
  8
寸法
370
              -2
  6
Continuous
 62
               0
 92
        0
100
AcDbWipeout
 90
        0
 10
2113.8367557555953
 20
1704.2188585290087
 30
0.0
 11
31.75
 21
0.0
 31
0.0
 12
0.0
 22
31.75
 32
0.0
 13
1.0
 23
1.0
340
0
 70
               7
280
               1
281
              50
282
              50
283
               0
360
0
 71
               2
 91
        5
 14
0.1666666666666619
 24
51.677528814870023
 14
0.1666666666666619
 24
50.677528814870023
 14
-0.5
 24
50.677528814870023
 14
-0.5
 24
51.677528814870023
 14
0.1666666666666619
 24
51.677528814870023
  0
MTEXT
  5
DD
100
AcDbEntity
  8
寸法
 62
               0
100
AcDbMText
 10
2115.7516776305952
 20
79.332318656885377
 30
0.0
 40
16.288411458333332
 41
0.0
 71
               1
 72
               1
  1
560
  7
ＭＳ ゴシック
 11
0.0
 21
1.0
 31
0.0
 73
               1
 44
0.7828267384257843
  0
POINT
  5
DE
100
AcDbEntity
  8
Defpoints
370
               0
 62
               0
100
AcDbPoint
 10
2293.7930284565045
 20
375.20731865688572
 30
0.0
  0
POINT
  5
DF
100
AcDbEntity
  8
Defpoints
370
               0
 62
               0
100
AcDbPoint
 10
2303.7930284565045
 20
-184.79268134311519
 30
0.0
  0
POINT
  5
E0
100
AcDbEntity
  8
Defpoints
370
               0
 62
               0
100
AcDbPoint
 10
2136.0034224222618
 20
-184.79268134311519
 30
0.0
  0
ENDBLK
  5
E1
100
AcDbEntity
  8
寸法
100
AcDbBlockEnd
  0
BLOCK
  5
E2
100
AcDbEntity
  8
寸法
100
AcDbBlockBegin
  2
*D10
 70
               1
 10
0.0
 20
0.0
 30
0.0
  3
*D10
  1

  0
LINE
  5
E3
100
AcDbEntity
  8
寸法
370
              -2
  6
Continuous
 62
               0
100
AcDbLine
 10
2288.7930284565045
 20
375.20731865688572
 30
0.0
 11
2206.0
 21
375.20731865688572
 31
0.0
  0
LINE
  5
E4
100
AcDbEntity
  8
寸法
370
              -2
  6
Continuous
 62
               0
100
AcDbLine
 10
2280.7930284565045
 20
350.20731865688572
 30
0.0
 11
2206.0
 21
350.20731865688572
 31
0.0
  0
LINE
  5
E5
100
AcDbEntity
  8
寸法
370
              -2
  6
Continuous
 62
               0
100
AcDbLine
 10
2206.0
 20
375.20731865688572
 30
0.0
 11
2206.0
 21
350.20731865688572
 31
0.0
  0
SOLID
  5
E6
100
AcDbEntity
  8
寸法
370
              -2
 62
               0
100
AcDbTrace
 10
2206.0
 20
375.20731865688572
 30
0.0
 11
2208.0105347851995
 21
367.70390068813572
 31
0.0
 12
2203.9894652148005
 22
367.70390068813572
 32
0.0
 13
2203.9894652148005
 23
367.70390068813572
 33
0.0
  0
SOLID
  5
E7
100
AcDbEntity
  8
寸法
370
              -2
 62
               0
100
AcDbTrace
 10
2206.0
 20
350.20731865688572
 30
0.0
 11
2203.9894652148005
 21
357.71073662563572
 31
0.0
 12
2208.0105347851995
 22
357.71073662563572
 32
0.0
 13
2208.0105347851995
 23
357.71073662563572
 33
0.0
  0
MTEXT
  5
E8
100
AcDbEntity
  8
寸法
 62
               0
100
AcDbMText
 10
2185.7482552083334
 20
353.41666666666669
 30
0.0
 40
16.288411458333332
 41
0.0
 71
               1
 72
               1
  1
25
  7
ＭＳ ゴシック
 11
0.0
 21
1.0
 31
0.0
 73
               1
 44
0.7828267384257843
  0
POINT
  5
E9
100
AcDbEntity
  8
Defpoints
370
               0
 62
               0
100
AcDbPoint
 10
2285.7930284565045
 20
350.20731865688572
 30
0.0
  0
POINT
  5
EA
100
AcDbEntity
  8
Defpoints
370
               0
 62
               0
100
AcDbPoint
 10
2293.7930284565045
 20
375.20731865688572
 30
0.0
  0
POINT
  5
EB
100
AcDbEntity
  8
Defpoints
370
               0
 62
               0
100
AcDbPoint
 10
2206.0
 20
375.20731865688572
 30
0.0
  0
ENDBLK
  5
EC
100
AcDbEntity
  8
寸法
100
AcDbBlockEnd
  0
BLOCK
  5
ED
100
AcDbEntity
  8
寸法
100
AcDbBlockBegin
  2
*D11
 70
               1
 10
0.0
 20
0.0
 30
0.0
  3
*D11
  1

  0
LINE
  5
EE
100
AcDbEntity
  8
寸法
370
              -2
  6
Continuous
 62
               0
100
AcDbLine
 10
2303.7930284565045
 20
307.28680867369479
 30
0.0
 11
2303.7930284565045
 21
303.20731865688572
 31
0.0
  0
LINE
  5
EF
100
AcDbEntity
  8
寸法
370
              -2
  6
Continuous
 62
               0
100
AcDbLine
 10
2283.7930284565045
 20
345.20731865688572
 30
0.0
 11
2283.7930284565045
 21
303.20731865688572
 31
0.0
  0
LINE
  5
F0
100
AcDbEntity
  8
寸法
370
              -2
  6
Continuous
 62
               0
100
AcDbLine
 10
2283.7930284565045
 20
303.20731865688572
 30
0.0
 11
2261.3868814881262
 21
303.20731865688572
 31
0.0
  0
LINE
  5
F1
100
AcDbEntity
  8
寸法
370
              -2
  6
Continuous
 62
               0
100
AcDbLine
 10
2303.7930284565045
 20
303.20731865688572
 30
0.0
 11
2283.7930284565045
 21
303.20731865688572
 31
0.0
  0
SOLID
  5
F2
100
AcDbEntity
  8
寸法
370
              -2
 62
               0
100
AcDbTrace
 10
2303.7930284565045
 20
303.20731865688572
 30
0.0
 11
2296.2896104877545
 21
301.19678387168597
 31
0.0
 12
2296.2896104877545
 22
305.21785344208547
 32
0.0
 13
2296.2896104877545
 23
305.21785344208547
 33
0.0
  0
SOLID
  5
F3
100
AcDbEntity
  8
寸法
370
              -2
 62
               0
100
AcDbTrace
 10
2283.7930284565045
 20
303.20731865688572
 30
0.0
 11
2291.2964464252545
 21
305.21785344208547
 31
0.0
 12
2291.2964464252545
 22
301.19678387168597
 32
0.0
 13
2291.2964464252545
 23
301.19678387168597
 33
0.0
  0
WIPEOUT
  5
F4
100
AcDbEntity
  8
寸法
370
              -2
  6
Continuous
 62
               0
 92
        0
100
AcDbWipeout
 90
        0
 10
2261.3868814881262
 20
1941.6174696363946
 30
0.0
 11
21.166666666666686
 21
0.0
 31
0.0
 12
0.0
 22
21.166666666666686
 32
0.0
 13
1.0
 23
1.0
340
0
 70
               7
280
               1
281
              50
282
              50
283
               0
360
0
 71
               2
 91
        5
 14
-0.5
 24
77.266293222304967
 14
0.4999999999999919
 24
77.266293222304967
 14
0.4999999999999919
 24
76.266293222304967
 14
-0.5
 24
76.266293222304967
 14
-0.5
 24
77.266293222304967
  0
MTEXT
  5
F5
100
AcDbEntity
  8
寸法
 62
               0
100
AcDbMText
 10
2261.3868814881262
 20
335.98267455593816
 30
0.0
 40
16.288411458333332
 41
0.0
 71
               1
 72
               1
  1
20
  7
ＭＳ ゴシック
 73
               1
 44
0.7828267384257843
  0
POINT
  5
F6
100
AcDbEntity
  8
Defpoints
370
               0
 62
               0
100
AcDbPoint
 10
2283.7930284565045
 20
350.20731865688572
 30
0.0
  0
POINT
  5
F7
100
AcDbEntity
  8
Defpoints
370
               0
 62
               0
100
AcDbPoint
 10
2303.7930284565045
 20
312.28680867369479
 30
0.0
  0
POINT
  5
F8
100
AcDbEntity
  8
Defpoints
370
               0
 62
               0
100
AcDbPoint
 10
2303.7930284565045
 20
303.20731865688572
 30
0.0
  0
ENDBLK
  5
F9
100
AcDbEntity
  8
寸法
100
AcDbBlockEnd
  0
BLOCK
  5
FA
100
AcDbEntity
  8
寸法
100
AcDbBlockBegin
  2
*D12
 70
               1
 10
0.0
 20
0.0
 30
0.0
  3
*D12
  1

  0
LINE
  5
FB
100
AcDbEntity
  8
寸法
370
              -2
  6
Continuous
 62
               0
100
AcDbLine
 10
2288.7930284751319
 20
260.20734022615102
 30
0.0
 11
2168.0034224222618
 21
260.20734022615102
 31
0.0
  0
LINE
  5
FC
100
AcDbEntity
  8
寸法
370
              -2
  6
Continuous
 62
               0
100
AcDbLine
 10
2288.7930284565045
 20
375.20731865688572
 30
0.0
 11
2168.0034224222618
 21
375.20731865688572
 31
0.0
  0
LINE
  5
FD
100
AcDbEntity
  8
寸法
370
              -2
  6
Continuous
 62
               0
100
AcDbLine
 10
2168.0034224222618
 20
260.20734022615102
 30
0.0
 11
2168.0034224222618
 21
375.20731865688572
 31
0.0
  0
SOLID
  5
FE
100
AcDbEntity
  8
寸法
370
              -2
 62
               0
100
AcDbTrace
 10
2168.0034224222618
 20
260.20734022615102
 30
0.0
 11
2165.9928876370623
 21
267.71075819490102
 31
0.0
 12
2170.0139572074618
 22
267.71075819490102
 32
0.0
 13
2170.0139572074618
 23
267.71075819490102
 33
0.0
  0
SOLID
  5
FF
100
AcDbEntity
  8
寸法
370
              -2
 62
               0
100
AcDbTrace
 10
2168.0034224222618
 20
375.20731865688572
 30
0.0
 11
2170.0139572074618
 21
367.70390068813572
 31
0.0
 12
2165.9928876370623
 22
367.70390068813572
 32
0.0
 13
2165.9928876370623
 23
367.70390068813572
 33
0.0
  0
WIPEOUT
  5
100
100
AcDbEntity
  8
寸法
370
              -2
  6
Continuous
 62
               0
 92
        0
100
AcDbWipeout
 90
        0
 10
2145.8367557555953
 20
1926.7188693136416
 30
0.0
 11
31.75
 21
0.0
 31
0.0
 12
0.0
 22
31.75
 32
0.0
 13
1.0
 23
1.0
340
0
 70
               7
280
               1
281
              50
282
              50
283
               0
360
0
 71
               2
 91
        5
 14
0.1666666666666619
 24
51.677528814870023
 14
0.1666666666666619
 24
50.677528814870023
 14
-0.5
 24
50.677528814870023
 14
-0.5
 24
51.677528814870023
 14
0.1666666666666619
 24
51.677528814870023
  0
MTEXT
  5
101
100
AcDbEntity
  8
寸法
 62
               0
100
AcDbMText
 10
2147.7516776305952
 20
301.83232944151831
 30
0.0
 40
16.288411458333332
 41
0.0
 71
               1
 72
               1
  1
115
  7
ＭＳ ゴシック
 11
0.0
 21
1.0
 31
0.0
 73
               1
 44
0.7828267384257843
  0
POINT
  5
102
100
AcDbEntity
  8
Defpoints
370
               0
 62
               0
100
AcDbPoint
 10
2293.7930284565045
 20
375.20731865688572
 30
0.0
  0
POINT
  5
103
100
AcDbEntity
  8
Defpoints
370
               0
 62
               0
100
AcDbPoint
 10
2293.7930284751319
 20
260.20734022615102
 30
0.0
  0
POINT
  5
104
100
AcDbEntity
  8
Defpoints
370
               0
 62
               0
100
AcDbPoint
 10
2168.0034224222618
 20
260.20734022615102
 30
0.0
  0
ENDBLK
  5
105
100
AcDbEntity
  8
寸法
100
AcDbBlockEnd
  0
BLOCK
  5
106
100
AcDbEntity
  8
寸法
100
AcDbBlockBegin
  2
*D13
 70
               1
 10
0.0
 20
0.0
 30
0.0
  3
*D13
  1

  0
LINE
  5
107
100
AcDbEntity
  8
寸法
370
              -2
  6
Continuous
 62
               0
100
AcDbLine
 10
1040.4921517331588
 20
-409.79268134311428
 30
0.0
 11
1040.4921517331588
 21
-350.84168134311449
 31
0.0
  0
LINE
  5
108
100
AcDbEntity
  8
寸法
370
              -2
  6
Continuous
 62
               0
100
AcDbLine
 10
1580.4921517331588
 20
-404.79268136174068
 30
0.0
 11
1580.4921517331588
 21
-350.84168134311449
 31
0.0
  0
LINE
  5
109
100
AcDbEntity
  8
寸法
370
              -2
  6
Continuous
 62
               0
100
AcDbLine
 10
1040.4921517331588
 20
-350.84168134311449
 30
0.0
 11
1580.4921517331588
 21
-350.84168134311449
 31
0.0
  0
SOLID
  5
10A
100
AcDbEntity
  8
寸法
370
              -2
 62
               0
100
AcDbTrace
 10
1040.4921517331588
 20
-350.84168134311449
 30
0.0
 11
1047.9955697019088
 21
-348.83114655791474
 31
0.0
 12
1047.9955697019088
 22
-352.85221612831424
 32
0.0
 13
1047.9955697019088
 23
-352.85221612831424
 33
0.0
  0
SOLID
  5
10B
100
AcDbEntity
  8
寸法
370
              -2
 62
               0
100
AcDbTrace
 10
1580.4921517331588
 20
-350.84168134311449
 30
0.0
 11
1572.9887337644088
 21
-352.85221612831424
 31
0.0
 12
1572.9887337644088
 22
-348.83114655791474
 32
0.0
 13
1572.9887337644088
 23
-348.83114655791474
 33
0.0
  0
WIPEOUT
  5
10C
100
AcDbEntity
  8
寸法
370
              -2
  6
Continuous
 62
               0
 92
        0
100
AcDbWipeout
 90
        0
 10
1294.6171517331588
 20
1274.8448585260285
 30
0.0
 11
31.75
 21
0.0
 31
0.0
 12
0.0
 22
31.75
 32
0.0
 13
1.0
 23
1.0
340
0
 70
               7
280
               1
281
              50
282
              50
283
               0
360
0
 71
               2
 91
        5
 14
-0.5
 24
51.677528814870023
 14
0.5
 24
51.677528814870023
 14
0.5
 24
51.010862148203351
 14
-0.5
 24
51.010862148203351
 14
-0.5
 24
51.677528814870023
  0
MTEXT
  5
10D
100
AcDbEntity
  8
寸法
 62
               0
100
AcDbMText
 10
1294.6171517331588
 20
-330.78993655442804
 30
0.0
 40
16.288411458333332
 41
0.0
 71
               1
 72
               1
  1
540
  7
ＭＳ ゴシック
 73
               1
 44
0.7828267384257843
  0
POINT
  5
10E
100
AcDbEntity
  8
Defpoints
370
               0
 62
               0
100
AcDbPoint
 10
1580.4921517331588
 20
-409.79268136174068
 30
0.0
  0
POINT
  5
10F
100
AcDbEntity
  8
Defpoints
370
               0
 62
               0
100
AcDbPoint
 10
1040.4921517331588
 20
-414.79268134311428
 30
0.0
  0
POINT
  5
110
100
AcDbEntity
  8
Defpoints
370
               0
 62
               0
100
AcDbPoint
 10
1040.4921517331588
 20
-350.84168134311449
 30
0.0
  0
ENDBLK
  5
111
100
AcDbEntity
  8
寸法
100
AcDbBlockEnd
  0
BLOCK
  5
112
100
AcDbEntity
  8
寸法
100
AcDbBlockBegin
  2
*D14
 70
               1
 10
0.0
 20
0.0
 30
0.0
  3
*D14
  1

  0
LINE
  5
113
100
AcDbEntity
  8
寸法
370
              -2
  6
Continuous
 62
               0
100
AcDbLine
 10
1000.4921517331838
 20
-398.79268136174068
 30
0.0
 11
1000.4921517331838
 21
-304.0
 31
0.0
  0
LINE
  5
114
100
AcDbEntity
  8
寸法
370
              -2
  6
Continuous
 62
               0
100
AcDbLine
 10
1620.4921517331338
 20
-398.79268136174068
 30
0.0
 11
1620.4921517331338
 21
-304.0
 31
0.0
  0
LINE
  5
115
100
AcDbEntity
  8
寸法
370
              -2
  6
Continuous
 62
               0
100
AcDbLine
 10
1000.4921517331838
 20
-304.0
 30
0.0
 11
1620.4921517331338
 21
-304.0
 31
0.0
  0
SOLID
  5
116
100
AcDbEntity
  8
寸法
370
              -2
 62
               0
100
AcDbTrace
 10
1000.4921517331838
 20
-304.0
 30
0.0
 11
1007.9955697019338
 21
-301.98946521480025
 31
0.0
 12
1007.9955697019338
 22
-306.01053478519975
 32
0.0
 13
1007.9955697019338
 23
-306.01053478519975
 33
0.0
  0
SOLID
  5
117
100
AcDbEntity
  8
寸法
370
              -2
 62
               0
100
AcDbTrace
 10
1620.4921517331338
 20
-304.0
 30
0.0
 11
1612.9887337643838
 21
-306.01053478519975
 31
0.0
 12
1612.9887337643838
 22
-301.98946521480025
 32
0.0
 13
1612.9887337643838
 23
-301.98946521480025
 33
0.0
  0
WIPEOUT
  5
118
100
AcDbEntity
  8
寸法
370
              -2
  6
Continuous
 62
               0
 92
        0
100
AcDbWipeout
 90
        0
 10
1294.6171517331588
 20
1321.686539869143
 30
0.0
 11
31.75
 21
0.0
 31
0.0
 12
0.0
 22
31.75
 32
0.0
 13
1.0
 23
1.0
340
0
 70
               7
280
               1
281
              50
282
              50
283
               0
360
0
 71
               2
 91
        5
 14
-0.5
 24
51.677528814870023
 14
0.5
 24
51.677528814870023
 14
0.5
 24
51.010862148203358
 14
-0.5
 24
51.010862148203358
 14
-0.5
 24
51.677528814870023
  0
MTEXT
  5
119
100
AcDbEntity
  8
寸法
 62
               0
100
AcDbMText
 10
1294.6171517331588
 20
-283.94825521131361
 30
0.0
 40
16.288411458333332
 41
0.0
 71
               1
 72
               1
  1
620
  7
ＭＳ ゴシック
 73
               1
 44
0.7828267384257843
  0
POINT
  5
11A
100
AcDbEntity
  8
Defpoints
370
               0
 62
               0
100
AcDbPoint
 10
1620.4921517331338
 20
-403.79268136174068
 30
0.0
  0
POINT
  5
11B
100
AcDbEntity
  8
Defpoints
370
               0
 62
               0
100
AcDbPoint
 10
1000.4921517331838
 20
-403.79268136174068
 30
0.0
  0
POINT
  5
11C
100
AcDbEntity
  8
Defpoints
370
               0
 62
               0
100
AcDbPoint
 10
1000.4921517331838
 20
-304.0
 30
0.0
  0
ENDBLK
  5
11D
100
AcDbEntity
  8
寸法
100
AcDbBlockEnd
  0
BLOCK
  5
11E
100
AcDbEntity
  8
寸法
100
AcDbBlockBegin
  2
*D15
 70
               1
 10
0.0
 20
0.0
 30
0.0
  3
*D15
  1

  0
LINE
  5
11F
100
AcDbEntity
  8
寸法
370
              -2
  6
Continuous
 62
               0
100
AcDbLine
 10
1620.4921517331338
 20
-403.79268134311428
 30
0.0
 11
1620.4921517331338
 21
-350.84168134311449
 31
0.0
  0
LINE
  5
120
100
AcDbEntity
  8
寸法
370
              -2
  6
Continuous
 62
               0
100
AcDbLine
 10
1580.4921517331588
 20
-409.79268134311428
 30
0.0
 11
1580.4921517331588
 21
-350.84168134311449
 31
0.0
  0
LINE
  5
121
100
AcDbEntity
  8
寸法
370
              -2
  6
Continuous
 62
               0
100
AcDbLine
 10
1620.4921517331338
 20
-350.84168134311449
 30
0.0
 11
1580.4921517331588
 21
-350.84168134311449
 31
0.0
  0
SOLID
  5
122
100
AcDbEntity
  8
寸法
370
              -2
 62
               0
100
AcDbTrace
 10
1620.4921517331338
 20
-350.84168134311449
 30
0.0
 11
1612.9887337643838
 21
-352.85221612831424
 31
0.0
 12
1612.9887337643838
 22
-348.83114655791474
 32
0.0
 13
1612.9887337643838
 23
-348.83114655791474
 33
0.0
  0
SOLID
  5
123
100
AcDbEntity
  8
寸法
370
              -2
 62
               0
100
AcDbTrace
 10
1580.4921517331588
 20
-350.84168134311449
 30
0.0
 11
1587.9955697019088
 21
-348.83114655791474
 31
0.0
 12
1587.9955697019088
 22
-352.85221612831424
 32
0.0
 13
1587.9955697019088
 23
-352.85221612831424
 33
0.0
  0
WIPEOUT
  5
124
100
AcDbEntity
  8
寸法
370
              -2
  6
Continuous
 62
               0
 92
        0
100
AcDbWipeout
 90
        0
 10
1589.9088183998124
 20
1275.0448585290087
 30
0.0
 11
21.166666666666686
 21
0.0
 31
0.0
 12
0.0
 22
21.166666666666686
 32
0.0
 13
1.0
 23
1.0
340
0
 70
               7
280
               1
281
              50
282
              50
283
               0
360
0
 71
               2
 91
        5
 14
-0.5
 24
77.266293222304967
 14
0.5000000000000027
 24
77.266293222304967
 14
0.5000000000000027
 24
76.266293222304967
 14
-0.5
 24
76.266293222304967
 14
-0.5
 24
77.266293222304967
  0
MTEXT
  5
125
100
AcDbEntity
  8
寸法
 62
               0
100
AcDbMText
 10
1589.9088183998124
 20
-330.58993655144781
 30
0.0
 40
16.288411458333332
 41
0.0
 71
               1
 72
               1
  1
40
  7
ＭＳ ゴシック
 73
               1
 44
0.7828267384257843
  0
POINT
  5
126
100
AcDbEntity
  8
Defpoints
370
               0
 62
               0
100
AcDbPoint
 10
1580.4921517331588
 20
-414.79268134311428
 30
0.0
  0
POINT
  5
127
100
AcDbEntity
  8
Defpoints
370
               0
 62
               0
100
AcDbPoint
 10
1620.4921517331338
 20
-408.79268134311428
 30
0.0
  0
POINT
  5
128
100
AcDbEntity
  8
Defpoints
370
               0
 62
               0
100
AcDbPoint
 10
1620.4921517331338
 20
-350.84168134311449
 30
0.0
  0
ENDBLK
  5
129
100
AcDbEntity
  8
寸法
100
AcDbBlockEnd
  0
BLOCK
  5
12A
100
AcDbEntity
  8
寸法
100
AcDbBlockBegin
  2
*D16
 70
               1
 10
0.0
 20
0.0
 30
0.0
  3
*D16
  1

  0
LINE
  5
12B
100
AcDbEntity
  8
寸法
370
              -2
  6
Continuous
 62
               0
100
AcDbLine
 10
1915.4921517331591
 20
-74.792681343114182
 30
0.0
 11
2019.4921517331591
 21
-74.792681343114182
 31
0.0
  0
LINE
  5
12C
100
AcDbEntity
  8
寸法
370
              -2
  6
Continuous
 62
               0
100
AcDbLine
 10
1915.4921517331591
 20
375.20731865688572
 30
0.0
 11
2019.4921517331591
 21
375.20731865688572
 31
0.0
  0
LINE
  5
12D
100
AcDbEntity
  8
寸法
370
              -2
  6
Continuous
 62
               0
100
AcDbLine
 10
2019.4921517331591
 20
-74.792681343114182
 30
0.0
 11
2019.4921517331591
 21
375.20731865688572
 31
0.0
  0
SOLID
  5
12E
100
AcDbEntity
  8
寸法
370
              -2
 62
               0
100
AcDbTrace
 10
2019.4921517331591
 20
-74.792681343114182
 30
0.0
 11
2017.4816169479591
 21
-67.289263374364182
 31
0.0
 12
2021.5026865183586
 22
-67.289263374364182
 32
0.0
 13
2021.5026865183586
 23
-67.289263374364182
 33
0.0
  0
SOLID
  5
12F
100
AcDbEntity
  8
寸法
370
              -2
 62
               0
100
AcDbTrace
 10
2019.4921517331591
 20
375.20731865688572
 30
0.0
 11
2021.5026865183586
 21
367.70390068813572
 31
0.0
 12
2017.4816169479591
 22
367.70390068813572
 32
0.0
 13
2017.4816169479591
 23
367.70390068813572
 33
0.0
  0
WIPEOUT
  5
130
100
AcDbEntity
  8
寸法
370
              -2
  6
Continuous
 62
               0
 92
        0
100
AcDbWipeout
 90
        0
 10
1997.3254850702176
 20
1759.2188585290091
 30
0.0
 11
31.75
 21
0.0
 31
0.0
 12
0.0
 22
31.75
 32
0.0
 13
1.0
 23
1.0
340
0
 70
               7
280
               1
281
              50
282
              50
283
               0
360
0
 71
               2
 91
        5
 14
0.1666666666666691
 24
51.67752881487003
 14
0.1666666666666691
 24
50.67752881487003
 14
-0.5
 24
50.67752881487003
 14
-0.5
 24
51.67752881487003
 14
0.1666666666666691
 24
51.67752881487003
  0
MTEXT
  5
131
100
AcDbEntity
  8
寸法
 62
               0
100
AcDbMText
 10
1999.2404069452177
 20
134.33231865688577
 30
0.0
 40
16.288411458333332
 41
0.0
 71
               1
 72
               1
  1
450
  7
ＭＳ ゴシック
 11
0.0
 21
1.0
 31
0.0
 73
               1
 44
0.7828267384257843
  0
POINT
  5
132
100
AcDbEntity
  8
Defpoints
370
               0
 62
               0
100
AcDbPoint
 10
1910.4921517331591
 20
375.20731865688572
 30
0.0
  0
POINT
  5
133
100
AcDbEntity
  8
Defpoints
370
               0
 62
               0
100
AcDbPoint
 10
1910.4921517331591
 20
-74.792681343114182
 30
0.0
  0
POINT
  5
134
100
AcDbEntity
  8
Defpoints
370
               0
 62
               0
100
AcDbPoint
 10
2019.4921517331591
 20
-74.792681343114182
 30
0.0
  0
ENDBLK
  5
135
100
AcDbEntity
  8
寸法
100
AcDbBlockEnd
  0
BLOCK
  5
136
100
AcDbEntity
  8
寸法
100
AcDbBlockBegin
  2
*D17
 70
               1
 10
0.0
 20
0.0
 30
0.0
  3
*D17
  1

  0
LINE
  5
137
100
AcDbEntity
  8
寸法
370
              -2
  6
Continuous
 62
               0
100
AcDbLine
 10
2291.4921517517851
 20
-139.79268134311417
 30
0.0
 11
2257.4921517331586
 21
-139.79268134311417
 31
0.0
  0
LINE
  5
138
100
AcDbEntity
  8
寸法
370
              -2
  6
Continuous
 62
               0
100
AcDbLine
 10
2298.7930284565045
 20
-179.79268134311519
 30
0.0
 11
2257.4921517331586
 21
-179.79268134311519
 31
0.0
  0
LINE
  5
139
100
AcDbEntity
  8
寸法
370
              -2
  6
Continuous
 62
               0
100
AcDbLine
 10
2257.4921517331586
 20
-139.79268134311417
 30
0.0
 11
2257.4921517331586
 21
-179.79268134311519
 31
0.0
  0
SOLID
  5
13A
100
AcDbEntity
  8
寸法
370
              -2
 62
               0
100
AcDbTrace
 10
2257.4921517331586
 20
-139.79268134311417
 30
0.0
 11
2259.5026865183586
 21
-147.29609931186417
 31
0.0
 12
2255.4816169479591
 22
-147.29609931186417
 32
0.0
 13
2255.4816169479591
 23
-147.29609931186417
 33
0.0
  0
SOLID
  5
13B
100
AcDbEntity
  8
寸法
370
              -2
 62
               0
100
AcDbTrace
 10
2257.4921517331586
 20
-179.79268134311519
 30
0.0
 11
2255.4816169479591
 21
-172.28926337436519
 31
0.0
 12
2259.5026865183586
 22
-172.28926337436519
 32
0.0
 13
2259.5026865183586
 23
-172.28926337436519
 33
0.0
  0
WIPEOUT
  5
13C
100
AcDbEntity
  8
寸法
370
              -2
  6
Continuous
 62
               0
 92
        0
100
AcDbWipeout
 90
        0
 10
2235.3254850702174
 20
1454.5105251956752
 30
0.0
 11
21.166666666666657
 21
0.0
 31
0.0
 12
0.0
 22
21.166666666666657
 32
0.0
 13
1.0
 23
1.0
340
0
 70
               7
280
               1
281
              50
282
              50
283
               0
360
0
 71
               2
 91
        5
 14
0.4999999999999933
 24
77.266293222305066
 14
0.4999999999999933
 24
76.26629322230508
 14
-0.5
 24
76.26629322230508
 14
-0.5
 24
77.266293222305066
 14
0.4999999999999933
 24
77.266293222305066
  0
MTEXT
  5
13D
100
AcDbEntity
  8
寸法
 62
               0
100
AcDbMText
 10
2237.2404069452173
 20
-170.37601467644802
 30
0.0
 40
16.288411458333332
 41
0.0
 71
               1
 72
               1
  1
40
  7
ＭＳ ゴシック
 11
0.0
 21
1.0
 31
0.0
 73
               1
 44
0.7828267384257843
  0
POINT
  5
13E
100
AcDbEntity
  8
Defpoints
370
               0
 62
               0
100
AcDbPoint
 10
2303.7930284565045
 20
-179.79268134311519
 30
0.0
  0
POINT
  5
13F
100
AcDbEntity
  8
Defpoints
370
               0
 62
               0
100
AcDbPoint
 10
2296.4921517517851
 20
-139.79268134311417
 30
0.0
  0
POINT
  5
140
100
AcDbEntity
  8
Defpoints
370
               0
 62
               0
100
AcDbPoint
 10
2257.4921517331586
 20
-139.79268134311417
 30
0.0
  0
ENDBLK
  5
141
100
AcDbEntity
  8
寸法
100
AcDbBlockEnd
  0
BLOCK
  5
142
100
AcDbEntity
  8
一般
100
AcDbBlockBegin
  2
グループ-2-4
 70
               0
 10
0.0
 20
0.0
 30
0.0
  3
グループ-2-4
  1

  0
WIPEOUT
  5
143
100
AcDbEntity
  8
一般
370
               5
  6
Continuous
 62
               0
 92
        0
100
AcDbWipeout
 90
        0
 10
1273.640665472738
 20
-534.38682801630455
 30
0.0
 11
155.17238928871569
 21
0.0
 31
0.0
 12
0.0
 22
155.17238928871569
 32
0.0
 13
1.0
 23
1.0
340
0
 70
               7
280
               1
281
              50
282
              50
283
               0
360
0
 71
               2
 91
        9
 14
-0.3935565999366039
 24
-0.4924446011684824
 14
-0.4451121636336664
 24
-0.1444445462133005
 14
-0.3384994158052864
 24
-0.0416491966468175
 14
-0.4451121636336664
 24
0.5
 14
-0.4956971565034993
 24
0.4900433617881867
 14
-0.3945106374197887
 24
-0.0240377203485065
 14
-0.5
 24
-0.1257499088330749
 14
-0.4445555420493458
 24
-0.5
 14
-0.3935565999366039
 24
-0.4924446011684824
  0
LINE
  5
144
100
AcDbEntity
  8
一般
370
               9
  6
Continuous
 62
               0
100
AcDbLine
 10
1290.15774218459
 20
-380.38682801630449
 30
0.0
 11
1282.15774218459
 21
-434.38682801630449
 31
0.0
  0
LINE
  5
145
100
AcDbEntity
  8
一般
370
               9
  6
Continuous
 62
               0
100
AcDbLine
 10
1282.2441144857589
 20
-379.21443872758891
 30
0.0
 11
1273.640665472738
 21
-437.2877195654803
 31
0.0
  0
LINE
  5
146
100
AcDbEntity
  8
一般
370
               9
  6
Continuous
 62
               0
100
AcDbLine
 10
1282.15774218459
 20
-434.38682801630449
 30
0.0
 11
1298.701096993756
 21
-450.33782801630451
 31
0.0
  0
LINE
  5
147
100
AcDbEntity
  8
一般
370
               9
  6
Continuous
 62
               0
100
AcDbLine
 10
1273.640665472738
 20
-437.2877195654803
 30
0.0
 11
1290.0097019088539
 21
-453.07064287241502
 31
0.0
  0
LINE
  5
148
100
AcDbEntity
  8
一般
370
               9
  6
Continuous
 62
               0
100
AcDbLine
 10
1298.701096993756
 20
-450.33782801630451
 30
0.0
 11
1282.15774218459
 21
-534.38682801630455
 31
0.0
  0
LINE
  5
149
100
AcDbEntity
  8
一般
370
               9
  6
Continuous
 62
               0
100
AcDbLine
 10
1290.0097019088539
 20
-453.07064287241502
 30
0.0
 11
1274.3083479788261
 21
-532.84183267569415
 31
0.0
  0
ENDBLK
  5
14A
100
AcDbEntity
  8
一般
100
AcDbBlockEnd
  0
BLOCK
  5
14B
100
AcDbEntity
  8
一般
100
AcDbBlockBegin
  2
グループ-3-4
 70
               0
 10
0.0
 20
0.0
 30
0.0
  3
グループ-3-4
  1

  0
WIPEOUT
  5
14C
100
AcDbEntity
  8
一般
370
               5
  6
Continuous
 62
               0
 92
        0
100
AcDbWipeout
 90
        0
 10
2253.447314764423
 20
-534.38682801630455
 30
0.0
 11
155.17238928871569
 21
0.0
 31
0.0
 12
0.0
 22
155.17238928871569
 32
0.0
 13
1.0
 23
1.0
340
0
 70
               7
280
               1
281
              50
282
              50
283
               0
360
0
 71
               2
 91
        9
 14
-0.3935565999366024
 24
-0.4924446011684824
 14
-0.4451121636336664
 24
-0.1444445462133005
 14
-0.3384994158052864
 24
-0.0416491966468175
 14
-0.4451121636336664
 24
0.5
 14
-0.4956971565035007
 24
0.4900433617881867
 14
-0.3945106374197887
 24
-0.0240377203485065
 14
-0.5
 24
-0.1257499088330749
 14
-0.4445555420493444
 24
-0.5
 14
-0.3935565999366024
 24
-0.4924446011684824
  0
LINE
  5
14D
100
AcDbEntity
  8
一般
370
               9
  6
Continuous
 62
               0
100
AcDbLine
 10
2269.964391476276
 20
-380.38682801630449
 30
0.0
 11
2261.964391476276
 21
-434.38682801630449
 31
0.0
  0
LINE
  5
14E
100
AcDbEntity
  8
一般
370
               9
  6
Continuous
 62
               0
100
AcDbLine
 10
2262.050763777444
 20
-379.21443872758891
 30
0.0
 11
2253.447314764423
 21
-437.2877195654803
 31
0.0
  0
LINE
  5
14F
100
AcDbEntity
  8
一般
370
               9
  6
Continuous
 62
               0
100
AcDbLine
 10
2261.964391476276
 20
-434.38682801630449
 30
0.0
 11
2278.507746285441
 21
-450.33782801630451
 31
0.0
  0
LINE
  5
150
100
AcDbEntity
  8
一般
370
               9
  6
Continuous
 62
               0
100
AcDbLine
 10
2253.447314764423
 20
-437.2877195654803
 30
0.0
 11
2269.816351200539
 21
-453.07064287241502
 31
0.0
  0
LINE
  5
151
100
AcDbEntity
  8
一般
370
               9
  6
Continuous
 62
               0
100
AcDbLine
 10
2278.507746285441
 20
-450.33782801630451
 30
0.0
 11
2261.964391476276
 21
-534.38682801630455
 31
0.0
  0
LINE
  5
152
100
AcDbEntity
  8
一般
370
               9
  6
Continuous
 62
               0
100
AcDbLine
 10
2269.816351200539
 20
-453.07064287241502
 30
0.0
 11
2254.1149972705111
 21
-532.84183267569415
 31
0.0
  0
ENDBLK
  5
153
100
AcDbEntity
  8
一般
100
AcDbBlockEnd
  0
BLOCK
  5
154
100
AcDbEntity
  8
一般
100
AcDbBlockBegin
  2
グループ-4-4
 70
               0
 10
0.0
 20
0.0
 30
0.0
  3
グループ-4-4
  1

  0
WIPEOUT
  5
155
100
AcDbEntity
  8
一般
370
               5
  6
Continuous
 62
               0
 92
        0
100
AcDbWipeout
 90
        0
 10
2228.0047755649089
 20
-166.022232113174
 30
0.0
 11
569.8537413775889
 21
0.0
 31
0.0
 12
0.0
 22
569.8537413775889
 32
0.0
 13
1.0
 23
1.0
340
0
 70
               7
280
               1
281
              50
282
              50
283
               0
360
0
 71
               2
 91
        9
 14
-0.4231315266061169
 24
-0.4977395037664659
 14
-0.4852060653455561
 24
-0.0089025111933837
 14
-0.3974642530708347
 24
0.0788393010813376
 14
-0.4501093404356667
 24
0.5
 14
-0.4640396219049419
 24
0.4982587148163407
 14
-0.4122461689244833
 24
0.0839110909726658
 14
-0.5
 24
-0.0038427401028511
 14
-0.4369959035051251
 24
-0.5
 14
-0.4231315266061169
 24
-0.4977395037664659
  0
LINE
  5
156
100
AcDbEntity
  8
一般
370
               9
  6
Continuous
 62
               0
100
AcDbLine
 10
2271.8085627223968
 20
402.54335702836562
 30
0.0
 11
2236.4351545774389
 21
123.977767886826
 31
0.0
  0
LINE
  5
157
100
AcDbEntity
  8
一般
370
               9
  6
Continuous
 62
               0
100
AcDbLine
 10
2263.907895674628
 20
403.83150926441482
 30
0.0
 11
2228.0047755649089
 21
121.0944384003718
 31
0.0
  0
LINE
  5
158
100
AcDbEntity
  8
一般
370
               9
  6
Continuous
 62
               0
100
AcDbLine
 10
2236.4351545774389
 20
123.977767886826
 30
0.0
 11
2286.4351545774389
 21
73.977767886825958
 31
0.0
  0
LINE
  5
159
100
AcDbEntity
  8
一般
370
               9
  6
Continuous
 62
               0
100
AcDbLine
 10
2228.0047755649089
 20
121.0944384003718
 30
0.0
 11
2278.011624523509
 21
71.087589441771556
 31
0.0
  0
LINE
  5
15A
100
AcDbEntity
  8
一般
370
               9
  6
Continuous
 62
               0
100
AcDbLine
 10
2286.4351545774389
 20
73.977767886825958
 30
0.0
 11
2256.4351545774389
 21
-166.022232113174
 31
0.0
  0
LINE
  5
15B
100
AcDbEntity
  8
一般
370
               9
  6
Continuous
 62
               0
100
AcDbLine
 10
2278.011624523509
 20
71.087589441771556
 30
0.0
 11
2248.49693156373
 21
-165.02995423646041
 31
0.0
  0
ENDBLK
  5
15C
100
AcDbEntity
  8
一般
100
AcDbBlockEnd
  0
BLOCK
  5
15D
100
AcDbEntity
  8
寸法
100
AcDbBlockBegin
  2
*D21
 70
               1
 10
0.0
 20
0.0
 30
0.0
  3
*D21
  1

  0
LINE
  5
15E
100
AcDbEntity
  8
寸法
370
              -2
  6
Continuous
 62
               0
100
AcDbLine
 10
1910.4921517331591
 20
384.20731867551223
 30
0.0
 11
1910.4921517331591
 21
516.18613509316606
 31
0.0
  0
LINE
  5
15F
100
AcDbEntity
  8
寸法
370
              -2
  6
Continuous
 62
               0
100
AcDbLine
 10
710.49215173315883
 20
384.20731867551223
 30
0.0
 11
710.49215173315883
 21
516.18613509316606
 31
0.0
  0
LINE
  5
160
100
AcDbEntity
  8
寸法
370
              -2
  6
Continuous
 62
               0
100
AcDbLine
 10
1910.4921517331591
 20
516.18613509316606
 30
0.0
 11
710.49215173315883
 21
516.18613509316606
 31
0.0
  0
SOLID
  5
161
100
AcDbEntity
  8
寸法
370
              -2
 62
               0
100
AcDbTrace
 10
1910.4921517331591
 20
516.18613509316606
 30
0.0
 11
1902.9887337644091
 21
514.17560030796631
 31
0.0
 12
1902.9887337644091
 22
518.19666987836581
 32
0.0
 13
1902.9887337644091
 23
518.19666987836581
 33
0.0
  0
SOLID
  5
162
100
AcDbEntity
  8
寸法
370
              -2
 62
               0
100
AcDbTrace
 10
710.49215173315883
 20
516.18613509316606
 30
0.0
 11
717.99556970190883
 21
518.19666987836581
 31
0.0
 12
717.99556970190883
 22
514.17560030796631
 32
0.0
 13
717.99556970190883
 23
514.17560030796631
 33
0.0
  0
WIPEOUT
  5
163
100
AcDbEntity
  8
寸法
370
              -2
  6
Continuous
 62
               0
 92
        0
100
AcDbWipeout
 90
        0
 10
1220.5338183998256
 20
2154.596286072675
 30
0.0
 11
179.91666666666663
 21
0.0
 31
0.0
 12
0.0
 22
179.91666666666663
 32
0.0
 13
1.0
 23
1.0
340
0
 70
               7
280
               1
281
              50
282
              50
283
               0
360
0
 71
               2
 91
        5
 14
-0.5
 24
9.5313286143888298
 14
0.5000000000000007
 24
9.5313286143888298
 14
0.5000000000000007
 24
9.4136815555653008
 14
-0.5
 24
9.4136815555653008
 14
-0.5
 24
9.5313286143888298
  0
MTEXT
  5
164
100
AcDbEntity
  8
寸法
 62
               0
100
AcDbMText
 10
1220.5338183998256
 20
548.96149099221816
 30
0.0
 40
16.288411458333332
 41
0.0
 71
               1
 72
               1
  1
間口1800～750対応
  7
ＭＳ ゴシック
 73
               1
 44
0.7828267384257843
  0
POINT
  5
165
100
AcDbEntity
  8
Defpoints
370
               0
 62
               0
100
AcDbPoint
 10
710.49215173315883
 20
379.20731867551223
 30
0.0
  0
POINT
  5
166
100
AcDbEntity
  8
Defpoints
370
               0
 62
               0
100
AcDbPoint
 10
1910.4921517331591
 20
379.20731867551223
 30
0.0
  0
POINT
  5
167
100
AcDbEntity
  8
Defpoints
370
               0
 62
               0
100
AcDbPoint
 10
1910.4921517331591
 20
516.18613509316606
 30
0.0
  0
ENDBLK
  5
168
100
AcDbEntity
  8
寸法
100
AcDbBlockEnd
  0
BLOCK
  5
169
100
AcDbEntity
  8
寸法
100
AcDbBlockBegin
  2
*D22
 70
               1
 10
0.0
 20
0.0
 30
0.0
  3
*D22
  1

  0
LINE
  5
16A
100
AcDbEntity
  8
寸法
370
              -2
  6
Continuous
 62
               0
100
AcDbLine
 10
1915.4921517331591
 20
-74.792681343114182
 30
0.0
 11
2019.4921517331591
 21
-74.792681343114182
 31
0.0
  0
LINE
  5
16B
100
AcDbEntity
  8
寸法
370
              -2
  6
Continuous
 62
               0
100
AcDbLine
 10
1314.426591299009
 20
-184.7924037345297
 30
0.0
 11
2019.4921517331591
 21
-184.7924037345297
 31
0.0
  0
LINE
  5
16C
100
AcDbEntity
  8
寸法
370
              -2
  6
Continuous
 62
               0
100
AcDbLine
 10
2019.4921517331591
 20
-74.792681343114182
 30
0.0
 11
2019.4921517331591
 21
-184.7924037345297
 31
0.0
  0
SOLID
  5
16D
100
AcDbEntity
  8
寸法
370
              -2
 62
               0
100
AcDbTrace
 10
2019.4921517331591
 20
-74.792681343114182
 30
0.0
 11
2021.5026865183586
 21
-82.296099311864182
 31
0.0
 12
2017.4816169479591
 22
-82.296099311864182
 32
0.0
 13
2017.4816169479591
 23
-82.296099311864182
 33
0.0
  0
SOLID
  5
16E
100
AcDbEntity
  8
寸法
370
              -2
 62
               0
100
AcDbTrace
 10
2019.4921517331591
 20
-184.7924037345297
 30
0.0
 11
2017.4816169479591
 21
-177.2889857657797
 31
0.0
 12
2021.5026865183586
 22
-177.2889857657797
 32
0.0
 13
2021.5026865183586
 23
-177.2889857657797
 33
0.0
  0
WIPEOUT
  5
16F
100
AcDbEntity
  8
寸法
370
              -2
  6
Continuous
 62
               0
 92
        0
100
AcDbWipeout
 90
        0
 10
1997.3254850664923
 20
1479.2189973333013
 30
0.0
 11
31.75
 21
0.0
 31
0.0
 12
0.0
 22
31.75
 32
0.0
 13
1.0
 23
1.0
340
0
 70
               7
280
               1
281
              50
282
              50
283
               0
360
0
 71
               2
 91
        5
 14
0.1666666666666691
 24
51.67752881487003
 14
0.1666666666666691
 24
50.67752881487003
 14
-0.5
 24
50.67752881487003
 14
-0.5
 24
51.67752881487003
 14
0.1666666666666691
 24
51.67752881487003
  0
MTEXT
  5
170
100
AcDbEntity
  8
寸法
 62
               0
100
AcDbMText
 10
1999.2404069414924
 20
-145.667542538822
 30
0.0
 40
16.288411458333332
 41
0.0
 71
               1
 72
               1
  1
110
  7
ＭＳ ゴシック
 11
0.0
 21
1.0
 31
0.0
 73
               1
 44
0.7828267384257843
  0
POINT
  5
171
100
AcDbEntity
  8
Defpoints
370
               0
 62
               0
100
AcDbPoint
 10
1309.426591299009
 20
-184.7924037345297
 30
0.0
  0
POINT
  5
172
100
AcDbEntity
  8
Defpoints
370
               0
 62
               0
100
AcDbPoint
 10
1910.4921517331591
 20
-74.792681343114182
 30
0.0
  0
POINT
  5
173
100
AcDbEntity
  8
Defpoints
370
               0
 62
               0
100
AcDbPoint
 10
2019.4921517331591
 20
-74.792681343114182
 30
0.0
  0
ENDBLK
  5
174
100
AcDbEntity
  8
寸法
100
AcDbBlockEnd
  0
BLOCK
  5
175
100
AcDbEntity
  8
一般
100
AcDbBlockBegin
  2
グループ-5-4
 70
               0
 10
0.0
 20
0.0
 30
0.0
  3
グループ-5-4
  1

  0
WIPEOUT
  5
176
100
AcDbEntity
  8
一般
370
               5
  6
Continuous
 62
               0
 92
        0
100
AcDbWipeout
 90
        0
 10
1250.7143837755541
 20
-166.022232113174
 30
0.0
 11
569.8537413775889
 21
0.0
 31
0.0
 12
0.0
 22
569.8537413775889
 32
0.0
 13
1.0
 23
1.0
340
0
 70
               7
280
               1
281
              50
282
              50
283
               0
360
0
 71
               2
 91
        9
 14
-0.4231315266061165
 24
-0.4977395037664659
 14
-0.4852060653455561
 24
-0.0089025111933837
 14
-0.3974642530708347
 24
0.0788393010813376
 14
-0.4501093404356675
 24
0.5
 14
-0.4640396219049427
 24
0.4982587148163407
 14
-0.4122461689244833
 24
0.0839110909726658
 14
-0.5
 24
-0.0038427401028511
 14
-0.4369959035051251
 24
-0.5
 14
-0.4231315266061165
 24
-0.4977395037664659
  0
LINE
  5
177
100
AcDbEntity
  8
一般
370
               9
  6
Continuous
 62
               0
100
AcDbLine
 10
1294.518170933042
 20
402.54335702836562
 30
0.0
 11
1259.1447627880841
 21
123.977767886826
 31
0.0
  0
LINE
  5
178
100
AcDbEntity
  8
一般
370
               9
  6
Continuous
 62
               0
100
AcDbLine
 10
1286.617503885273
 20
403.83150926441482
 30
0.0
 11
1250.7143837755541
 21
121.0944384003718
 31
0.0
  0
LINE
  5
179
100
AcDbEntity
  8
一般
370
               9
  6
Continuous
 62
               0
100
AcDbLine
 10
1259.1447627880841
 20
123.977767886826
 30
0.0
 11
1309.1447627880841
 21
73.977767886825958
 31
0.0
  0
LINE
  5
17A
100
AcDbEntity
  8
一般
370
               9
  6
Continuous
 62
               0
100
AcDbLine
 10
1250.7143837755541
 20
121.0944384003718
 30
0.0
 11
1300.721232734154
 21
71.087589441771556
 31
0.0
  0
LINE
  5
17B
100
AcDbEntity
  8
一般
370
               9
  6
Continuous
 62
               0
100
AcDbLine
 10
1309.1447627880841
 20
73.977767886825958
 30
0.0
 11
1279.1447627880841
 21
-166.022232113174
 31
0.0
  0
LINE
  5
17C
100
AcDbEntity
  8
一般
370
               9
  6
Continuous
 62
               0
100
AcDbLine
 10
1300.721232734154
 20
71.087589441771556
 30
0.0
 11
1271.206539774375
 21
-165.02995423646041
 31
0.0
  0
ENDBLK
  5
17D
100
AcDbEntity
  8
一般
100
AcDbBlockEnd
  0
BLOCK
  5
17E
100
AcDbEntity
  8
一般
100
AcDbBlockBegin
  2
グループ-6-4
 70
               0
 10
0.0
 20
0.0
 30
0.0
  3
グループ-6-4
  1

  0
POINT
  5
17F
100
AcDbEntity
  8
3
370
               5
  6
Continuous
 62
               0
100
AcDbPoint
 10
2759.3008767233459
 20
262.17592558952111
 30
0.0
  0
ENDBLK
  5
180
100
AcDbEntity
  8
一般
100
AcDbBlockEnd
  0
BLOCK
  5
181
100
AcDbEntity
  8
一般
100
AcDbBlockBegin
  2
グループ-7-3
 70
               0
 10
0.0
 20
0.0
 30
0.0
  3
グループ-7-3
  1

  0
POINT
  5
182
100
AcDbEntity
  8
3
370
               5
  6
Continuous
 62
               0
100
AcDbPoint
 10
2764.3008767233459
 20
242.17592558952151
 30
0.0
  0
ENDBLK
  5
183
100
AcDbEntity
  8
一般
100
AcDbBlockEnd
  0
BLOCK
  5
184
100
AcDbEntity
  8
一般
100
AcDbBlockBegin
  2
グループ-8-3
 70
               0
 10
0.0
 20
0.0
 30
0.0
  3
グループ-8-3
  1

  0
ARC
  5
185
100
AcDbEntity
  8
3
370
              25
  6
Continuous
 62
               0
100
AcDbCircle
 10
2763.3008767233459
 20
-197.82407441047889
 30
0.0
 40
5.0
100
AcDbArc
 50
180.0
 51
270.0
  0
LINE
  5
186
100
AcDbEntity
  8
3
370
              25
  6
Continuous
 62
               0
100
AcDbLine
 10
2758.3008767233459
 20
-197.82407441047889
 30
0.0
 11
2758.3008767233459
 21
323.53605347053212
 31
0.0
  0
LINE
  5
187
100
AcDbEntity
  8
3
370
              20
  6
Continuous
 62
               0
100
AcDbLine
 10
2766.9823522965821
 20
242.1140070784509
 30
0.0
 11
2870.068967327376
 21
236.71146651088131
 31
0.0
  0
LINE
  5
188
100
AcDbEntity
  8
3
370
               9
  6
Continuous
 62
               0
100
AcDbLine
 10
2772.1021463193938
 20
247.85392411931639
 30
0.0
 11
2870.3829830648328
 21
242.7032437194091
 31
0.0
  0
LINE
  5
189
100
AcDbEntity
  8
3
370
              25
  6
Continuous
 62
               0
100
AcDbLine
 10
2764.728047940308
 20
-157.39692476278219
 30
0.0
 11
2817.3758232775108
 21
-104.7491494255876
 31
0.0
  0
LINE
  5
18A
100
AcDbEntity
  8
3
370
               9
  6
Continuous
 62
               0
100
AcDbLine
 10
2771.31590848631
 20
-159.2943455910183
 30
0.0
 11
2821.6184639646299
 21
-108.9917901127067
 31
0.0
  0
LINE
  5
18B
100
AcDbEntity
  8
3
370
              20
  6
Continuous
 62
               0
100
AcDbLine
 10
2905.381200251089
 20
102.175925589522
 30
0.0
 11
2904.8301099963242
 21
91.658542818156761
 31
0.0
  0
POINT
  5
18C
100
AcDbEntity
  8
3
370
               5
  6
Continuous
 62
               0
100
AcDbPoint
 10
2764.3008767233459
 20
245.4538601848096
 30
0.0
  0
LINE
  5
18D
100
AcDbEntity
  8
3
370
              25
  6
Continuous
 62
               0
100
AcDbLine
 10
2763.8581304715849
 20
262.09950691876543
 30
0.0
 11
2762.493809701346
 21
323.49394157953998
 31
0.0
  0
LINE
  5
18E
100
AcDbEntity
  8
3
370
               9
  6
Continuous
 62
               0
100
AcDbLine
 10
2771.154729097806
 20
248.83033691678591
 30
0.0
 11
2769.5160205794509
 21
322.57222024276211
 31
0.0
  0
INSERT
  5
18F
100
AcDbEntity
  8
3
 62
               0
100
AcDbBlockReference
  2
グループ-6-4
 10
0.0
 20
0.0
 30
0.0
  0
INSERT
  5
190
100
AcDbEntity
  8
3
 62
               0
100
AcDbBlockReference
  2
グループ-7-3
 10
0.0
 20
0.0
 30
0.0
  0
POINT
  5
191
100
AcDbEntity
  8
3
370
               5
  6
Continuous
 62
               0
100
AcDbPoint
 10
2770.3008767233459
 20
-202.82407441047889
 30
0.0
  0
LINE
  5
192
100
AcDbEntity
  8
3
370
              25
  6
Continuous
 62
               0
100
AcDbLine
 10
2763.3008767233459
 20
-202.82407441047889
 30
0.0
 11
2788.3008767233459
 21
-202.82407441047889
 31
0.0
  0
LINE
  5
193
100
AcDbEntity
  8
3
370
               9
  6
Continuous
 62
               0
100
AcDbLine
 10
2766.7638710721408
 20
-194.82407441047889
 30
0.0
 11
2788.3008767233459
 21
-194.82407441047889
 31
0.0
  0
LINE
  5
194
100
AcDbEntity
  8
3
370
               9
  6
Continuous
 62
               0
100
AcDbLine
 10
2788.3008767233459
 20
-202.82407441047889
 30
0.0
 11
2788.3008767233459
 21
-194.82407441047889
 31
0.0
  0
POINT
  5
195
100
AcDbEntity
  8
3
370
               5
  6
Continuous
 62
               0
100
AcDbPoint
 10
2760.3008767233459
 20
-202.82407441047889
 30
0.0
  0
POINT
  5
196
100
AcDbEntity
  8
一般
370
               5
  6
Continuous
 62
               0
100
AcDbPoint
 10
2758.3008767233459
 20
-202.82407441047889
 30
0.0
  0
LINE
  5
197
100
AcDbEntity
  8
一般
370
              25
  6
Continuous
 62
               0
100
AcDbLine
 10
2758.3008767233459
 20
-63.683900784513092
 30
0.0
 11
2758.3008767233459
 21
-121.98861081489331
 31
0.0
  0
POINT
  5
198
100
AcDbEntity
  8
一般
370
               5
  6
Continuous
 62
               0
100
AcDbPoint
 10
2738.3008767233459
 20
357.17592558952151
 30
0.0
  0
LINE
  5
199
100
AcDbEntity
  8
一般
370
               9
  6
Continuous
 62
               0
100
AcDbLine
 10
2764.3008767233459
 20
-157.8240959797433
 30
0.0
 11
2764.3008767233459
 21
241.175925589522
 31
0.0
  0
POINT
  5
19A
100
AcDbEntity
  8
一般
370
               5
  6
Continuous
 62
               0
100
AcDbPoint
 10
2818.3008767233459
 20
-152.8240959797433
 30
0.0
  0
LINE
  5
19B
100
AcDbEntity
  8
3
370
               9
  6
STYLE_11
 62
               0
100
AcDbLine
 10
2878.8008767233459
 20
162.175925589522
 30
0.0
 11
2950.3008767233459
 21
162.175925589522
 31
0.0
  0
POINT
  5
19C
100
AcDbEntity
  8
一般
370
               5
  6
Continuous
 62
               0
100
AcDbPoint
 10
2758.3008767233459
 20
-197.82407441047889
 30
0.0
  0
ARC
  5
19D
100
AcDbEntity
  8
3
370
              25
  6
Continuous
 62
               0
100
AcDbCircle
 10
2605.2437889215648
 20
107.3828849303943
 30
0.0
 40
299.99999999999983
100
AcDbArc
 50
314.99999999999523
 51
356.99999999999392
  0
ARC
  5
19E
100
AcDbEntity
  8
3
370
               9
  6
Continuous
 62
               0
100
AcDbCircle
 10
2605.2437889215648
 20
107.3828849303943
 30
0.0
 40
305.99999999999932
100
AcDbArc
 50
314.99999999999523
 51
356.99999999999392
  0
ARC
  5
19F
100
AcDbEntity
  8
一般
370
              25
  6
Continuous
 62
               0
100
AcDbCircle
 10
2766.1422615026831
 20
-158.81113832515831
 30
0.0
 40
2.0000000000035532
100
AcDbArc
 50
134.99999999998158
 51
168.65790694408213
  0
POINT
  5
1A0
100
AcDbEntity
  8
一般
370
               5
  6
Continuous
 62
               0
100
AcDbPoint
 10
2905.382607545072
 20
222.175925589522
 30
0.0
  0
ARC
  5
1A1
100
AcDbEntity
  8
3
370
               9
  6
Continuous
 62
               0
100
AcDbCircle
 10
2766.7638710721408
 20
-193.82407441047889
 30
0.0
 40
0.9999999999999861
100
AcDbArc
 50
173.66404693872929
 51
270.0
  0
ARC
  5
1A2
100
AcDbEntity
  8
一般
370
               9
  6
Continuous
 62
               0
100
AcDbCircle
 10
2772.0230152674981
 20
-160.00145237220681
 30
0.0
 40
1.0000000000024196
100
AcDbArc
 50
134.99999999998158
 51
168.65944463502785
  0
ARC
  5
1A3
100
AcDbEntity
  8
3
370
               9
  6
Continuous
 62
               0
100
AcDbCircle
 10
2772.1544822756368
 20
248.85255365407079
 30
0.0
 40
0.9999999999996653
100
AcDbArc
 50
181.27303002004342
 51
266.99999999999335
  0
LINE
  5
1A4
100
AcDbEntity
  8
2
370
               9
  6
Continuous
 62
               0
100
AcDbLine
 10
2931.525769398992
 20
186.7333469992943
 30
0.0
 11
2931.525769398992
 21
137.61850417974941
 31
0.0
  0
LINE
  5
1A5
100
AcDbEntity
  8
2
370
               9
  6
Continuous
 62
               0
100
AcDbLine
 10
2926.5270743020528
 20
188.0870073267163
 30
0.0
 11
2926.5270743020528
 21
137.24384587294
 31
0.0
  0
POINT
  5
1A6
100
AcDbEntity
  8
一般
370
               5
  6
Continuous
 62
               0
100
AcDbPoint
 10
2931.525769398992
 20
162.175925589522
 30
0.0
  0
LINE
  5
1A7
100
AcDbEntity
  8
2
370
               9
  6
Continuous
 62
               0
100
AcDbLine
 10
2931.525769398992
 20
186.90466853696631
 30
0.0
 11
2931.525769398992
 21
195.46251478177209
 31
0.0
  0
LINE
  5
1A8
100
AcDbEntity
  8
2
370
              20
  6
Continuous
 62
               0
100
AcDbLine
 10
2926.0270743020528
 20
189.95935128729371
 30
0.0
 11
2913.8670369682168
 21
196.97995211534021
 31
0.0
  0
LINE
  5
1A9
100
AcDbEntity
  8
2
370
              20
  6
Continuous
 62
               0
100
AcDbLine
 10
2913.8670369682168
 20
196.97995211534021
 30
0.0
 11
2914.6428846920071
 21
196.5320162231599
 31
0.0
  0
LINE
  5
1AA
100
AcDbEntity
  8
2
370
               9
  6
Continuous
 62
               0
100
AcDbLine
 10
2923.272602932158
 20
198.47784930445391
 30
0.0
 11
2916.8670369681931
 21
202.17610453806111
 31
0.0
  0
LINE
  5
1AB
100
AcDbEntity
  8
2
370
              20
  6
Continuous
 62
               0
100
AcDbLine
 10
2927.4399185593061
 20
187.09081262862469
 30
0.0
 11
2931.525769398992
 21
186.7333469992943
 31
0.0
  0
POINT
  5
1AC
100
AcDbEntity
  8
一般
370
               5
  6
Continuous
 62
               0
100
AcDbPoint
 10
2926.5270743020528
 20
187.17067615269909
 30
0.0
  0
POINT
  5
1AD
100
AcDbEntity
  8
一般
370
               5
  6
Continuous
 62
               0
100
AcDbPoint
 10
2931.525769398992
 20
186.67067615269909
 30
0.0
  0
LINE
  5
1AE
100
AcDbEntity
  8
一般
370
              20
  6
Continuous
 62
               0
100
AcDbLine
 10
2926.5270743020528
 20
189.00333850073389
 30
0.0
 11
2926.5270743020528
 21
189.01597561431959
 31
0.0
  0
POINT
  5
1AF
100
AcDbEntity
  8
一般
370
               5
  6
Continuous
 62
               0
100
AcDbPoint
 10
2926.5270743020528
 20
189.67067615269909
 30
0.0
  0
LINE
  5
1B0
100
AcDbEntity
  8
一般
370
               9
  6
Continuous
 62
               0
100
AcDbLine
 10
2929.8386383290731
 20
197.4378914629622
 30
0.0
 11
2923.272602932158
 21
198.47784930445391
 31
0.0
  0
POINT
  5
1B1
100
AcDbEntity
  8
一般
370
               5
  6
Continuous
 62
               0
100
AcDbPoint
 10
2906.4780664415521
 20
201.24597623794421
 30
0.0
  0
POINT
  5
1B2
100
AcDbEntity
  8
一般
370
               5
  6
Continuous
 62
               0
100
AcDbPoint
 10
2931.525769398992
 20
197.17067615269909
 30
0.0
  0
LINE
  5
1B3
100
AcDbEntity
  8
一般
370
              20
  6
Continuous
 62
               0
100
AcDbLine
 10
2926.5270743020528
 20
188.0870073267163
 30
0.0
 11
2926.5270743020528
 21
189.0933258835091
 31
0.0
  0
ARC
  5
1B4
100
AcDbEntity
  8
一般
370
              20
  6
Continuous
 62
               0
100
AcDbCircle
 10
2925.5270743020528
 20
189.0933258835091
 30
0.0
 40
1.0
100
AcDbArc
 50
0.0
 51
60.00000000000108
  0
ARC
  5
1B5
100
AcDbEntity
  8
一般
370
              20
  6
Continuous
 62
               0
100
AcDbCircle
 10
2927.5270743020528
 20
188.0870073267163
 30
0.0
 40
1.0
100
AcDbArc
 50
180.0
 51
265.00000000002638
  0
ARC
  5
1B6
100
AcDbEntity
  8
2
370
              20
  6
Continuous
 62
               0
100
AcDbCircle
 10
2921.3670369682159
 20
209.97033317210639
 30
0.0
 40
14.999999999999561
100
AcDbArc
 50
193.89088438894606
 51
240.00000000000097
  0
POINT
  5
1B7
100
AcDbEntity
  8
一般
370
               5
  6
Continuous
 62
               0
100
AcDbPoint
 10
2905.381200251089
 20
222.175925589522
 30
0.0
  0
LINE
  5
1B8
100
AcDbEntity
  8
2
370
               9
  6
Continuous
 62
               0
100
AcDbLine
 10
2931.525769398992
 20
137.66677849050211
 30
0.0
 11
2931.525769398992
 21
128.88933639727179
 31
0.0
  0
LINE
  5
1B9
100
AcDbEntity
  8
2
370
              20
  6
Continuous
 62
               0
100
AcDbLine
 10
2926.0270743020528
 20
134.39249989174979
 30
0.0
 11
2913.8670369682168
 21
127.3718990637033
 31
0.0
  0
LINE
  5
1BA
100
AcDbEntity
  8
2
370
              20
  6
Continuous
 62
               0
100
AcDbLine
 10
2913.8670369682168
 20
127.3718990637033
 30
0.0
 11
2914.6428846920071
 21
127.81983495588359
 31
0.0
  0
LINE
  5
1BB
100
AcDbEntity
  8
2
370
               9
  6
Continuous
 62
               0
100
AcDbLine
 10
2923.272602932158
 20
125.8740018745896
 30
0.0
 11
2916.5312782855972
 21
121.9818962752031
 31
0.0
  0
LINE
  5
1BC
100
AcDbEntity
  8
2
370
              20
  6
Continuous
 62
               0
100
AcDbLine
 10
2927.4399185593061
 20
137.26103855041879
 30
0.0
 11
2931.525769398992
 21
137.61850417974941
 31
0.0
  0
POINT
  5
1BD
100
AcDbEntity
  8
一般
370
               5
  6
Continuous
 62
               0
100
AcDbPoint
 10
2926.5270743020528
 20
137.18117502634479
 30
0.0
  0
POINT
  5
1BE
100
AcDbEntity
  8
一般
370
               5
  6
Continuous
 62
               0
100
AcDbPoint
 10
2931.525769398992
 20
137.68117502634479
 30
0.0
  0
LINE
  5
1BF
100
AcDbEntity
  8
一般
370
              20
  6
Continuous
 62
               0
100
AcDbLine
 10
2926.5270743020528
 20
135.34851267830959
 30
0.0
 11
2926.5270743020528
 21
135.33587556472389
 31
0.0
  0
POINT
  5
1C0
100
AcDbEntity
  8
一般
370
               5
  6
Continuous
 62
               0
100
AcDbPoint
 10
2926.5270743020528
 20
134.68117502634479
 30
0.0
  0
LINE
  5
1C1
100
AcDbEntity
  8
一般
370
               9
  6
Continuous
 62
               0
100
AcDbLine
 10
2929.8386383290731
 20
126.91395971608129
 30
0.0
 11
2923.272602932158
 21
125.8740018745896
 31
0.0
  0
POINT
  5
1C2
100
AcDbEntity
  8
一般
370
               5
  6
Continuous
 62
               0
100
AcDbPoint
 10
2906.4780664415521
 20
123.1058749410993
 30
0.0
  0
POINT
  5
1C3
100
AcDbEntity
  8
一般
370
               5
  6
Continuous
 62
               0
100
AcDbPoint
 10
2931.525769398992
 20
127.1811750263448
 30
0.0
  0
LINE
  5
1C4
100
AcDbEntity
  8
一般
370
              20
  6
Continuous
 62
               0
100
AcDbLine
 10
2926.5270743020528
 20
136.2648438523272
 30
0.0
 11
2926.5270743020528
 21
135.25852529553441
 31
0.0
  0
ARC
  5
1C5
100
AcDbEntity
  8
一般
370
              20
  6
Continuous
 62
               0
100
AcDbCircle
 10
2925.5270743020528
 20
135.25852529553441
 30
0.0
 40
1.0000000000000819
100
AcDbArc
 50
299.99999999999727
 51
0.0
  0
ARC
  5
1C6
100
AcDbEntity
  8
一般
370
              20
  6
Continuous
 62
               0
100
AcDbCircle
 10
2927.5270743020528
 20
136.2648438523272
 30
0.0
 40
0.9999999999998006
100
AcDbArc
 50
94.999999999974634
 51
180.0
  0
ARC
  5
1C7
100
AcDbEntity
  8
一般
370
              20
  6
Continuous
 62
               0
100
AcDbCircle
 10
3204.9382472812008
 20
85.87943594913871
 30
0.0
 40
300.0
100
AcDbArc
 50
174.26040884152101
 51
176.8860670072163
  0
ARC
  5
1C8
100
AcDbEntity
  8
一般
370
               9
  6
Continuous
 62
               0
100
AcDbCircle
 10
3204.9382472812008
 20
85.87943594913871
 30
0.0
 40
293.99999999999994
100
AcDbArc
 50
174.26040884152101
 51
176.8860670072163
  0
ARC
  5
1C9
100
AcDbEntity
  8
2
370
              20
  6
Continuous
 62
               0
100
AcDbCircle
 10
2921.3670369682159
 20
114.3815180069371
 30
0.0
 40
14.999999999999428
100
AcDbArc
 50
119.99999999999925
 51
174.26040884152243
  0
ARC
  5
1CA
100
AcDbEntity
  8
2
370
               9
  6
Continuous
 62
               0
100
AcDbCircle
 10
2921.3670369682159
 20
114.3815180069371
 30
0.0
 40
8.9999999999993303
100
AcDbArc
 50
119.99999999999912
 51
174.26040884152238
  0
POINT
  5
1CB
100
AcDbEntity
  8
一般
370
               5
  6
Continuous
 62
               0
100
AcDbPoint
 10
2905.381200251089
 20
102.175925589522
 30
0.0
  0
ARC
  5
1CC
100
AcDbEntity
  8
一般
370
               9
  6
Continuous
 62
               0
100
AcDbCircle
 10
2929.525769398992
 20
128.88933639727131
 30
0.0
 40
1.9999999999997971
100
AcDbArc
 50
279.00000000000608
 51
0.000000000013074
  0
ARC
  5
1CD
100
AcDbEntity
  8
一般
370
               9
  6
Continuous
 62
               0
100
AcDbCircle
 10
2929.525769398992
 20
195.46251478177209
 30
0.0
 40
2.0
100
AcDbArc
 50
0.0
 51
80.999999999994884
  0
LINE
  5
1CE
100
AcDbEntity
  8
2
370
               9
  6
Continuous
 62
               0
100
AcDbLine
 10
2908.5270743020528
 20
126.5568966603733
 30
0.0
 11
2908.5270743020528
 21
198.92638714571339
 31
0.0
  0
POINT
  5
1CF
100
AcDbEntity
  8
一般
370
               5
  6
Continuous
 62
               0
100
AcDbPoint
 10
2908.5270743020528
 20
162.175925589522
 30
0.0
  0
LINE
  5
1D0
100
AcDbEntity
  8
一般
370
               9
  6
Continuous
 62
               0
100
AcDbLine
 10
2911.3723411916908
 20
101.849995796714
 30
0.0
 11
2910.8244265564622
 21
91.368082320020889
 31
0.0
  0
ARC
  5
1D1
100
AcDbEntity
  8
2
370
              20
  6
Continuous
 62
               0
100
AcDbCircle
 10
2867.9755290778112
 20
196.7662851236216
 30
0.0
 40
39.999999997072592
100
AcDbArc
 50
13.890884384932264
 51
86.999999999999673
  0
ARC
  5
1D2
100
AcDbEntity
  8
2
370
               9
  6
Continuous
 62
               0
100
AcDbCircle
 10
2867.9755290778112
 20
196.7662851236216
 30
0.0
 40
45.999999997072862
100
AcDbArc
 50
13.89088438604743
 51
86.999999999999574
  0
ARC
  5
1D3
100
AcDbEntity
  8
2
370
               9
  6
Continuous
 62
               0
100
AcDbCircle
 10
2921.3670369681599
 20
209.97033317206461
 30
0.0
 40
8.9999999999349463
100
AcDbArc
 50
193.89088438574913
 51
239.99999999999824
  0
LINE
  5
1D4
100
AcDbEntity
  8
一般
370
              25
  6
Continuous
 62
               0
100
AcDbLine
 10
2738.3008767233459
 20
335.02281929005647
 30
0.0
 11
2738.3008767233459
 21
357.17592558952151
 31
0.0
  0
LINE
  5
1D5
100
AcDbEntity
  8
一般
370
               9
  6
Continuous
 62
               0
100
AcDbLine
 10
2743.3008767233459
 20
337.86971299020138
 30
0.0
 11
2743.3008767233459
 21
357.17592558952151
 31
0.0
  0
POINT
  5
1D6
100
AcDbEntity
  8
3
370
               5
  6
Continuous
 62
               0
100
AcDbPoint
 10
2738.3008767233459
 20
332.17592558952151
 30
0.0
  0
POINT
  5
1D7
100
AcDbEntity
  8
一般
370
               5
  6
Continuous
 62
               0
100
AcDbPoint
 10
2738.3008767233459
 20
357.17592558952151
 30
0.0
  0
POINT
  5
1D8
100
AcDbEntity
  8
一般
370
               5
  6
Continuous
 62
               0
100
AcDbPoint
 10
2757.3008767233459
 20
332.17592558952151
 30
0.0
  0
LINE
  5
1D9
100
AcDbEntity
  8
一般
370
               9
  6
Continuous
 62
               0
100
AcDbLine
 10
2738.3008767233459
 20
357.17592558952151
 30
0.0
 11
2742.3008767233459
 21
357.17592558952151
 31
0.0
  0
LINE
  5
1DA
100
AcDbEntity
  8
一般
370
              25
  6
Continuous
 62
               0
100
AcDbLine
 10
2741.1438688546182
 20
332.02693068579288
 30
0.0
 11
2754.914471928636
 21
331.30524395929552
 31
0.0
  0
LINE
  5
1DB
100
AcDbEntity
  8
一般
370
               9
  6
Continuous
 62
               0
100
AcDbLine
 10
2744.2485407671029
 20
336.87108345544652
 30
0.0
 11
2756.2521794772101
 21
336.24199940733411
 31
0.0
  0
ARC
  5
1DC
100
AcDbEntity
  8
一般
370
              25
  6
Continuous
 62
               0
100
AcDbCircle
 10
2750.3008767233459
 20
323.53605347053212
 30
0.0
 40
8.0
100
AcDbArc
 50
0.0
 51
87.000000000000966
  0
ARC
  5
1DD
100
AcDbEntity
  8
一般
370
              25
  6
Continuous
 62
               0
100
AcDbCircle
 10
2754.495784278693
 20
323.3162076812589
 30
0.0
 40
8.0000000000000888
100
AcDbArc
 50
1.2730300200559876
 51
87.000000000000966
  0
ARC
  5
1DE
100
AcDbEntity
  8
一般
370
              25
  6
Continuous
 62
               0
100
AcDbCircle
 10
2741.3008767233459
 20
335.02281929005647
 30
0.0
 40
3.0
100
AcDbArc
 50
180.0
 51
267.00000000000307
  0
ARC
  5
1DF
100
AcDbEntity
  8
一般
370
               9
  6
Continuous
 62
               0
100
AcDbCircle
 10
2744.3008767233459
 20
337.86971299020138
 30
0.0
 40
1.0
100
AcDbArc
 50
180.0
 51
266.99999999999437
  0
ARC
  5
1E0
100
AcDbEntity
  8
一般
370
               9
  6
Continuous
 62
               0
100
AcDbCircle
 10
2755.519476089808
 20
322.26118592077017
 30
0.0
 40
13.999999999999931
100
AcDbArc
 50
1.2730300200560083
 51
86.999999999999972
  0
ARC
  5
1E1
100
AcDbEntity
  8
一般
370
              25
  6
Continuous
 62
               0
100
AcDbCircle
 10
2767.0870242090682
 20
244.11126614796191
 30
0.0
 40
2.0000000000019869
100
AcDbArc
 50
186.51618215781642
 51
266.99999999999739
  0
SPLINE
  5
1E2
100
AcDbEntity
  8
一般
370
              25
  6
Continuous
 62
               0
100
AcDbSpline
210
0.0
220
0.0
230
1.0
 70
               8
 71
               2
 72
              10
 73
               7
 74
               0
 42
0.000001
 43
0.000001
 40
0.0
 40
0.0
 40
0.0
 40
1.0
 40
1.0
 40
2.0
 40
2.0
 40
3.0
 40
3.0
 40
3.0
 10
2758.3008767233459
 20
-197.82407441047889
 30
0.0
 10
2758.3824484859806
 20
-196.99700152938044
 30
0.0
 10
2758.4640202486157
 20
-196.16992864828197
 30
0.0
 10
2760.4087031392874
 20
-177.99672471562062
 30
0.0
 10
2763.8544271569644
 20
-160.04751529800663
 30
0.0
 10
2764.0178738901636
 20
-159.23266029954712
 30
0.0
 10
2764.1813206233628
 20
-158.41780530108761
 30
0.0
  0
SPLINE
  5
1E3
100
AcDbEntity
  8
一般
370
               9
  6
Continuous
 62
               0
100
AcDbSpline
210
0.0
220
0.0
230
1.0
 70
               8
 71
               2
 72
              10
 73
               7
 74
               0
 42
0.000001
 43
0.000001
 40
0.0
 40
0.0
 40
0.0
 40
1.0
 40
1.0
 40
2.0
 40
2.0
 40
3.0
 40
3.0
 40
3.0
 10
2765.7699791705732
 20
-193.71371641123429
 30
0.0
 10
2765.8376702630144
 20
-193.1040856726764
 30
0.0
 10
2765.9053613554556
 20
-192.49445493411852
 30
0.0
 10
2767.7636163387092
 20
-176.65933849990236
 30
0.0
 10
2770.8013102793025
 20
-161.00761528514892
 30
0.0
 10
2770.9219249147013
 20
-160.40621372951566
 30
0.0
 10
2771.0425395501002
 20
-159.8048121738824
 30
0.0
  0
SPLINE
  5
1E4
100
AcDbEntity
  8
一般
370
              25
  6
Continuous
 62
               0
100
AcDbSpline
210
0.0
220
0.0
230
1.0
 70
               8
 71
               2
 72
              10
 73
               7
 74
               0
 42
0.000001
 43
0.000001
 40
0.0
 40
0.0
 40
0.0
 40
1.0
 40
1.0
 40
2.0
 40
2.0
 40
3.0
 40
3.0
 40
3.0
 10
2765.099944521372
 20
243.8842984966218
 30
0.0
 10
2765.0674010211906
 20
244.16921367196062
 30
0.0
 10
2765.0348575210087
 20
244.45412884729947
 30
0.0
 10
2764.1077285957881
 20
253.00492722491873
 30
0.0
 10
2763.8690647936924
 20
261.60252924689257
 30
0.0
 10
2763.8627485362967
 20
261.88922741820681
 30
0.0
 10
2763.8564322789011
 20
262.17592558952111
 30
0.0
  0
ENDBLK
  5
1E5
100
AcDbEntity
  8
一般
100
AcDbBlockEnd
  0
BLOCK
  5
1E6
100
AcDbEntity
  8
一般
100
AcDbBlockBegin
  2
グループ-9-1
 70
               0
 10
0.0
 20
0.0
 30
0.0
  3
グループ-9-1
  1

  0
LINE
  5
1E7
100
AcDbEntity
  8
2
370
               9
  6
Continuous
 62
               0
100
AcDbLine
 10
1789.4947505631769
 20
-599.82276950741721
 30
0.0
 11
1740.5052494368231
 21
-599.82276950741721
 31
0.0
  0
LINE
  5
1E8
100
AcDbEntity
  8
2
370
               9
  6
Continuous
 62
               0
100
AcDbLine
 10
1790.911081737195
 20
-594.82407441047849
 30
0.0
 11
1740.0679202834181
 21
-594.82407441047849
 31
0.0
  0
POINT
  5
1E9
100
AcDbEntity
  8
一般
370
               5
  6
Continuous
 62
               0
100
AcDbPoint
 10
1765.0
 20
-599.82276950741721
 30
0.0
  0
LINE
  5
1EA
100
AcDbEntity
  8
2
370
               9
  6
Continuous
 62
               0
100
AcDbLine
 10
1789.5574214097719
 20
-599.82276950741709
 30
0.0
 11
1798.2865891922499
 21
-599.82276950741743
 31
0.0
  0
LINE
  5
1EB
100
AcDbEntity
  8
2
370
              20
  6
Continuous
 62
               0
100
AcDbLine
 10
1792.7834256977719
 20
-594.32407441047849
 30
0.0
 11
1799.8040265258189
 21
-582.16403707664176
 31
0.0
  0
LINE
  5
1EC
100
AcDbEntity
  8
2
370
              20
  6
Continuous
 62
               0
100
AcDbLine
 10
1799.8040265258189
 20
-582.16403707664176
 30
0.0
 11
1799.3560906336379
 21
-582.93988480043208
 31
0.0
  0
LINE
  5
1ED
100
AcDbEntity
  8
2
370
               9
  6
Continuous
 62
               0
100
AcDbLine
 10
1801.3019237149319
 20
-591.56960304058271
 30
0.0
 11
1805.194029314318
 21
-584.82827839402216
 31
0.0
  0
LINE
  5
1EE
100
AcDbEntity
  8
2
370
              20
  6
Continuous
 62
               0
100
AcDbLine
 10
1789.914887039103
 20
-595.73691866773083
 30
0.0
 11
1789.5574214097719
 21
-599.82276950741709
 31
0.0
  0
POINT
  5
1EF
100
AcDbEntity
  8
一般
370
               5
  6
Continuous
 62
               0
100
AcDbPoint
 10
1789.9947505631769
 20
-594.82407441047849
 30
0.0
  0
POINT
  5
1F0
100
AcDbEntity
  8
一般
370
               5
  6
Continuous
 62
               0
100
AcDbPoint
 10
1789.4947505631769
 20
-599.82276950741721
 30
0.0
  0
LINE
  5
1F1
100
AcDbEntity
  8
一般
370
              20
  6
Continuous
 62
               0
100
AcDbLine
 10
1791.8274129112119
 20
-594.82407441047849
 30
0.0
 11
1791.8400500247981
 21
-594.82407441047849
 31
0.0
  0
POINT
  5
1F2
100
AcDbEntity
  8
一般
370
               5
  6
Continuous
 62
               0
100
AcDbPoint
 10
1792.4947505631769
 20
-594.82407441047849
 30
0.0
  0
LINE
  5
1F3
100
AcDbEntity
  8
一般
370
               9
  6
Continuous
 62
               0
100
AcDbLine
 10
1800.2619658734411
 20
-598.13563843749785
 30
0.0
 11
1801.3019237149319
 21
-591.56960304058271
 31
0.0
  0
POINT
  5
1F4
100
AcDbEntity
  8
一般
370
               5
  6
Continuous
 62
               0
100
AcDbPoint
 10
1804.0700506484229
 20
-574.77506654997705
 30
0.0
  0
POINT
  5
1F5
100
AcDbEntity
  8
一般
370
               5
  6
Continuous
 62
               0
100
AcDbPoint
 10
1799.9947505631769
 20
-599.82276950741743
 30
0.0
  0
LINE
  5
1F6
100
AcDbEntity
  8
一般
370
              20
  6
Continuous
 62
               0
100
AcDbLine
 10
1790.911081737195
 20
-594.82407441047849
 30
0.0
 11
1791.9174002939881
 21
-594.82407441047849
 31
0.0
  0
ARC
  5
1F7
100
AcDbEntity
  8
一般
370
              20
  6
Continuous
 62
               0
100
AcDbCircle
 10
1791.9174002939881
 20
-593.82407441047849
 30
0.0
 40
1.0
100
AcDbArc
 50
270.0
 51
330.00000000000273
  0
ARC
  5
1F8
100
AcDbEntity
  8
一般
370
              20
  6
Continuous
 62
               0
100
AcDbCircle
 10
1790.911081737195
 20
-595.82407441047849
 30
0.0
 40
1.0
100
AcDbArc
 50
90.0
 51
175.00000000000054
  0
ARC
  5
1F9
100
AcDbEntity
  8
一般
370
              20
  6
Continuous
 62
               0
100
AcDbCircle
 10
1841.296489640383
 20
-873.23524738962601
 30
0.0
 40
300.00000000000017
100
AcDbArc
 50
93.113932992783674
 51
95.739591158478916
  0
ARC
  5
1FA
100
AcDbEntity
  8
一般
370
               9
  6
Continuous
 62
               0
100
AcDbCircle
 10
1841.296489640383
 20
-873.23524738962601
 30
0.0
 40
294.00000000000023
100
AcDbArc
 50
93.113932992783688
 51
95.739591158478859
  0
ARC
  5
1FB
100
AcDbEntity
  8
2
370
              20
  6
Continuous
 62
               0
100
AcDbCircle
 10
1812.794407582584
 20
-589.66403707664153
 30
0.0
 40
14.999999999999545
100
AcDbArc
 50
95.73959115847569
 51
149.99999999999926
  0
ARC
  5
1FC
100
AcDbEntity
  8
2
370
               9
  6
Continuous
 62
               0
100
AcDbCircle
 10
1812.794407582584
 20
-589.66403707664142
 30
0.0
 40
8.9999999999994156
100
AcDbArc
 50
95.739591158474738
 51
150.00000000000026
  0
POINT
  5
1FD
100
AcDbEntity
  8
一般
370
               5
  6
Continuous
 62
               0
100
AcDbPoint
 10
1825.0
 20
-573.67820035951354
 30
0.0
  0
LINE
  5
1FE
100
AcDbEntity
  8
2
370
               9
  6
Continuous
 62
               0
100
AcDbLine
 10
1740.4425785902281
 20
-599.82276950741709
 30
0.0
 11
1731.7134108077501
 21
-599.82276950741743
 31
0.0
  0
LINE
  5
1FF
100
AcDbEntity
  8
2
370
              20
  6
Continuous
 62
               0
100
AcDbLine
 10
1737.2165743022281
 20
-594.32407441047849
 30
0.0
 11
1730.1959734741811
 21
-582.16403707664176
 31
0.0
  0
LINE
  5
200
100
AcDbEntity
  8
2
370
              20
  6
Continuous
 62
               0
100
AcDbLine
 10
1730.1959734741811
 20
-582.16403707664176
 30
0.0
 11
1730.6439093663621
 21
-582.93988480043208
 31
0.0
  0
LINE
  5
201
100
AcDbEntity
  8
2
370
               9
  6
Continuous
 62
               0
100
AcDbLine
 10
1728.6980762850681
 20
-591.56960304058271
 30
0.0
 11
1724.805970685682
 21
-584.82827839402216
 31
0.0
  0
LINE
  5
202
100
AcDbEntity
  8
2
370
              20
  6
Continuous
 62
               0
100
AcDbLine
 10
1740.085112960897
 20
-595.73691866773083
 30
0.0
 11
1740.4425785902281
 21
-599.82276950741709
 31
0.0
  0
POINT
  5
203
100
AcDbEntity
  8
一般
370
               5
  6
Continuous
 62
               0
100
AcDbPoint
 10
1740.0052494368231
 20
-594.82407441047849
 30
0.0
  0
POINT
  5
204
100
AcDbEntity
  8
一般
370
               5
  6
Continuous
 62
               0
100
AcDbPoint
 10
1740.5052494368231
 20
-599.82276950741721
 30
0.0
  0
LINE
  5
205
100
AcDbEntity
  8
一般
370
              20
  6
Continuous
 62
               0
100
AcDbLine
 10
1738.1725870887881
 20
-594.82407441047849
 30
0.0
 11
1738.1599499752019
 21
-594.82407441047849
 31
0.0
  0
POINT
  5
206
100
AcDbEntity
  8
一般
370
               5
  6
Continuous
 62
               0
100
AcDbPoint
 10
1737.5052494368231
 20
-594.82407441047849
 30
0.0
  0
LINE
  5
207
100
AcDbEntity
  8
一般
370
               9
  6
Continuous
 62
               0
100
AcDbLine
 10
1729.7380341265589
 20
-598.13563843749785
 30
0.0
 11
1728.6980762850681
 21
-591.56960304058271
 31
0.0
  0
POINT
  5
208
100
AcDbEntity
  8
一般
370
               5
  6
Continuous
 62
               0
100
AcDbPoint
 10
1725.9299493515771
 20
-574.77506654997705
 30
0.0
  0
POINT
  5
209
100
AcDbEntity
  8
一般
370
               5
  6
Continuous
 62
               0
100
AcDbPoint
 10
1730.0052494368231
 20
-599.82276950741743
 30
0.0
  0
LINE
  5
20A
100
AcDbEntity
  8
一般
370
              20
  6
Continuous
 62
               0
100
AcDbLine
 10
1739.088918262805
 20
-594.82407441047849
 30
0.0
 11
1738.0825997060119
 21
-594.82407441047849
 31
0.0
  0
ARC
  5
20B
100
AcDbEntity
  8
一般
370
              20
  6
Continuous
 62
               0
100
AcDbCircle
 10
1738.0825997060119
 20
-593.82407441047849
 30
0.0
 40
1.0000000000000819
100
AcDbArc
 50
209.99999999999727
 51
270.0
  0
ARC
  5
20C
100
AcDbEntity
  8
一般
370
              20
  6
Continuous
 62
               0
100
AcDbCircle
 10
1739.088918262805
 20
-595.82407441047849
 30
0.0
 40
1.0000000000002931
100
AcDbArc
 50
4.9999999999983231
 51
90.0
  0
ARC
  5
20D
100
AcDbEntity
  8
一般
370
              20
  6
Continuous
 62
               0
100
AcDbCircle
 10
1688.703510359617
 20
-873.23524738962601
 30
0.0
 40
300.00000000000017
100
AcDbArc
 50
84.260408841521098
 51
86.886067007216354
  0
ARC
  5
20E
100
AcDbEntity
  8
一般
370
               9
  6
Continuous
 62
               0
100
AcDbCircle
 10
1688.703510359617
 20
-873.23524738962601
 30
0.0
 40
294.00000000000006
100
AcDbArc
 50
84.260408841521141
 51
86.886067007216297
  0
ARC
  5
20F
100
AcDbEntity
  8
2
370
              20
  6
Continuous
 62
               0
100
AcDbCircle
 10
1717.205592417416
 20
-589.66403707664153
 30
0.0
 40
14.999999999999149
100
AcDbArc
 50
30.000000000000874
 51
84.260408841524182
  0
ARC
  5
210
100
AcDbEntity
  8
2
370
               9
  6
Continuous
 62
               0
100
AcDbCircle
 10
1717.205592417416
 20
-589.66403707664142
 30
0.0
 40
8.9999999999993872
100
AcDbArc
 50
29.999999999999748
 51
84.26040884152529
  0
POINT
  5
211
100
AcDbEntity
  8
一般
370
               5
  6
Continuous
 62
               0
100
AcDbPoint
 10
1705.0
 20
-573.67820035951354
 30
0.0
  0
ARC
  5
212
100
AcDbEntity
  8
一般
370
               9
  6
Continuous
 62
               0
100
AcDbCircle
 10
1731.7134108077501
 20
-597.82276950741743
 30
0.0
 40
2.0000000000001967
100
AcDbArc
 50
188.9999999999977
 51
270.0
  0
ARC
  5
213
100
AcDbEntity
  8
一般
370
               9
  6
Continuous
 62
               0
100
AcDbCircle
 10
1798.2865891922499
 20
-597.82276950741743
 30
0.0
 40
2.0
100
AcDbArc
 50
270.0
 51
351.00000000000131
  0
LINE
  5
214
100
AcDbEntity
  8
2
370
               9
  6
Continuous
 62
               0
100
AcDbLine
 10
1807.163835030236
 20
-574.6143614504881
 30
0.0
 11
1765.0
 21
-576.82407441047849
 31
0.0
  0
LINE
  5
215
100
AcDbEntity
  8
2
370
               9
  6
Continuous
 62
               0
100
AcDbLine
 10
1803.1722655177809
 20
-576.82407441047849
 30
0.0
 11
1730.4481546809429
 21
-576.82407441047849
 31
0.0
  0
POINT
  5
216
100
AcDbEntity
  8
一般
370
               5
  6
Continuous
 62
               0
100
AcDbPoint
 10
1765.0
 20
-576.82407441047849
 30
0.0
  0
ENDBLK
  5
217
100
AcDbEntity
  8
一般
100
AcDbBlockEnd
  0
BLOCK
  5
218
100
AcDbEntity
  8
寸法
100
AcDbBlockBegin
  2
*D28
 70
               1
 10
0.0
 20
0.0
 30
0.0
  3
*D28
  1

  0
LINE
  5
219
100
AcDbEntity
  8
寸法
370
              -2
  6
Continuous
 62
               0
100
AcDbLine
 10
1258.317127845467
 20
-414.79268134311428
 30
0.0
 11
1248.9719271469171
 21
-414.79268134311428
 31
0.0
  0
LINE
  5
21A
100
AcDbEntity
  8
寸法
370
              -2
  6
Continuous
 62
               0
100
AcDbLine
 10
1258.317127845467
 20
-454.79268134311428
 30
0.0
 11
1248.9719271469171
 21
-454.79268134311428
 31
0.0
  0
LINE
  5
21B
100
AcDbEntity
  8
寸法
370
              -2
  6
Continuous
 62
               0
100
AcDbLine
 10
1248.9719271469171
 20
-414.79268134311428
 30
0.0
 11
1248.9719271469171
 21
-454.79268134311428
 31
0.0
  0
SOLID
  5
21C
100
AcDbEntity
  8
寸法
370
              -2
 62
               0
100
AcDbTrace
 10
1248.9719271469171
 20
-414.79268134311428
 30
0.0
 11
1250.9824619321166
 21
-422.29609931186428
 31
0.0
 12
1246.9613923617171
 22
-422.29609931186428
 32
0.0
 13
1246.9613923617171
 23
-422.29609931186428
 33
0.0
  0
SOLID
  5
21D
100
AcDbEntity
  8
寸法
370
              -2
 62
               0
100
AcDbTrace
 10
1248.9719271469171
 20
-454.79268134311428
 30
0.0
 11
1246.9613923617171
 21
-447.28926337436428
 31
0.0
 12
1250.9824619321166
 22
-447.28926337436428
 32
0.0
 13
1250.9824619321166
 23
-447.28926337436428
 33
0.0
  0
WIPEOUT
  5
21E
100
AcDbEntity
  8
寸法
370
              -2
  6
Continuous
 62
               0
 92
        0
100
AcDbWipeout
 90
        0
 10
1226.8052604839756
 20
1179.5105251956757
 30
0.0
 11
21.166666666666686
 21
0.0
 31
0.0
 12
0.0
 22
21.166666666666686
 32
0.0
 13
1.0
 23
1.0
340
0
 70
               7
280
               1
281
              50
282
              50
283
               0
360
0
 71
               2
 91
        5
 14
0.5000000000000027
 24
77.266293222304967
 14
0.5000000000000027
 24
76.266293222304967
 14
-0.5
 24
76.266293222304967
 14
-0.5
 24
77.266293222304967
 14
0.5000000000000027
 24
77.266293222304967
  0
MTEXT
  5
21F
100
AcDbEntity
  8
寸法
 62
               0
100
AcDbMText
 10
1228.7201823589758
 20
-445.3760146764476
 30
0.0
 40
16.288411458333332
 41
0.0
 71
               1
 72
               1
  1
40
  7
ＭＳ ゴシック
 11
0.0
 21
1.0
 31
0.0
 73
               1
 44
0.7828267384257843
  0
POINT
  5
220
100
AcDbEntity
  8
Defpoints
370
               0
 62
               0
100
AcDbPoint
 10
1263.317127845467
 20
-454.79268134311428
 30
0.0
  0
POINT
  5
221
100
AcDbEntity
  8
Defpoints
370
               0
 62
               0
100
AcDbPoint
 10
1263.317127845467
 20
-414.79268134311428
 30
0.0
  0
POINT
  5
222
100
AcDbEntity
  8
Defpoints
370
               0
 62
               0
100
AcDbPoint
 10
1248.9719271469171
 20
-414.79268134311428
 30
0.0
  0
ENDBLK
  5
223
100
AcDbEntity
  8
寸法
100
AcDbBlockEnd
  0
BLOCK
  5
224
100
AcDbEntity
  8
寸法
100
AcDbBlockBegin
  2
*D29
 70
               1
 10
0.0
 20
0.0
 30
0.0
  3
*D29
  1

  0
LINE
  5
225
100
AcDbEntity
  8
寸法
370
              -2
  6
Continuous
 62
               0
100
AcDbLine
 10
710.49215173315883
 20
485.53347043353921
 30
0.0
 11
710.49215173315883
 21
480.53347043353921
 31
0.0
  0
LINE
  5
226
100
AcDbEntity
  8
寸法
370
              -2
  6
Continuous
 62
               0
100
AcDbLine
 10
1310.4921517331591
 20
485.53347043353921
 30
0.0
 11
1310.4921517331591
 21
480.53347043353921
 31
0.0
  0
LINE
  5
227
100
AcDbEntity
  8
寸法
370
              -2
  6
Continuous
 62
               0
100
AcDbLine
 10
710.49215173315883
 20
480.53347043353921
 30
0.0
 11
1310.4921517331591
 21
480.53347043353921
 31
0.0
  0
SOLID
  5
228
100
AcDbEntity
  8
寸法
370
              -2
 62
               0
100
AcDbTrace
 10
710.49215173315883
 20
480.53347043353921
 30
0.0
 11
717.99556970190883
 21
482.54400521873896
 31
0.0
 12
717.99556970190883
 22
478.52293564833946
 32
0.0
 13
717.99556970190883
 23
478.52293564833946
 33
0.0
  0
SOLID
  5
229
100
AcDbEntity
  8
寸法
370
              -2
 62
               0
100
AcDbTrace
 10
1310.4921517331591
 20
480.53347043353921
 30
0.0
 11
1302.9887337644091
 21
478.52293564833946
 31
0.0
 12
1302.9887337644091
 22
482.54400521873896
 32
0.0
 13
1302.9887337644091
 23
482.54400521873896
 33
0.0
  0
MTEXT
  5
22A
100
AcDbEntity
  8
寸法
 62
               0
100
AcDbMText
 10
936.40881839982558
 20
500.78521522148054
 30
0.0
 40
16.288411458333332
 41
0.0
 71
               1
 72
               1
  1
MAX900(MIN375)
  7
ＭＳ ゴシック
 73
               1
 44
0.7828267384257843
  0
POINT
  5
22B
100
AcDbEntity
  8
Defpoints
370
               0
 62
               0
100
AcDbPoint
 10
1310.4921517331591
 20
480.53347043353921
 30
0.0
  0
POINT
  5
22C
100
AcDbEntity
  8
Defpoints
370
               0
 62
               0
100
AcDbPoint
 10
710.49215173315883
 20
480.53347043353921
 30
0.0
  0
POINT
  5
22D
100
AcDbEntity
  8
Defpoints
370
               0
 62
               0
100
AcDbPoint
 10
710.49215173315883
 20
480.53347043353921
 30
0.0
  0
ENDBLK
  5
22E
100
AcDbEntity
  8
寸法
100
AcDbBlockEnd
  0
BLOCK
  5
22F
100
AcDbEntity
  8
寸法
100
AcDbBlockBegin
  2
*D30
 70
               1
 10
0.0
 20
0.0
 30
0.0
  3
*D30
  1

  0
LINE
  5
230
100
AcDbEntity
  8
寸法
370
              -2
  6
Continuous
 62
               0
100
AcDbLine
 10
1040.4921517331588
 20
55.207318656885818
 30
0.0
 11
1040.4921517331588
 21
10.0
 31
0.0
  0
LINE
  5
231
100
AcDbEntity
  8
寸法
370
              -2
  6
Continuous
 62
               0
100
AcDbLine
 10
1580.4921517331588
 20
55.207318656885818
 30
0.0
 11
1580.4921517331588
 21
10.0
 31
0.0
  0
LINE
  5
232
100
AcDbEntity
  8
寸法
370
              -2
  6
Continuous
 62
               0
100
AcDbLine
 10
1040.4921517331588
 20
10.0
 30
0.0
 11
1580.4921517331588
 21
10.0
 31
0.0
  0
SOLID
  5
233
100
AcDbEntity
  8
寸法
370
              -2
 62
               0
100
AcDbTrace
 10
1040.4921517331588
 20
10.0
 30
0.0
 11
1047.9955697019088
 21
12.010534785199738
 31
0.0
 12
1047.9955697019088
 22
7.9894652148002621
 32
0.0
 13
1047.9955697019088
 23
7.9894652148002621
 33
0.0
  0
SOLID
  5
234
100
AcDbEntity
  8
寸法
370
              -2
 62
               0
100
AcDbTrace
 10
1580.4921517331588
 20
10.0
 30
0.0
 11
1572.9887337644088
 21
7.9894652148002621
 31
0.0
 12
1572.9887337644088
 22
12.010534785199738
 32
0.0
 13
1572.9887337644088
 23
12.010534785199738
 33
0.0
  0
WIPEOUT
  5
235
100
AcDbEntity
  8
寸法
370
              -2
  6
Continuous
 62
               0
 92
        0
100
AcDbWipeout
 90
        0
 10
1293.0296524060291
 20
1638.8865398721232
 30
0.0
 11
37.041666666666671
 21
0.0
 31
0.0
 12
0.0
 22
37.041666666666671
 32
0.0
 13
1.0
 23
1.0
340
0
 70
               7
280
               1
281
              50
282
              50
283
               0
360
0
 71
               2
 91
        5
 14
-0.5
 24
44.366453269888588
 14
0.4428571065266912
 24
44.366453269888588
 14
0.4428571065266912
 24
43.366453269888581
 14
-0.5
 24
43.366453269888581
 14
-0.5
 24
44.366453269888588
  0
MTEXT
  5
236
100
AcDbEntity
  8
寸法
 62
               0
100
AcDbMText
 10
1293.0296524060291
 20
37.319713541666687
 30
0.0
 40
16.123046874999996
 41
0.0
 71
               1
 72
               1
  1
540
  7
小塚ゴシック Pr6N R
 73
               1
 44
1.3839975285758424
  0
POINT
  5
237
100
AcDbEntity
  8
Defpoints
370
               0
 62
               0
100
AcDbPoint
 10
1580.4921517331588
 20
60.207318656885818
 30
0.0
  0
POINT
  5
238
100
AcDbEntity
  8
Defpoints
370
               0
 62
               0
100
AcDbPoint
 10
1040.4921517331588
 20
60.207318656885818
 30
0.0
  0
POINT
  5
239
100
AcDbEntity
  8
Defpoints
370
               0
 62
               0
100
AcDbPoint
 10
1040.4921517331588
 20
10.0
 30
0.0
  0
ENDBLK
  5
23A
100
AcDbEntity
  8
寸法
100
AcDbBlockEnd
  0
BLOCK
  5
23B
100
AcDbEntity
  8
寸法
100
AcDbBlockBegin
  2
*D31
 70
               1
 10
0.0
 20
0.0
 30
0.0
  3
*D31
  1

  0
LINE
  5
23C
100
AcDbEntity
  8
寸法
370
              -2
  6
Continuous
 62
               0
100
AcDbLine
 10
1305.4865444911525
 20
-140.27316788492578
 30
0.0
 11
1248.0
 21
-140.27316788492578
 31
0.0
  0
LINE
  5
23D
100
AcDbEntity
  8
寸法
370
              -2
  6
Continuous
 62
               0
100
AcDbLine
 10
1305.4442321809252
 20
259.70773617837716
 30
0.0
 11
1248.0
 21
259.70773617837716
 31
0.0
  0
LINE
  5
23E
100
AcDbEntity
  8
寸法
370
              -2
  6
Continuous
 62
               0
100
AcDbLine
 10
1248.0
 20
-140.27316788492578
 30
0.0
 11
1248.0
 21
259.70773617837716
 31
0.0
  0
SOLID
  5
23F
100
AcDbEntity
  8
寸法
370
              -2
 62
               0
100
AcDbTrace
 10
1248.0
 20
-140.27316788492578
 30
0.0
 11
1245.9894652148002
 21
-132.76974991617578
 31
0.0
 12
1250.0105347851998
 22
-132.76974991617578
 32
0.0
 13
1250.0105347851998
 23
-132.76974991617578
 33
0.0
  0
SOLID
  5
240
100
AcDbEntity
  8
寸法
370
              -2
 62
               0
100
AcDbTrace
 10
1248.0
 20
259.70773617837716
 30
0.0
 11
1250.0105347851998
 21
252.20431820962716
 31
0.0
 12
1245.9894652148002
 22
252.20431820962716
 32
0.0
 13
1245.9894652148002
 23
252.20431820962716
 33
0.0
  0
WIPEOUT
  5
241
100
AcDbEntity
  8
寸法
370
              -2
  6
Continuous
 62
               0
 92
        0
100
AcDbWipeout
 90
        0
 10
1206.9583333333335
 20
1667.1413246917191
 30
0.0
 11
37.041666666666686
 21
0.0
 31
0.0
 12
0.0
 22
37.041666666666686
 32
0.0
 13
1.0
 23
1.0
340
0
 70
               7
280
               1
281
              50
282
              50
283
               0
360
0
 71
               2
 91
        5
 14
0.4999999999999955
 24
44.366453269888567
 14
0.4999999999999955
 24
43.423596163361879
 14
-0.5
 24
43.423596163361879
 14
-0.5
 24
44.366453269888567
 14
0.4999999999999955
 24
44.366453269888567
  0
MTEXT
  5
242
100
AcDbEntity
  8
寸法
 62
               0
100
AcDbMText
 10
1220.6802864583333
 20
42.254784819595898
 30
0.0
 40
16.123046874999996
 41
0.0
 71
               1
 72
               1
  1
400
  7
小塚ゴシック Pr6N R
 11
0.0
 21
1.0
 31
0.0
 73
               1
 44
1.3839975285758424
  0
POINT
  5
243
100
AcDbEntity
  8
Defpoints
370
               0
 62
               0
100
AcDbPoint
 10
1310.4442321809252
 20
259.70773617837716
 30
0.0
  0
POINT
  5
244
100
AcDbEntity
  8
Defpoints
370
               0
 62
               0
100
AcDbPoint
 10
1310.4865444911525
 20
-140.27316788492578
 30
0.0
  0
POINT
  5
245
100
AcDbEntity
  8
Defpoints
370
               0
 62
               0
100
AcDbPoint
 10
1248.0
 20
-140.27316788492578
 30
0.0
  0
ENDBLK
  5
246
100
AcDbEntity
  8
寸法
100
AcDbBlockEnd
  0
ENDSEC
  0
SECTION
  2
ENTITIES
  0
POLYLINE
  5
247
100
AcDbEntity
  8
ﾀｲﾄﾙ枠
100
AcDb2dPolyline
 66
               1
 10
0.0
 20
0.0
 30
0.0
 70
               1
 75
               5
  0
VERTEX
  5
248
100
AcDbEntity
  8
ﾀｲﾄﾙ枠
100
AcDbVertex
100
AcDb2dVertex
 10
2561.5
 20
-727.54876209732561
 30
0.0
  0
VERTEX
  5
249
100
AcDbEntity
  8
ﾀｲﾄﾙ枠
100
AcDbVertex
100
AcDb2dVertex
 10
631.5
 20
-727.54876209732561
 30
0.0
  0
VERTEX
  5
24A
100
AcDbEntity
  8
ﾀｲﾄﾙ枠
100
AcDbVertex
100
AcDb2dVertex
 10
631.5
 20
672.45123790267439
 30
0.0
  0
VERTEX
  5
24B
100
AcDbEntity
  8
ﾀｲﾄﾙ枠
100
AcDbVertex
100
AcDb2dVertex
 10
2561.5
 20
672.45123790267439
 30
0.0
  0
SEQEND
  5
24C
100
AcDbEntity
  8
ﾀｲﾄﾙ枠
  0
LINE
  5
24D
100
AcDbEntity
  8
ﾀｲﾄﾙ枠
100
AcDbLine
 10
2136.5
 20
-607.54876209732561
 30
0.0
 11
2561.5
 21
-607.54876209732561
 31
0.0
  0
POLYLINE
  5
24E
100
AcDbEntity
  8
ﾀｲﾄﾙ枠
100
AcDb2dPolyline
 66
               1
 10
0.0
 20
0.0
 30
0.0
 70
               1
 75
               5
  0
VERTEX
  5
24F
100
AcDbEntity
  8
ﾀｲﾄﾙ枠
100
AcDbVertex
100
AcDb2dVertex
 10
2561.5
 20
-727.54876209732561
 30
0.0
  0
VERTEX
  5
250
100
AcDbEntity
  8
ﾀｲﾄﾙ枠
100
AcDbVertex
100
AcDb2dVertex
 10
2136.5
 20
-727.54876209732561
 30
0.0
  0
VERTEX
  5
251
100
AcDbEntity
  8
ﾀｲﾄﾙ枠
100
AcDbVertex
100
AcDb2dVertex
 10
2136.5
 20
-607.54876209732561
 30
0.0
  0
VERTEX
  5
252
100
AcDbEntity
  8
ﾀｲﾄﾙ枠
100
AcDbVertex
100
AcDb2dVertex
 10
2561.5
 20
-607.54876209732561
 30
0.0
  0
SEQEND
  5
253
100
AcDbEntity
  8
ﾀｲﾄﾙ枠
  0
LINE
  5
254
100
AcDbEntity
  8
ﾀｲﾄﾙ枠
100
AcDbLine
 10
2136.5
 20
-667.54876209732561
 30
0.0
 11
2561.5
 21
-667.54876209732561
 31
0.0
  0
MTEXT
  5
255
100
AcDbEntity
  8
ﾀｲﾄﾙ枠
100
AcDbMText
 10
2144.0
 20
-614.30512558624832
 30
0.0
 40
15.585611979166666
 41
0.0
 71
               1
 72
               1
  1
製品名
  7
メイリオ
 73
               1
 44
1.2271899268160174
  0
LINE
  5
256
100
AcDbEntity
  8
ﾀｲﾄﾙ枠
100
AcDbLine
 10
2446.5
 20
-667.54876209732561
 30
0.0
 11
2446.5
 21
-607.54876209732561
 31
0.0
  0
LINE
  5
257
100
AcDbEntity
  8
ﾀｲﾄﾙ枠
100
AcDbLine
 10
2421.5
 20
-667.54876209732561
 30
0.0
 11
2421.5
 21
-607.54876209732561
 31
0.0
  0
MTEXT
  5
258
100
AcDbEntity
  8
ﾀｲﾄﾙ枠
100
AcDbMText
 10
2434.0
 20
-615.23907652242679
 30
0.0
 40
15.585611979166666
 41
0.0
 71
               2
 72
               1
  1
縮
  7
メイリオ
 73
               1
 44
1.2271899268160174
  0
MTEXT
  5
259
100
AcDbEntity
  8
ﾀｲﾄﾙ枠
100
AcDbMText
 10
2434.0
 20
-642.73907652242679
 30
0.0
 40
15.585611979166666
 41
0.0
 71
               2
 72
               1
  1
尺
  7
メイリオ
 73
               1
 44
1.2271899268160174
  0
MTEXT
  5
25A
100
AcDbEntity
  8
0
100
AcDbMText
 10
2502.2169834603001
 20
-629.8319203299659
 30
0.0
 40
18.183213975694446
 41
0.0
 71
               2
 72
               1
  1
1/5
  7
メイリオ
 73
               1
 44
1.2271899268160174
  0
MTEXT
  5
25B
100
AcDbEntity
  8
0
100
AcDbMText
 10
2215.957018649955
 20
-687.00962578003418
 30
0.0
 40
23.37841796875
 41
0.0
 71
               2
 72
               1
  1
E:kitchen
  7
メイリオ
 73
               1
 44
1.2271899268160174
  0
MTEXT
  5
25C
100
AcDbEntity
  8
0
100
AcDbMText
 10
2522.3438488626934
 20
-691.42417128372676
 30
0.0
 40
18.183213975694446
 41
0.0
 71
               2
 72
               1
  1
YS
  7
メイリオ
 73
               1
 44
1.2271899268160174
  0
LINE
  5
25D
100
AcDbEntity
  8
一般
370
               9
  6
STYLE_13
100
AcDbLine
 10
1310.4921517331591
 20
-236.79268134311428
 30
0.0
 11
1310.4921517331591
 21
480.53347043353921
 31
0.0
  0
LINE
  5
25E
100
AcDbEntity
  8
一般
370
              25
  6
Continuous
100
AcDbLine
 10
710.49215173315883
 20
375.20731865688572
 30
0.0
 11
1910.4921517331591
 21
375.20731865688572
 31
0.0
  0
LINE
  5
25F
100
AcDbEntity
  8
一般
370
              25
  6
Continuous
100
AcDbLine
 10
710.49215173315883
 20
350.20731865688572
 30
0.0
 11
1910.4921517331591
 21
350.20731865688572
 31
0.0
  0
POINT
  5
260
100
AcDbEntity
  8
一般
370
               5
  6
Continuous
100
AcDbPoint
 10
977.49215173315883
 20
-110.79268134311417
 30
0.0
  0
POINT
  5
261
100
AcDbEntity
  8
一般
370
               5
  6
Continuous
100
AcDbPoint
 10
1310.4921517331591
 20
180.20731865688572
 30
0.0
  0
LINE
  5
262
100
AcDbEntity
  8
一般
370
              25
  6
Continuous
100
AcDbLine
 10
1910.4921517331591
 20
-74.792681343114182
 30
0.0
 11
1614.4059288141859
 21
-74.792681343114182
 31
0.0
  0
LINE
  5
263
100
AcDbEntity
  8
一般
370
               9
  6
STYLE_15
100
AcDbLine
 10
1255.4921517331591
 20
180.20731865688572
 30
0.0
 11
1365.4921517331591
 21
180.20731865688572
 31
0.0
  0
LINE
  5
264
100
AcDbEntity
  8
一般
370
              25
  6
Continuous
100
AcDbLine
 10
1006.5783746521317
 20
-74.792681343114182
 30
0.0
 11
710.49215173315883
 21
-74.792681343114182
 31
0.0
  0
POINT
  5
265
100
AcDbEntity
  8
一般
370
               5
  6
Continuous
100
AcDbPoint
 10
1310.4921517331591
 20
260.20731865688572
 30
0.0
  0
CIRCLE
  5
266
100
AcDbEntity
  8
1
370
               9
  6
Continuous
100
AcDbCircle
 10
1310.4921517331591
 20
180.20731865688572
 30
0.0
 40
35.0
  0
CIRCLE
  5
267
100
AcDbEntity
  8
1
370
               9
  6
Continuous
100
AcDbCircle
 10
1310.4921517331591
 20
180.20731865688572
 30
0.0
 40
25.0
  0
LINE
  5
268
100
AcDbEntity
  8
一般
370
              25
  6
Continuous
100
AcDbLine
 10
710.49215173315883
 20
-74.792681343114182
 30
0.0
 11
710.49215173315883
 21
375.20731865688572
 31
0.0
  0
LINE
  5
269
100
AcDbEntity
  8
一般
370
              25
  6
Continuous
100
AcDbLine
 10
1910.4921517331591
 20
-74.792681343114182
 30
0.0
 11
1910.4921517331591
 21
375.20731865688572
 31
0.0
  0
ARC
  5
26A
100
AcDbEntity
  8
一般
370
               9
  6
Continuous
100
AcDbCircle
 10
1238.4921517331841
 20
60.207318656885818
 30
0.0
 40
197.99999999999986
100
AcDbArc
 50
94.344272416463326
 51
265.65572758353665
  0
ARC
  5
26B
100
AcDbEntity
  8
一般
370
               9
  6
Continuous
100
AcDbCircle
 10
1238.4921517331841
 20
60.207318656885818
 30
0.0
 40
237.99999999999986
100
AcDbArc
 50
101.63525740255892
 51
265.65572758353682
  0
ARC
  5
26C
100
AcDbEntity
  8
一般
370
               9
  6
Continuous
100
AcDbCircle
 10
1238.4921517331841
 20
60.207318656885818
 30
0.0
 40
243.00000000000023
100
AcDbArc
 50
220.05812099712546
 51
265.65572758353682
  0
POINT
  5
26D
100
AcDbEntity
  8
一般
370
               5
  6
Continuous
100
AcDbPoint
 10
1040.4921517331588
 20
60.207318656885818
 30
0.0
  0
POINT
  5
26E
100
AcDbEntity
  8
一般
370
               5
  6
Continuous
100
AcDbPoint
 10
1310.4921517331591
 20
-139.79268134311417
 30
0.0
  0
ARC
  5
26F
100
AcDbEntity
  8
一般
370
               9
  6
Continuous
100
AcDbCircle
 10
1283.5269095202239
 20
660.50871850463932
 30
0.0
 40
800.00000000000011
100
AcDbArc
 50
265.69633594509719
 51
268.56416270928457
  0
ARC
  5
270
100
AcDbEntity
  8
一般
370
               9
  6
Continuous
100
AcDbCircle
 10
1283.5269095202239
 20
660.50871850463932
 30
0.0
 40
840.00000000000057
100
AcDbArc
 50
265.69633594509719
 51
268.56416270928457
  0
ARC
  5
271
100
AcDbEntity
  8
一般
370
               9
  6
Continuous
100
AcDbCircle
 10
1283.5269095202239
 20
660.50871850463932
 30
0.0
 40
845.0000000000008
100
AcDbArc
 50
265.69633594509719
 51
268.56416270928457
  0
ARC
  5
272
100
AcDbEntity
  8
一般
370
               9
  6
Continuous
100
AcDbCircle
 10
1285.5421355214407
 20
-540.04107375865988
 30
0.0
 40
799.99999999999966
100
AcDbArc
 50
91.435837290715384
 51
93.885762519933095
  0
DIMENSION
  5
273
100
AcDbEntity
  8
寸法
370
               9
  6
Continuous
100
AcDbDimension
  2
*D2
 10
2057.4921517331591
 20
-184.7924037345297
 30
0.0
 11
2057.4921517331591
 21
95.207457461177995
 31
0.0
 71
               5
 72
               1
 41
1.0
 42
0.0
  3
Ekitchen
100
AcDbAlignedDimension
 13
1910.4921517331591
 23
375.20731865688572
 33
0.0
 14
1842.4921517331591
 24
-184.7924037345297
 34
0.0
 50
90.0
100
AcDbRotatedDimension
1001
ACAD
1000
DSTYLE
1002
{
1070
             271
1070
               1
1070
             279
1070
               2
1070
             340
1005
43
1070
             147
1040
0.9999999962747097
1002
}
  0
LINE
  5
274
100
AcDbEntity
  8
寸法
370
               9
  6
STYLE_08
100
AcDbLine
 10
1685.4921517331588
 20
406.000059235251
 30
0.0
 11
1685.4921517331588
 21
-69.792681343114182
 31
0.0
  0
LINE
  5
275
100
AcDbEntity
  8
寸法
370
               9
  6
STYLE_08
100
AcDbLine
 10
935.49215173315883
 20
396.000059235251
 30
0.0
 11
935.49215173315883
 21
-69.792681343114182
 31
0.0
  0
DIMENSION
  5
276
100
AcDbEntity
  8
寸法
370
               9
  6
Continuous
100
AcDbDimension
  2
*D3
 10
1685.4921517331588
 20
430.000059235251
 30
0.0
 11
1310.4921517331588
 21
430.000059235251
 31
0.0
 71
               5
 72
               1
 41
1.0
 42
0.0
  3
Ekitchen
100
AcDbAlignedDimension
 13
935.49215173315883
 23
396.000059235251
 33
0.0
 14
1685.4921517331588
 24
406.000059235251
 34
0.0
100
AcDbRotatedDimension
1001
ACAD
1000
DSTYLE
1002
{
1070
             271
1070
               1
1070
             279
1070
               2
1070
             340
1005
43
1070
             147
1040
0.9999999962747097
1002
}
  0
LINE
  5
277
100
AcDbEntity
  8
寸法
370
               9
  6
Continuous
100
AcDbLine
 10
1310.4921517331591
 20
395.000059235251
 30
0.0
 11
1286.9921517331591
 21
395.000059235251
 31
0.0
  0
LWPOLYLINE
  5
278
100
AcDbEntity
  8
寸法
370
               9
  6
Continuous
100
AcDbPolyline
 90
        3
 70
             128
 10
1302.8671517331591
 20
390.74636580540692
 10
1286.9921517331591
 20
395.000059235251
 10
1302.8671517331591
 20
399.25375266509508
  0
MTEXT
  5
279
100
AcDbEntity
  8
寸法
100
AcDbMText
 10
1315.8531698784159
 20
400.94439473945766
 30
0.0
 40
16.288411458333332
 41
0.0
 71
               1
 72
               1
  1
A
  7
ＭＳ ゴシック
 73
               1
 44
0.7440521877942526
  0
LINE
  5
27A
100
AcDbEntity
  8
寸法
370
               9
  6
Continuous
100
AcDbLine
 10
1310.4921517331591
 20
-201.79268134311428
 30
0.0
 11
1286.9921517331591
 21
-201.79268134311428
 31
0.0
  0
LWPOLYLINE
  5
27B
100
AcDbEntity
  8
寸法
370
               9
  6
Continuous
100
AcDbPolyline
 90
        3
 70
             128
 10
1302.8671517331591
 20
-206.04637477295839
 10
1286.9921517331591
 20
-201.79268134311428
 10
1302.8671517331591
 20
-197.5389879132702
  0
MTEXT
  5
27C
100
AcDbEntity
  8
寸法
100
AcDbMText
 10
1315.8531698784159
 20
-195.84834583890762
 30
0.0
 40
16.288411458333332
 41
0.0
 71
               1
 72
               1
  1
A
  7
ＭＳ ゴシック
 73
               1
 44
0.7440521877942526
  0
LINE
  5
27D
100
AcDbEntity
  8
寸法
370
               9
  6
Continuous
100
AcDbLine
 10
672.49215173315883
 20
62.707318656885818
 30
0.0
 11
672.49215173315883
 21
88.707318656885818
 31
0.0
  0
LWPOLYLINE
  5
27E
100
AcDbEntity
  8
寸法
370
               9
  6
Continuous
100
AcDbPolyline
 90
        3
 70
             128
 10
668.23845830331493
 20
72.832318656885818
 10
672.49215173315883
 20
88.707318656885818
 10
676.74584516300274
 20
72.832318656885818
  0
MTEXT
  5
27F
100
AcDbEntity
  8
寸法
100
AcDbMText
 10
669.33215217052475
 20
57.651654161092452
 30
0.0
 40
16.288411458333332
 41
8.0
 71
               1
 72
               1
  1
B
  7
ＭＳ ゴシック
 73
               1
 44
0.7440521877942526
  0
LINE
  5
280
100
AcDbEntity
  8
寸法
370
               9
  6
Continuous
100
AcDbLine
 10
1936.4921517331591
 20
62.707318656885818
 30
0.0
 11
1936.4921517331591
 21
88.707318656885818
 31
0.0
  0
LWPOLYLINE
  5
281
100
AcDbEntity
  8
寸法
370
               9
  6
Continuous
100
AcDbPolyline
 90
        3
 70
             128
 10
1932.2384583033149
 20
72.832318656885818
 10
1936.4921517331591
 20
88.707318656885818
 10
1940.7458451630032
 20
72.832318656885818
  0
MTEXT
  5
282
100
AcDbEntity
  8
寸法
100
AcDbMText
 10
1930.7621513630811
 20
57.651654161092452
 30
0.0
 40
16.288411458333332
 41
8.0
 71
               1
 72
               1
  1
B
  7
ＭＳ ゴシック
 73
               1
 44
0.7440521877942526
  0
DIMENSION
  5
283
100
AcDbEntity
  8
寸法
370
               9
  6
Continuous
100
AcDbDimension
  2
*D4
 10
2205.7930284565045
 20
260.20734022615102
 30
0.0
 11
2204.7930284565045
 21
306.13952444312059
 31
0.0
 70
             128
 71
               5
 72
               1
 41
1.0
 42
0.0
  3
Ekitchen
100
AcDbAlignedDimension
 13
2280.7930284751319
 23
350.20731865688572
 33
0.0
 14
2298.7930284565045
 24
260.20734022615102
 34
0.0
 50
90.0
100
AcDbRotatedDimension
1001
ACAD
1000
DSTYLE
1002
{
1070
             279
1070
               2
1070
             340
1005
43
1070
             147
1040
1.0
1002
}
  0
DIMENSION
  5
284
100
AcDbEntity
  8
寸法
370
               9
  6
Continuous
100
AcDbDimension
  2
*D5
 10
2303.7930284565045
 20
168.20731865688572
 30
0.0
 11
2392.0034224222618
 21
181.7309297679968
 31
0.0
 70
             128
 71
               5
 72
               1
 41
1.0
 42
0.0
  3
Ekitchen
100
AcDbAlignedDimension
 13
2453.7930284565045
 23
139.20731865688572
 33
0.0
 14
2303.7930284565045
 24
123.044947027885
 34
0.0
100
AcDbRotatedDimension
1001
ACAD
1000
DSTYLE
1002
{
1070
             279
1070
               2
1070
             340
1005
43
1070
             147
1040
13.52361111111108
1002
}
  0
DIMENSION
  5
285
100
AcDbEntity
  8
寸法
370
               9
  6
Continuous
100
AcDbDimension
  2
*D6
 10
2205.7930284565055
 20
-139.79268134311417
 30
0.0
 11
2204.7930284565055
 21
-162.29268134311462
 31
0.0
 70
             128
 71
               5
 72
               1
 41
1.0
 42
0.0
  3
Ekitchen
100
AcDbAlignedDimension
 13
2305.7930284565045
 23
-184.79268134311519
 33
0.0
 14
2301.4921517331586
 24
-139.79268134311417
 34
0.0
 50
90.0
100
AcDbRotatedDimension
1001
ACAD
1000
DSTYLE
1002
{
1070
             279
1070
               2
1070
             340
1005
43
1070
             147
1040
1.0
1002
}
  0
DIMENSION
  5
286
100
AcDbEntity
  8
寸法
370
               9
  6
Continuous
100
AcDbDimension
  2
*D7
 10
2512.0
 20
180.20731865688572
 30
0.0
 11
2513.0
 21
274.0
 31
0.0
 70
             128
 71
               5
 72
               1
 41
1.0
 42
0.0
  3
Ekitchen
100
AcDbAlignedDimension
 13
2297.7930284565045
 23
375.20731865688572
 33
0.0
 14
2495.7930284565045
 24
180.20731865688572
 34
0.0
 50
90.0
100
AcDbRotatedDimension
1001
ACAD
1000
DSTYLE
1002
{
1070
             279
1070
               2
1070
             340
1005
43
1070
             147
1040
1.0
1002
}
  0
DIMENSION
  5
287
100
AcDbEntity
  8
寸法
370
               9
  6
Continuous
100
AcDbDimension
  2
*D8
 10
2205.7930284565036
 20
-139.79268134311417
 30
0.0
 11
2204.7930284565036
 21
62.218481110782847
 31
0.0
 70
             128
 71
               5
 72
               1
 41
1.0
 42
0.0
  3
Ekitchen
100
AcDbAlignedDimension
 13
2282.7930284565045
 23
260.20734022615102
 33
0.0
 14
2306.4921517331586
 24
-139.79268134311417
 34
0.0
 50
90.0
100
AcDbRotatedDimension
1001
ACAD
1000
DSTYLE
1002
{
1070
             279
1070
               2
1070
             340
1005
43
1070
             147
1040
1.0
1002
}
  0
DIMENSION
  5
288
100
AcDbEntity
  8
寸法
370
               9
  6
Continuous
100
AcDbDimension
  2
*D9
 10
2136.0034224222618
 20
-184.79268134311519
 30
0.0
 11
2135.0034224222618
 21
95.207318656885377
 31
0.0
 70
             128
 71
               5
 72
               1
 41
1.0
 42
0.0
  3
Ekitchen
100
AcDbAlignedDimension
 13
2293.7930284565045
 23
375.20731865688572
 33
0.0
 14
2303.7930284565045
 24
-184.79268134311519
 34
0.0
 50
90.0
100
AcDbRotatedDimension
1001
ACAD
1000
DSTYLE
1002
{
1070
             279
1070
               2
1070
             340
1005
43
1070
             147
1040
1.0
1002
}
  0
DIMENSION
  5
289
100
AcDbEntity
  8
寸法
370
               9
  6
Continuous
100
AcDbDimension
  2
*D10
 10
2206.0
 20
375.20731865688572
 30
0.0
 11
2205.0
 21
364.0
 31
0.0
 70
             128
 71
               5
 72
               1
 41
1.0
 42
0.0
  3
Ekitchen
100
AcDbAlignedDimension
 13
2285.7930284565045
 23
350.20731865688572
 33
0.0
 14
2293.7930284565045
 24
375.20731865688572
 34
0.0
 50
90.0
100
AcDbRotatedDimension
1001
ACAD
1000
DSTYLE
1002
{
1070
             279
1070
               2
1070
             340
1005
43
1070
             147
1040
1.0
1002
}
  0
DIMENSION
  5
28A
100
AcDbEntity
  8
寸法
370
               9
  6
Continuous
100
AcDbDimension
  2
*D11
 10
2303.7930284565045
 20
303.20731865688572
 30
0.0
 11
2282.5535481547927
 21
316.73092976427148
 31
0.0
 70
             128
 71
               5
 72
               1
 41
1.0
 42
0.0
  3
Ekitchen
100
AcDbAlignedDimension
 13
2283.7930284565045
 23
350.20731865688572
 33
0.0
 14
2303.7930284565045
 24
312.28680867369479
 34
0.0
100
AcDbRotatedDimension
1001
ACAD
1000
DSTYLE
1002
{
1070
             279
1070
               2
1070
             340
1005
43
1070
             174
1070
               0
1070
             147
1040
13.523611107385761
1002
}
  0
DIMENSION
  5
28B
100
AcDbEntity
  8
寸法
370
               9
  6
Continuous
100
AcDbDimension
  2
*D12
 10
2168.0034224222618
 20
260.20734022615102
 30
0.0
 11
2167.0034224222618
 21
317.70732944151831
 31
0.0
 70
             128
 71
               5
 72
               1
 41
1.0
 42
0.0
  3
Ekitchen
100
AcDbAlignedDimension
 13
2293.7930284565045
 23
375.20731865688572
 33
0.0
 14
2293.7930284751319
 24
260.20734022615102
 34
0.0
 50
90.0
100
AcDbRotatedDimension
1001
ACAD
1000
DSTYLE
1002
{
1070
             271
1070
               1
1070
             279
1070
               2
1070
             340
1005
43
1070
             147
1040
1.0
1002
}
  0
MTEXT
  5
28C
100
AcDbEntity
  8
一般
100
AcDbMText
 10
2134.3232606741312
 20
479.79731486006079
 30
0.0
 40
19.003146701388893
 41
0.0
 71
               1
 72
               1
  1
断面図 A - A
  7
ＭＳ ゴシック
 73
               1
 44
0.7971987726366996
  0
DIMENSION
  5
28D
100
AcDbEntity
  8
寸法
370
               9
  6
Continuous
100
AcDbDimension
  2
*D13
 10
1040.4921517331588
 20
-350.84168134311449
 30
0.0
 11
1310.4921517331588
 21
-350.84168134311449
 31
0.0
 71
               5
 72
               1
 41
1.0
 42
0.0
  3
Ekitchen
100
AcDbAlignedDimension
 13
1580.4921517331588
 23
-409.79268136174068
 33
0.0
 14
1040.4921517331588
 24
-414.79268134311428
 34
0.0
100
AcDbRotatedDimension
1001
ACAD
1000
DSTYLE
1002
{
1070
             279
1070
               2
1070
             340
1005
43
1070
             147
1040
0.7999999970197678
1002
}
  0
LINE
  5
28E
100
AcDbEntity
  8
2
370
               9
  6
STYLE_12
100
AcDbLine
 10
1310.4921517331591
 20
-438.79268134311428
 30
0.0
 11
1910.4921517331591
 21
-438.79268134311428
 31
0.0
  0
LINE
  5
28F
100
AcDbEntity
  8
2
370
              25
  6
Continuous
100
AcDbLine
 10
1310.4921517331591
 20
-388.79268134311428
 30
0.0
 11
1910.4921517331591
 21
-388.79268134311428
 31
0.0
  0
LINE
  5
290
100
AcDbEntity
  8
2
370
              25
  6
Continuous
100
AcDbLine
 10
1620.6400125647858
 20
-408.79268134311428
 30
0.0
 11
1910.4921517331591
 21
-408.79268134311428
 31
0.0
  0
LINE
  5
291
100
AcDbEntity
  8
2
370
              25
  6
Continuous
100
AcDbLine
 10
1910.4921517331591
 20
-388.79268134311428
 30
0.0
 11
1910.4921517331591
 21
-414.79268134311428
 31
0.0
  0
LINE
  5
292
100
AcDbEntity
  8
2
370
               9
  6
STYLE_12
100
AcDbLine
 10
1910.4921517331591
 20
-413.79268134311428
 30
0.0
 11
1910.4921517331591
 21
-438.79268134311428
 31
0.0
  0
LINE
  5
293
100
AcDbEntity
  8
2
370
               9
  6
Continuous
100
AcDbLine
 10
1620.8380342699836
 20
-414.79268134311428
 30
0.0
 11
1910.4921517331591
 21
-414.79268134311428
 31
0.0
  0
DIMENSION
  5
294
100
AcDbEntity
  8
寸法
370
               9
  6
Continuous
100
AcDbDimension
  2
*D14
 10
1000.4921517331838
 20
-304.0
 30
0.0
 11
1310.4921517331588
 21
-304.0
 31
0.0
 71
               5
 72
               1
 41
1.0
 42
0.0
  3
Ekitchen
100
AcDbAlignedDimension
 13
1620.4921517331338
 23
-403.79268136174068
 33
0.0
 14
1000.4921517331838
 24
-403.79268136174068
 34
0.0
100
AcDbRotatedDimension
1001
ACAD
1000
DSTYLE
1002
{
1070
             279
1070
               2
1070
             340
1005
43
1070
             147
1040
0.7999999970197678
1002
}
  0
DIMENSION
  5
295
100
AcDbEntity
  8
寸法
370
               9
  6
Continuous
100
AcDbDimension
  2
*D15
 10
1620.4921517331338
 20
-350.84168134311449
 30
0.0
 11
1600.4921517331456
 21
-349.84168134311449
 31
0.0
 70
             128
 71
               5
 72
               1
 41
1.0
 42
0.0
  3
Ekitchen
100
AcDbAlignedDimension
 13
1580.4921517331588
 23
-414.79268134311428
 33
0.0
 14
1620.4921517331338
 24
-408.79268134311428
 34
0.0
100
AcDbRotatedDimension
1001
ACAD
1000
DSTYLE
1002
{
1070
             271
1070
               1
1070
             279
1070
               2
1070
             340
1005
43
1070
             147
1040
1.0
1002
}
  0
MTEXT
  5
296
100
AcDbEntity
  8
一般
100
AcDbMText
 10
709.13310125447083
 20
-310.67907402882832
 30
0.0
 40
19.003146701388893
 41
0.0
 71
               1
 72
               1
  1
断面図 B - B
  7
ＭＳ ゴシック
 73
               1
 44
0.7971987726366996
  0
LINE
  5
297
100
AcDbEntity
  8
一般
370
               9
  6
STYLE_12
100
AcDbLine
 10
1107.2057588801222
 20
60.207318656885818
 30
0.0
 11
1255.4921517331591
 21
180.20731865688572
 31
0.0
  0
DIMENSION
  5
298
100
AcDbEntity
  8
寸法
370
               9
  6
Continuous
100
AcDbDimension
  2
*D16
 10
2019.4921517331591
 20
-74.792681343114182
 30
0.0
 11
2019.4921517331591
 21
150.20731865688577
 31
0.0
 71
               5
 72
               1
 41
1.0
 42
0.0
  3
Ekitchen
100
AcDbAlignedDimension
 13
1910.4921517331591
 23
375.20731865688572
 33
0.0
 14
1910.4921517331591
 24
-74.792681343114182
 34
0.0
 50
90.0
100
AcDbRotatedDimension
1001
ACAD
1000
DSTYLE
1002
{
1070
             271
1070
               1
1070
             279
1070
               2
1070
             340
1005
43
1070
             147
1040
0.9999999962747097
1002
}
  0
POINT
  5
299
100
AcDbEntity
  8
一般
370
               5
  6
Continuous
100
AcDbPoint
 10
1310.4921517331591
 20
-184.7926813431157
 30
0.0
  0
ARC
  5
29A
100
AcDbEntity
  8
一般
370
               9
  6
Continuous
100
AcDbCircle
 10
1283.5269095202239
 20
-540.09408119086697
 30
0.0
 40
799.99999999999955
100
AcDbArc
 50
91.435837290715384
 51
94.303664054902754
  0
POINT
  5
29B
100
AcDbEntity
  8
一般
370
               5
  6
Continuous
100
AcDbPoint
 10
1643.4921517331588
 20
-110.79268134311417
 30
0.0
  0
ARC
  5
29C
100
AcDbEntity
  8
一般
370
               9
  6
Continuous
100
AcDbCircle
 10
1382.4921517331341
 20
60.207318656885818
 30
0.0
 40
198.00000000000003
100
AcDbArc
 50
274.34427241646341
 51
85.65572758353666
  0
ARC
  5
29D
100
AcDbEntity
  8
一般
370
               9
  6
Continuous
100
AcDbCircle
 10
1382.4921517331341
 20
60.207318656885818
 30
0.0
 40
238.00000000000014
100
AcDbArc
 50
274.34427241646318
 51
78.364742597441136
  0
ARC
  5
29E
100
AcDbEntity
  8
一般
370
               9
  6
Continuous
100
AcDbCircle
 10
1382.4921517331341
 20
60.207318656885818
 30
0.0
 40
243.00000000000009
100
AcDbArc
 50
274.34427241646313
 51
319.94187900287449
  0
POINT
  5
29F
100
AcDbEntity
  8
一般
370
               5
  6
Continuous
100
AcDbPoint
 10
1580.4921517331588
 20
60.207318656885818
 30
0.0
  0
ARC
  5
2A0
100
AcDbEntity
  8
一般
370
               9
  6
Continuous
100
AcDbCircle
 10
1337.4573939460938
 20
660.50871850463932
 30
0.0
 40
800.00000000000011
100
AcDbArc
 50
271.43583729071543
 51
274.30366405490281
  0
ARC
  5
2A1
100
AcDbEntity
  8
一般
370
               9
  6
Continuous
100
AcDbCircle
 10
1337.4573939460938
 20
660.50871850463932
 30
0.0
 40
840.00000000000034
100
AcDbArc
 50
271.43583729071543
 51
274.30366405490281
  0
ARC
  5
2A2
100
AcDbEntity
  8
一般
370
               9
  6
Continuous
100
AcDbCircle
 10
1337.4573939460938
 20
660.50871850463932
 30
0.0
 40
845.00000000000068
100
AcDbArc
 50
271.43583729071543
 51
274.30366405490281
  0
ARC
  5
2A3
100
AcDbEntity
  8
一般
370
               9
  6
Continuous
100
AcDbCircle
 10
1335.4421679448769
 20
-540.04107375865988
 30
0.0
 40
799.99999999999955
100
AcDbArc
 50
86.114237480066976
 51
88.564162709284616
  0
ARC
  5
2A4
100
AcDbEntity
  8
一般
370
               9
  6
Continuous
100
AcDbCircle
 10
1337.4573939460938
 20
-540.09408119086697
 30
0.0
 40
799.99999999999955
100
AcDbArc
 50
85.696335945097289
 51
88.564162709284616
  0
LINE
  5
2A5
100
AcDbEntity
  8
2
370
               9
  6
STYLE_12
100
AcDbLine
 10
1310.4921517331591
 20
-438.79268134311428
 30
0.0
 11
710.49215173315883
 21
-438.79268134311428
 31
0.0
  0
LINE
  5
2A6
100
AcDbEntity
  8
2
370
              25
  6
Continuous
100
AcDbLine
 10
1310.4921517331591
 20
-388.79268134311428
 30
0.0
 11
710.49215173315883
 21
-388.79268134311428
 31
0.0
  0
LINE
  5
2A7
100
AcDbEntity
  8
2
370
              25
  6
Continuous
100
AcDbLine
 10
1000.3413037106588
 20
-408.79268134311428
 30
0.0
 11
710.49215173315883
 21
-408.79268134311428
 31
0.0
  0
LINE
  5
2A8
100
AcDbEntity
  8
2
370
              25
  6
Continuous
100
AcDbLine
 10
710.49215173315883
 20
-388.79268134311428
 30
0.0
 11
710.49215173315883
 21
-414.79268134311428
 31
0.0
  0
LINE
  5
2A9
100
AcDbEntity
  8
2
370
               9
  6
STYLE_12
100
AcDbLine
 10
710.49215173315883
 20
-413.79268134311428
 30
0.0
 11
710.49215173315883
 21
-438.79268134311428
 31
0.0
  0
LINE
  5
2AA
100
AcDbEntity
  8
2
370
               9
  6
Continuous
100
AcDbLine
 10
1000.1462691963338
 20
-414.79268134311428
 30
0.0
 11
710.49215173315883
 21
-414.79268134311428
 31
0.0
  0
DIMENSION
  5
2AB
100
AcDbEntity
  8
寸法
370
               9
  6
Continuous
100
AcDbDimension
  2
*D17
 10
2257.4921517331586
 20
-139.79268134311417
 30
0.0
 11
2257.4921517331586
 21
-159.79268134311468
 31
0.0
 71
               5
 72
               1
 41
1.0
 42
0.0
  3
Ekitchen
100
AcDbAlignedDimension
 13
2303.7930284565045
 23
-179.79268134311519
 33
0.0
 14
2296.4921517517851
 24
-139.79268134311417
 34
0.0
 50
90.0
100
AcDbRotatedDimension
1001
ACAD
1000
DSTYLE
1002
{
1070
             271
1070
               1
1070
             279
1070
               2
1070
             340
1005
43
1070
             147
1040
0.9999999962747097
1002
}
  0
INSERT
  5
2AC
100
AcDbEntity
  8
一般
100
AcDbBlockReference
  2
グループ-2-4
 10
-454.50784826684094
 20
18.03139306736432
 30
0.0
  0
INSERT
  5
2AD
100
AcDbEntity
  8
一般
100
AcDbBlockReference
  2
グループ-3-4
 10
-454.50784826684094
 20
18.03139306736432
 30
0.0
  0
INSERT
  5
2AE
100
AcDbEntity
  8
一般
100
AcDbBlockReference
  2
グループ-4-4
 10
-454.50784826684094
 20
18.03139306736432
 30
0.0
  0
LINE
  5
2AF
100
AcDbEntity
  8
一般
370
               9
  6
STYLE_12
100
AcDbLine
 10
1513.7785445861957
 20
60.207318656885818
 30
0.0
 11
1936.4921517331591
 21
60.207318656885818
 31
0.0
  0
DIMENSION
  5
2B0
100
AcDbEntity
  8
寸法
370
               9
  6
Continuous
100
AcDbDimension
  2
*D21
 10
1910.4921517331591
 20
516.18613509316606
 30
0.0
 11
1310.4921517331591
 21
529.70974620055154
 31
0.0
 70
             128
 71
               5
 72
               1
 41
1.0
 42
0.0
  1
間口1800～750対応
  3
Ekitchen
100
AcDbAlignedDimension
 13
710.49215173315883
 23
379.20731867551223
 33
0.0
 14
1910.4921517331591
 24
379.20731867551223
 34
0.0
100
AcDbRotatedDimension
1001
ACAD
1000
DSTYLE
1002
{
1070
             271
1070
               1
1070
             279
1070
               2
1070
             340
1005
43
1070
             147
1040
13.523611107385628
1002
}
  0
ARC
  5
2B1
100
AcDbEntity
  8
一般
370
              25
  6
Continuous
100
AcDbCircle
 10
1006.5783746521317
 20
-134.79268134311349
 30
0.0
 40
59.999999999999453
100
AcDbArc
 50
40.058120997125052
 51
90.0
  0
ARC
  5
2B2
100
AcDbEntity
  8
一般
370
               9
  6
Continuous
100
AcDbCircle
 10
1614.4059288141859
 20
-134.79268134311397
 30
0.0
 40
59.999999999999829
100
AcDbArc
 50
90.0
 51
139.94187900287477
  0
DIMENSION
  5
2B3
100
AcDbEntity
  8
寸法
370
               9
  6
Continuous
100
AcDbDimension
  2
*D22
 10
2019.4921517331591
 20
-74.792681343114182
 30
0.0
 11
2020.4921517331591
 21
-129.792542538822
 31
0.0
 70
             128
 71
               5
 72
               1
 41
1.0
 42
0.0
  3
Ekitchen
100
AcDbAlignedDimension
 13
1309.426591299009
 23
-184.7924037345297
 33
0.0
 14
1910.4921517331591
 24
-74.792681343114182
 34
0.0
 50
90.0
100
AcDbRotatedDimension
1001
ACAD
1000
DSTYLE
1002
{
1070
             271
1070
               1
1070
             279
1070
               2
1070
             340
1005
43
1070
             147
1040
1.0
1002
}
  0
INSERT
  5
2B4
100
AcDbEntity
  8
一般
100
AcDbBlockReference
  2
グループ-5-4
 10
-454.50784826684094
 20
18.03139306736432
 30
0.0
  0
LINE
  5
2B5
100
AcDbEntity
  8
一般
370
               9
  6
STYLE_12
100
AcDbLine
 10
1107.2057588801222
 20
60.207318656885818
 30
0.0
 11
672.49215173315883
 21
60.207318656885818
 31
0.0
  0
INSERT
  5
2B6
100
AcDbEntity
  8
一般
100
AcDbBlockReference
  2
グループ-8-3
 10
-454.50784826684094
 20
18.03139306736432
 30
0.0
  0
LINE
  5
2B7
100
AcDbEntity
  8
2
370
              25
  6
Continuous
100
AcDbLine
 10
1369.9121303124421
 20
-555.67861222072838
 30
0.0
 11
1452.994199412949
 21
-551.3244654809323
 31
0.0
  0
LINE
  5
2B8
100
AcDbEntity
  8
2
370
               9
  6
Continuous
100
AcDbLine
 10
1363.7460252747119
 20
-562.00999816856915
 30
0.0
 11
1453.3082151504068
 21
-557.31624268945961
 31
0.0
  0
LINE
  5
2B9
100
AcDbEntity
  8
2
370
              25
  6
Continuous
100
AcDbLine
 10
1580.1078800964099
 20
-415.84845898802041
 30
0.0
 11
1559.4769991581059
 21
-472.53133850946398
 31
0.0
  0
LINE
  5
2BA
100
AcDbEntity
  8
2
370
               9
  6
Continuous
100
AcDbLine
 10
1584.5855297612409
 20
-421.08904404264501
 30
0.0
 11
1565.1151548828218
 21
-474.58345936941811
 31
0.0
  0
LINE
  5
2BB
100
AcDbEntity
  8
一般
370
               9
  6
Continuous
100
AcDbLine
 10
1050.4921517331588
 20
-414.79268134311428
 30
0.0
 11
1415.501515032689
 21
-414.79268134311428
 31
0.0
  0
LINE
  5
2BC
100
AcDbEntity
  8
一般
370
               9
  6
Continuous
100
AcDbLine
 10
1430.4921517331591
 20
-414.79268134311428
 30
0.0
 11
1580.4921517331588
 21
-414.79268134311428
 31
0.0
  0
POINT
  5
2BD
100
AcDbEntity
  8
一般
370
               5
  6
Continuous
100
AcDbPoint
 10
1430.4921517331591
 20
-414.79268134311428
 30
0.0
  0
POINT
  5
2BE
100
AcDbEntity
  8
一般
370
               5
  6
Continuous
100
AcDbPoint
 10
1550.4921517331588
 20
-408.79268134311428
 30
0.0
  0
LINE
  5
2BF
100
AcDbEntity
  8
一般
370
               9
  6
Continuous
100
AcDbLine
 10
1615.7474326562158
 20
-408.79268134311428
 30
0.0
 11
1548.4759808277149
 21
-408.79268134311428
 31
0.0
  0
ARC
  5
2C0
100
AcDbEntity
  8
2
370
              25
  6
Continuous
100
AcDbCircle
 10
1446.7138846637981
 20
-431.48892131038377
 30
0.0
 40
119.99999999999962
100
AcDbArc
 50
272.99999999999909
 51
340.0
  0
ARC
  5
2C1
100
AcDbEntity
  8
2
370
               9
  6
Continuous
100
AcDbCircle
 10
1446.7138846637981
 20
-431.48892131038377
 30
0.0
 40
125.9999999999995
100
AcDbArc
 50
272.9999999999992
 51
340.00000000000006
  0
LINE
  5
2C2
100
AcDbEntity
  8
2
370
              25
  6
Continuous
100
AcDbLine
 10
1250.3330233541901
 20
-555.63987502116947
 30
0.0
 11
1167.9901040533691
 21
-551.3244654809323
 31
0.0
  0
LINE
  5
2C3
100
AcDbEntity
  8
2
370
               9
  6
Continuous
100
AcDbLine
 10
1249.8306098257908
 20
-561.62177871985182
 30
0.0
 11
1167.6760883159109
 21
-557.31624268945961
 31
0.0
  0
LINE
  5
2C4
100
AcDbEntity
  8
2
370
              25
  6
Continuous
100
AcDbLine
 10
1040.8764233699078
 20
-415.84845898802041
 30
0.0
 11
1061.5073043082109
 21
-472.53133850946398
 31
0.0
  0
LINE
  5
2C5
100
AcDbEntity
  8
2
370
               9
  6
Continuous
100
AcDbLine
 10
1036.3987737050768
 20
-421.08904404264501
 30
0.0
 11
1055.8691485834959
 21
-474.58345936941811
 31
0.0
  0
LINE
  5
2C6
100
AcDbEntity
  8
一般
370
               9
  6
Continuous
100
AcDbLine
 10
1190.4921517331591
 20
-414.79268134311428
 30
0.0
 11
1040.4921517331588
 21
-414.79268134311428
 31
0.0
  0
LINE
  5
2C7
100
AcDbEntity
  8
一般
370
               9
  6
Continuous
100
AcDbLine
 10
1172.540606390945
 20
-413.71558862258138
 30
0.0
 11
1108.4436970753709
 21
-409.86977406364701
 31
0.0
  0
POINT
  5
2C8
100
AcDbEntity
  8
一般
370
               5
  6
Continuous
100
AcDbPoint
 10
1190.4921517331591
 20
-414.79268134311428
 30
0.0
  0
POINT
  5
2C9
100
AcDbEntity
  8
一般
370
               5
  6
Continuous
100
AcDbPoint
 10
1090.4921517331591
 20
-408.79268134311428
 30
0.0
  0
LINE
  5
2CA
100
AcDbEntity
  8
一般
370
               9
  6
Continuous
100
AcDbLine
 10
1000.7828687230108
 20
-408.79268134311428
 30
0.0
 11
1072.5083226386027
 21
-408.79268134311428
 31
0.0
  0
ARC
  5
2CB
100
AcDbEntity
  8
2
370
              25
  6
Continuous
100
AcDbCircle
 10
1174.27041880252
 20
-431.48892131038377
 30
0.0
 40
120.0000000000002
100
AcDbArc
 50
199.99999999999997
 51
267.0000000000008
  0
ARC
  5
2CC
100
AcDbEntity
  8
2
370
               9
  6
Continuous
100
AcDbCircle
 10
1174.27041880252
 20
-431.48892131038377
 30
0.0
 40
126.00000000000023
100
AcDbArc
 50
199.99999999999994
 51
267.0000000000008
  0
ARC
  5
2CD
100
AcDbEntity
  8
一般
370
              25
  6
Continuous
100
AcDbCircle
 10
1659.7524453207786
 20
-806.86130526041256
 30
0.0
 40
399.99999999999943
100
AcDbArc
 50
95.653950815571505
 51
101.26750132767802
  0
ARC
  5
2CE
100
AcDbEntity
  8
2
370
              25
  6
Continuous
100
AcDbCircle
 10
1581.9872653379527
 20
-416.53249927466152
 30
0.0
 40
1.9999999999701008
100
AcDbArc
 50
101.26750132696174
 51
160.00000000000082
  0
ARC
  5
2CF
100
AcDbEntity
  8
2
370
              25
  6
Continuous
100
AcDbCircle
 10
1620.6400125647858
 20
-411.79268134304687
 30
0.0
 40
2.9999999999325837
100
AcDbArc
 50
90.0
 51
95.653950815698266
  0
POINT
  5
2D0
100
AcDbEntity
  8
2
370
               5
  6
Continuous
100
AcDbPoint
 10
1580.4921517331588
 20
-414.79268134311428
 30
0.0
  0
POINT
  5
2D1
100
AcDbEntity
  8
一般
370
               5
  6
Continuous
100
AcDbPoint
 10
1620.4921517331338
 20
-408.79268134311428
 30
0.0
  0
ARC
  5
2D2
100
AcDbEntity
  8
2
370
              25
  6
Continuous
100
AcDbCircle
 10
1038.9970381283649
 20
-416.53249927466152
 30
0.0
 40
1.9999999999701614
100
AcDbArc
 50
19.999999999999233
 51
78.732498673038577
  0
ARC
  5
2D3
100
AcDbEntity
  8
2
370
              25
  6
Continuous
100
AcDbCircle
 10
1000.3442909015318
 20
-411.79268134304687
 30
0.0
 40
2.9999999999325615
100
AcDbArc
 50
84.346049184301734
 51
90.0
  0
POINT
  5
2D4
100
AcDbEntity
  8
2
370
               5
  6
Continuous
100
AcDbPoint
 10
1040.4921517331588
 20
-414.79268134311428
 30
0.0
  0
POINT
  5
2D5
100
AcDbEntity
  8
一般
370
               5
  6
Continuous
100
AcDbPoint
 10
1000.4921517331838
 20
-408.79268134311428
 30
0.0
  0
INSERT
  5
2D6
100
AcDbEntity
  8
一般
100
AcDbBlockReference
  2
グループ-9-1
 10
-454.50784826684094
 20
18.03139306736432
 30
0.0
  0
ARC
  5
2D7
100
AcDbEntity
  8
2
370
               9
  6
Continuous
100
AcDbCircle
 10
1000.1462691963338
 20
-415.79268134312588
 30
0.0
 40
1.0000000000116043
100
AcDbArc
 50
84.317325251537994
 51
90.0
  0
ARC
  5
2D8
100
AcDbEntity
  8
一般
370
               9
  6
Continuous
100
AcDbCircle
 10
1034.5193884635039
 20
-421.77308432929681
 30
0.0
 40
2.0000000000015925
100
AcDbArc
 50
19.999999999997296
 51
79.224691324700331
  0
ARC
  5
2D9
100
AcDbEntity
  8
一般
370
               9
  6
Continuous
100
AcDbCircle
 10
1659.7524453207786
 20
-806.86130526041256
 30
0.0
 40
393.99999999999937
100
AcDbArc
 50
95.682674748525528
 51
100.77530867526012
  0
ARC
  5
2DA
100
AcDbEntity
  8
2
370
               9
  6
Continuous
100
AcDbCircle
 10
1620.8380342699836
 20
-415.79268134312588
 30
0.0
 40
1.0000000000115961
100
AcDbArc
 50
90.0
 51
95.68267474846202
  0
ARC
  5
2DB
100
AcDbEntity
  8
一般
370
               9
  6
Continuous
100
AcDbCircle
 10
1586.4649150028138
 20
-421.77308432929681
 30
0.0
 40
2.0000000000014646
100
AcDbArc
 50
100.77530867530028
 51
160.00000000000199
  0
POINT
  5
2DC
100
AcDbEntity
  8
一般
370
               5
  6
Continuous
100
AcDbPoint
 10
1310.4921517331591
 20
-388.79268134311428
 30
0.0
  0
LINE
  5
2DD
100
AcDbEntity
  8
一般
370
               9
  6
STYLE_13
100
AcDbLine
 10
1310.4921517331591
 20
-561.66190753492174
 30
0.0
 11
1310.4921517331591
 21
-259.98950115888351
 31
0.0
  0
POINT
  5
2DE
100
AcDbEntity
  8
一般
370
               5
  6
Continuous
100
AcDbPoint
 10
1620.4921517331338
 20
-403.79268136174068
 30
0.0
  0
POINT
  5
2DF
100
AcDbEntity
  8
一般
370
               5
  6
Continuous
100
AcDbPoint
 10
1000.4921517331838
 20
-403.79268136174068
 30
0.0
  0
SPLINE
  5
2E0
100
AcDbEntity
  8
一般
370
              25
  6
Continuous
100
AcDbSpline
210
0.0
220
0.0
230
1.0
 70
               8
 71
               2
 72
              10
 73
               7
 74
               0
 42
0.000001
 43
0.000001
 40
0.0
 40
0.0
 40
0.0
 40
1.0
 40
1.0
 40
2.0
 40
2.0
 40
3.0
 40
3.0
 40
3.0
 10
1000.6398508467919
 20
-408.807276124596
 30
0.0
 10
1001.3368248781661
 20
-408.8761945003713
 30
0.0
 10
1002.0337989095403
 20
-408.9451128761466
 30
0.0
 10
1020.1363812620316
 20
-410.86283825105068
 30
0.0
 10
1038.0140540556733
 20
-414.29073488290794
 30
0.0
 10
1038.7009359914582
 20
-414.42741735354656
 30
0.0
 10
1039.3878179272428
 20
-414.56409982418512
 30
0.0
  0
SPLINE
  5
2E1
100
AcDbEntity
  8
一般
370
               9
  6
Continuous
100
AcDbSpline
210
0.0
220
0.0
230
1.0
 70
               8
 71
               2
 72
              10
 73
               7
 74
               0
 42
0.000001
 43
0.000001
 40
0.0
 40
0.0
 40
0.0
 40
1.0
 40
1.0
 40
2.0
 40
2.0
 40
3.0
 40
3.0
 40
3.0
 10
1000.3442909015318
 20
-414.79094817586821
 30
0.0
 10
1000.9654096608332
 20
-414.85299331557673
 30
0.0
 10
1001.5865284201345
 20
-414.9150384552853
 30
0.0
 10
1017.7208738266572
 20
-416.63054546838453
 30
0.0
 10
1033.6783112094336
 20
-419.57405304961043
 30
0.0
 10
1034.2914917881822
 20
-419.69120077891438
 30
0.0
 10
1034.9046723669308
 20
-419.80834850821839
 30
0.0
  0
SPLINE
  5
2E2
100
AcDbEntity
  8
一般
370
               9
  6
Continuous
100
AcDbSpline
210
0.0
220
0.0
230
1.0
 70
               8
 71
               2
 72
              10
 73
               7
 74
               0
 42
0.000001
 43
0.000001
 40
0.0
 40
0.0
 40
0.0
 40
1.0
 40
1.0
 40
2.0
 40
2.0
 40
3.0
 40
3.0
 40
3.0
 10
1072.5083226386027
 20
-408.79268134311428
 30
0.0
 10
1073.1506022491226
 20
-408.79268134311428
 30
0.0
 10
1073.7928818596424
 20
-408.79268134311428
 30
0.0
 10
1090.4900104638705
 20
-408.8641211664152
 30
0.0
 10
1107.1614438366414
 20
-409.79283886932325
 30
0.0
 10
1107.8025704560064
 20
-409.83130646648516
 30
0.0
 10
1108.4436970753709
 20
-409.86977406364701
 30
0.0
  0
SPLINE
  5
2E3
100
AcDbEntity
  8
一般
370
               9
  6
Continuous
100
AcDbSpline
210
0.0
220
0.0
230
1.0
 70
               8
 71
               2
 72
              10
 73
               7
 74
               0
 42
0.000001
 43
0.000001
 40
0.0
 40
0.0
 40
0.0
 40
1.0
 40
1.0
 40
2.0
 40
2.0
 40
3.0
 40
3.0
 40
3.0
 10
1208.4759808277131
 20
-414.79268134311428
 30
0.0
 10
1207.8337012171933
 20
-414.79268134311428
 30
0.0
 10
1207.1914216066734
 20
-414.79268134311428
 30
0.0
 10
1190.4942930024458
 20
-414.72124151981353
 30
0.0
 10
1173.8228596296744
 20
-413.79252381690515
 30
0.0
 10
1173.1817330103095
 20
-413.75405621974329
 30
0.0
 10
1172.540606390945
 20
-413.71558862258138
 30
0.0
  0
SPLINE
  5
2E4
100
AcDbEntity
  8
一般
370
               9
  6
Continuous
100
AcDbSpline
210
0.0
220
0.0
230
1.0
 70
               8
 71
               2
 72
              10
 73
               7
 74
               0
 42
0.000001
 43
0.000001
 40
0.0
 40
0.0
 40
0.0
 40
1.0
 40
1.0
 40
2.0
 40
2.0
 40
3.0
 40
3.0
 40
3.0
 10
1412.508322638605
 20
-414.79268134311428
 30
0.0
 10
1413.1506022491249
 20
-414.79268134311428
 30
0.0
 10
1413.7928818596447
 20
-414.79268134311428
 30
0.0
 10
1430.4900104638714
 20
-414.72124151981353
 30
0.0
 10
1447.1614438366437
 20
-413.79252381690515
 30
0.0
 10
1447.8025704560082
 20
-413.75405621974329
 30
0.0
 10
1448.4436970753732
 20
-413.71558862258138
 30
0.0
  0
LINE
  5
2E5
100
AcDbEntity
  8
一般
370
               9
  6
Continuous
100
AcDbLine
 10
1448.4436970753732
 20
-413.71558862258138
 30
0.0
 11
1512.5406063909468
 21
-409.86977406364701
 31
0.0
  0
SPLINE
  5
2E6
100
AcDbEntity
  8
一般
370
               9
  6
Continuous
100
AcDbSpline
210
0.0
220
0.0
230
1.0
 70
               8
 71
               2
 72
              10
 73
               7
 74
               0
 42
0.000001
 43
0.000001
 40
0.0
 40
0.0
 40
0.0
 40
1.0
 40
1.0
 40
2.0
 40
2.0
 40
3.0
 40
3.0
 40
3.0
 10
1548.4759808277149
 20
-408.79268134311428
 30
0.0
 10
1547.8337012171951
 20
-408.79268134311428
 30
0.0
 10
1547.1914216066752
 20
-408.79268134311428
 30
0.0
 10
1530.4942930024483
 20
-408.86412116641498
 30
0.0
 10
1513.8228596296763
 20
-409.79283886932325
 30
0.0
 10
1513.1817330103115
 20
-409.83130646648516
 30
0.0
 10
1512.5406063909468
 20
-409.86977406364701
 30
0.0
  0
SPLINE
  5
2E7
100
AcDbEntity
  8
一般
370
               9
  6
Continuous
100
AcDbSpline
210
0.0
220
0.0
230
1.0
 70
               8
 71
               2
 72
              10
 73
               7
 74
               0
 42
0.000001
 43
0.000001
 40
0.0
 40
0.0
 40
0.0
 40
1.0
 40
1.0
 40
2.0
 40
2.0
 40
3.0
 40
3.0
 40
3.0
 10
1357.4921517331591
 20
-139.24009143239809
 30
0.0
 10
1355.1418713710586
 20
-139.30308389901563
 30
0.0
 10
1352.7915910089582
 20
-139.36607636563318
 30
0.0
 10
1310.4865444911525
 20
-140.27316788492578
 30
0.0
 10
1268.1814979733467
 20
-139.36607636563318
 30
0.0
 10
1265.8312176112463
 20
-139.30308389901563
 30
0.0
 10
1263.4809372491459
 20
-139.24009143239809
 30
0.0
  0
SPLINE
  5
2E8
100
AcDbEntity
  8
一般
370
               9
  6
Continuous
100
AcDbSpline
210
0.0
220
0.0
230
1.0
 70
               8
 71
               2
 72
              10
 73
               7
 74
               0
 42
0.000001
 43
0.000001
 40
0.0
 40
0.0
 40
0.0
 40
1.0
 40
1.0
 40
2.0
 40
2.0
 40
3.0
 40
3.0
 40
3.0
 10
1358.3805404077571
 20
-179.2275319292502
 30
0.0
 10
1355.982988759655
 20
-179.28858251318638
 30
0.0
 10
1353.5854371115529
 20
-179.34963309712253
 30
0.0
 10
1310.4295074457177
 20
-180.22876150580325
 30
0.0
 10
1267.2735777798812
 20
-179.34963309712253
 30
0.0
 10
1264.8760261317789
 20
-179.28858251318638
 30
0.0
 10
1262.478474483677
 20
-179.2275319292502
 30
0.0
  0
SPLINE
  5
2E9
100
AcDbEntity
  8
一般
370
               9
  6
Continuous
100
AcDbSpline
210
0.0
220
0.0
230
1.0
 70
               8
 71
               2
 72
              10
 73
               7
 74
               0
 42
0.000001
 43
0.000001
 40
0.0
 40
0.0
 40
0.0
 40
1.0
 40
1.0
 40
2.0
 40
2.0
 40
3.0
 40
3.0
 40
3.0
 10
1358.5056660789178
 20
-184.22596199135688
 30
0.0
 10
1356.1018582096674
 20
-184.28718156172869
 30
0.0
 10
1353.698050340417
 20
-184.34840113210046
 30
0.0
 10
1310.4295086939078
 20
-185.2299629454543
 30
0.0
 10
1267.1609670473981
 20
-184.34840113210046
 30
0.0
 10
1264.7571591781475
 20
-184.28718156172869
 30
0.0
 10
1262.3533513088969
 20
-184.22596199135688
 30
0.0
  0
SPLINE
  5
2EA
100
AcDbEntity
  8
一般
370
               9
  6
Continuous
100
AcDbSpline
210
0.0
220
0.0
230
1.0
 70
               8
 71
               2
 72
              10
 73
               7
 74
               0
 42
0.000001
 43
0.000001
 40
0.0
 40
0.0
 40
0.0
 40
1.0
 40
1.0
 40
2.0
 40
2.0
 40
3.0
 40
3.0
 40
3.0
 10
1265.4963126286912
 20
259.70773617837705
 30
0.0
 10
1267.7437086063028
 20
259.75235233122072
 30
0.0
 10
1269.9911045839144
 20
259.79696848406439
 30
0.0
 10
1310.4442321809247
 20
260.4394410850137
 30
0.0
 10
1350.8973597779354
 20
259.79696848406462
 30
0.0
 10
1353.1447557555473
 20
259.75235233122095
 30
0.0
 10
1355.3921517331592
 20
259.70773617837722
 30
0.0
  0
MTEXT
  5
2EB
100
AcDbEntity
  8
一般
100
AcDbMText
 10
1042.7496286120445
 20
-475.91684048658334
 30
0.0
 40
16.288411458333332
 41
0.0
 71
               1
 72
               1
  1
オーバーフロ用孔φ30
  7
ＭＳ ゴシック
 73
               1
 44
0.9300652347428164
  0
LINE
  5
2EC
100
AcDbEntity
  8
一般
370
               9
  6
Continuous
100
AcDbLine
 10
1297.4431359661039
 20
-462.19019359461777
 30
0.0
 11
1254.9869230549489
 21
-499.04405578479827
 31
0.0
  0
LWPOLYLINE
  5
2ED
102
{ACAD_REACTORS
330
2EE
102
}
100
AcDbEntity
  8
一般
370
               5
  6
Continuous
100
AcDbPolyline
 90
        3
 70
             129
 10
1292.7909195960488
 20
-464.45923112735301
 10
1297.4431359661039
 20
-462.19019359461777
 10
1294.548717172102
 20
-466.48134592513418
  0
HATCH
  5
2EE
100
AcDbEntity
  8
一般
370
               0
  6
Continuous
 62
               7
100
AcDbHatch
 10
0.0
 20
0.0
 30
0.0
210
0.0
220
0.0
230
1.0
  2
SOLID
 70
               1
 71
               1
 91
        1
 92
        1
 93
        3
 72
               1
 10
1292.7909195960488
 20
-464.45923112735301
 11
1297.4431359661039
 21
-462.19019359461777
 72
               1
 10
1297.4431359661039
 20
-462.19019359461777
 11
1294.548717172102
 21
-466.48134592513418
 72
               1
 10
1294.548717172102
 20
-466.48134592513418
 11
1292.7909195960488
 21
-464.45923112735301
 97
        1
330
2ED
 75
               0
 76
               1
 98
        1
 10
0.0
 20
0.0
  0
LINE
  5
2EF
100
AcDbEntity
  8
一般
370
               9
  6
Continuous
100
AcDbLine
 10
1089.699928460449
 20
-499.04405578479827
 30
0.0
 11
1254.9869230549489
 21
-499.04405578479827
 31
0.0
  0
CIRCLE
  5
2F0
100
AcDbEntity
  8
一般
370
               9
  6
Continuous
100
AcDbCircle
 10
1310.4921517331591
 20
-454.79268134311428
 30
0.0
 40
15.0
  0
LINE
  5
2F1
100
AcDbEntity
  8
寸法
370
               9
  6
STYLE_06
100
AcDbLine
 10
1351.7040657142038
 20
-454.79268134311428
 30
0.0
 11
1259.2585439637401
 21
-454.79268134311428
 31
0.0
  0
DIMENSION
  5
2F2
100
AcDbEntity
  8
寸法
370
               9
  6
Continuous
100
AcDbDimension
  2
*D28
 10
1248.9719271469171
 20
-414.79268134311428
 30
0.0
 11
1248.9719271469171
 21
-434.79268134311428
 31
0.0
 71
               5
 72
               1
 41
1.0
 42
0.0
  3
Ekitchen
100
AcDbAlignedDimension
 13
1263.317127845467
 23
-454.79268134311428
 33
0.0
 14
1263.317127845467
 24
-414.79268134311428
 34
0.0
 50
90.0
100
AcDbRotatedDimension
1001
ACAD
1000
DSTYLE
1002
{
1070
             271
1070
               1
1070
             279
1070
               2
1070
             340
1005
43
1070
             147
1040
0.9999999962747097
1002
}
  0
LINE
  5
2F3
100
AcDbEntity
  8
寸法
370
               9
  6
STYLE_06
100
AcDbLine
 10
2349.7930284565045
 20
250.59438214003518
 30
0.0
 11
2349.7930284565045
 21
278.500059235251
 31
0.0
  0
LINE
  5
2F4
100
AcDbEntity
  8
一般
370
               9
  6
Continuous
100
AcDbLine
 10
2364.7724714778242
 20
257.4045798108429
 30
0.0
 11
2365.0864872152815
 21
263.39635701937044
 31
0.0
  0
LINE
  5
2F5
100
AcDbEntity
  8
一般
370
               9
  6
Continuous
100
AcDbLine
 10
2334.8135854351867
 20
258.97465849813415
 30
0.0
 11
2335.127601172645
 21
264.96643570666157
 31
0.0
  0
LINE
  5
2F6
100
AcDbEntity
  8
一般
370
               9
  6
STYLE_12
100
AcDbLine
 10
1513.7785445861957
 20
60.207318656885818
 30
0.0
 11
1365.4921517331591
 21
180.20731865688572
 31
0.0
  0
CIRCLE
  5
2F7
100
AcDbEntity
  8
1
370
               9
  6
Continuous
100
AcDbCircle
 10
1310.4921517331591
 20
180.20731865688572
 30
0.0
 40
27.5
  0
DIMENSION
  5
2F8
100
AcDbEntity
  8
寸法
370
               9
  6
Continuous
100
AcDbDimension
  2
*D29
 10
710.49215173315883
 20
480.53347043353921
 30
0.0
 11
1010.4921517331588
 21
480.53347043353921
 31
0.0
 71
               5
 72
               1
 41
1.0
 42
0.0
  1
MAX900(MIN375)
  3
Ekitchen
100
AcDbAlignedDimension
 13
1310.4921517331591
 23
480.53347043353921
 33
0.0
 14
710.49215173315883
 24
480.53347043353921
 34
0.0
100
AcDbRotatedDimension
1001
ACAD
1000
DSTYLE
1002
{
1070
             271
1070
               1
1070
             279
1070
               2
1070
             340
1005
43
1070
             147
1040
0.9999999962747097
1002
}
  0
ARC
  5
2F9
100
AcDbEntity
  8
一般
370
               9
  6
Continuous
100
AcDbCircle
 10
1238.4921517331841
 20
59.792681343114182
 30
0.0
 40
238.00000000000014
100
AcDbArc
 50
94.344272416463198
 51
258.36474259744108
  0
ARC
  5
2FA
100
AcDbEntity
  8
一般
370
               9
  6
Continuous
100
AcDbCircle
 10
1283.5269095202239
 20
-540.50871850463932
 30
0.0
 40
840.00000000000068
100
AcDbArc
 50
91.43583729071544
 51
94.303664054902811
  0
ARC
  5
2FB
100
AcDbEntity
  8
一般
370
               9
  6
Continuous
100
AcDbCircle
 10
1382.4921517331341
 20
59.792681343114182
 30
0.0
 40
237.99999999999986
100
AcDbArc
 50
281.63525740255886
 51
85.655727583536816
  0
ARC
  5
2FC
100
AcDbEntity
  8
一般
370
               9
  6
Continuous
100
AcDbCircle
 10
1337.4573939460938
 20
-540.50871850463932
 30
0.0
 40
840.00000000000045
100
AcDbArc
 50
85.696335945097204
 51
88.564162709284588
  0
SPLINE
  5
2FD
100
AcDbEntity
  8
一般
370
               9
  6
Continuous
100
AcDbSpline
210
0.0
220
0.0
230
1.0
 70
               8
 71
               2
 72
              10
 73
               7
 74
               0
 42
0.000001
 43
0.000001
 40
0.0
 40
0.0
 40
0.0
 40
1.0
 40
1.0
 40
2.0
 40
2.0
 40
3.0
 40
3.0
 40
3.0
 10
1358.3805404077571
 20
299.22753192925023
 30
0.0
 10
1355.982988759655
 20
299.28858251318638
 30
0.0
 10
1353.5854371115529
 20
299.34963309712253
 30
0.0
 10
1310.4295074457177
 20
300.22876150580322
 30
0.0
 10
1267.2735777798812
 20
299.34963309712253
 30
0.0
 10
1264.8760261317789
 20
299.28858251318638
 30
0.0
 10
1262.478474483677
 20
299.22753192925023
 30
0.0
  0
MTEXT
  5
2FE
100
AcDbEntity
  8
一般
100
AcDbMText
 10
2252.5850829658139
 20
-629.31398799494082
 30
0.0
 40
17.700900607638889
 41
0.0
 71
               1
 72
               1
  1
LM{\f小塚ゴシック Pr6N R|b0|i0|c0|p0;\H1.063x;\l型}
  7
Arial
 73
               1
 44
1.3839975285758421
  0
DIMENSION
  5
2FF
100
AcDbEntity
  8
寸法
370
              15
  6
Continuous
100
AcDbDimension
  2
*D30
 10
1040.4921517331588
 20
10.0
 30
0.0
 11
1310.4921517331588
 21
10.0
 31
0.0
 71
               5
 72
               1
 41
1.0
 42
0.0
  3
Ekitchen
100
AcDbAlignedDimension
 13
1580.4921517331588
 23
60.207318656885818
 33
0.0
 14
1040.4921517331588
 24
60.207318656885818
 34
0.0
100
AcDbRotatedDimension
1001
ACAD
1000
DSTYLE
1002
{
1070
             279
1070
               2
1070
             340
1005
45
1070
             140
1040
16.123046874999996
1070
             147
1040
4.0
1002
}
  0
DIMENSION
  5
300
100
AcDbEntity
  8
寸法
370
              15
  6
Continuous
100
AcDbDimension
  2
*D31
 10
1248.0
 20
-140.27316788492578
 30
0.0
 11
1248.0
 21
59.717284146725689
 31
0.0
 71
               5
 72
               1
 41
1.0
 42
0.0
  3
Ekitchen
100
AcDbAlignedDimension
 13
1310.4442321809252
 23
259.70773617837716
 33
0.0
 14
1310.4865444911525
 24
-140.27316788492578
 34
0.0
 50
90.0
100
AcDbRotatedDimension
1001
ACAD
1000
DSTYLE
1002
{
1070
             271
1070
               0
1070
             279
1070
               2
1070
             340
1005
45
1070
             140
1040
16.123046874999996
1070
             147
1040
4.0
1002
}
  0
ENDSEC
  0
SECTION
  2
OBJECTS
  0
DICTIONARY
  5
19
100
AcDbDictionary
280
               0
281
               1
  3
ACAD_GROUP
350
1A
  3
ACAD_MLINESTYLE
350
1B
  3
ACAD_LAYOUT
350
1E
  3
ACAD_PLOTSETTINGS
350
22
  3
ACAD_PLOTSTYLENAME
350
1F
  3
ACAD_WIPEOUT_VARS
350
23
  0
DICTIONARY
  5
1A
102
{ACAD_REACTORS
330
19
102
}
100
AcDbDictionary
280
               0
281
               1
  0
DICTIONARY
  5
1B
102
{ACAD_REACTORS
330
19
102
}
100
AcDbDictionary
280
               0
281
               1
  3
Standard
350
1C
  0
MLINESTYLE
  5
1C
102
{ACAD_REACTORS
330
1B
102
}
100
AcDbMlineStyle
  2
Standard
 70
               0
  3

 62
               0
 51
90.0
 52
90.0
 71
               2
 49
0.5
 62
             256
  6
ByLayer
 49
-0.5
 62
             256
  6
ByLayer
  0
ACDBDICTIONARYWDFLT
  5
1F
102
{ACAD_REACTORS
330
19
102
}
100
AcDbDictionary
281
               1
  3
Normal
350
1D
100
AcDbDictionaryWithDefault
340
1D
  0
ACDBPLACEHOLDER
  5
1D
102
{ACAD_REACTORS
330
1F
102
}
  0
LAYOUT
  5
20
102
{ACAD_REACTORS
330
1E
102
}
100
AcDbPlotSettings
  1

  2

  4

  6

 40
0.0
 41
0.0
 42
0.0
 43
0.0
 44
0.0
 45
0.0
 46
0.0
 47
0.0
 48
0.0
 49
0.0
140
0.0
141
0.0
142
1.0
143
1.0
 70
            1024
 72
               0
 73
               0
 74
               0
  7

 75
               0
147
1.0
148
0.0
149
0.0
100
AcDbLayout
  1
Model
 70
               0
 71
               0
 10
0.0
 20
0.0
 11
0.0
 21
0.0
 12
0.0
 22
0.0
 32
0.0
 14
0.0
 24
0.0
 34
0.0
 15
0.0
 25
0.0
 35
0.0
146
0.0
 13
0.0
 23
0.0
 33
0.0
 16
0.0
 26
0.0
 36
0.0
 17
0.0
 27
0.0
 37
0.0
 76
               0
330
A
331
0
345
0
346
0
  0
LAYOUT
  5
21
102
{ACAD_REACTORS
330
1E
102
}
100
AcDbPlotSettings
  1

  2

  4

  6

 40
0.0
 41
0.0
 42
0.0
 43
0.0
 44
0.0
 45
0.0
 46
0.0
 47
0.0
 48
0.0
 49
0.0
140
0.0
141
0.0
142
1.0
143
1.0
 70
               0
 72
               0
 73
               0
 74
               0
  7

 75
               0
147
1.0
148
0.0
149
0.0
100
AcDbLayout
  1
Layout1
 70
               0
 71
               0
 10
0.0
 20
0.0
 11
0.0
 21
0.0
 12
0.0
 22
0.0
 32
0.0
 14
0.0
 24
0.0
 34
0.0
 15
0.0
 25
0.0
 35
0.0
146
0.0
 13
0.0
 23
0.0
 33
0.0
 16
0.0
 26
0.0
 36
0.0
 17
0.0
 27
0.0
 37
0.0
 76
               0
330
B
331
0
345
0
346
0
  0
DICTIONARY
  5
1E
102
{ACAD_REACTORS
330
19
102
}
100
AcDbDictionary
280
               0
281
               1
  3
Layout1
350
21
  3
Model
350
20
  0
DICTIONARY
  5
22
102
{ACAD_REACTORS
330
19
102
}
100
AcDbDictionary
280
               0
281
               1
  0
WIPEOUTVARIABLES
  5
23
100
AcDbWipeoutVariables
 70
               0
  0
ENDSEC
  0
EOF
