  0
SECTION
  2
HEADER
  9
$ACADVER
  1
AC1015
  9
$ACADMAINTVER
 70
               6
  9
$DWGCODEPAGE
  3
ANSI_932
  9
$INSBASE
 10
0.0
 20
0.0
 30
0.0
  9
$EXTMIN
 10
695.01699432771773
 20
-631.0
 30
0.0
  9
$EXTMAX
 10
2630.7253569958011
 20
5977.3609983389906
 30
0.0
  9
$LIMMIN
 10
0.0
 20
0.0
  9
$LIMMAX
 10
0.0
 20
0.0
  9
$ORTHOMODE
 70
               0
  9
$REGENMODE
 70
               1
  9
$FILLMODE
 70
               1
  9
$QTEXTMODE
 70
               0
  9
$MIRRTEXT
 70
               1
  9
$LTSCALE
 40
6.3499999999999996
  9
$ATTMODE
 70
               1
  9
$TEXTSIZE
 40
0.2
  9
$TRACEWID
 40
1.0
  9
$TEXTSTYLE
  7
Standard
  9
$CLAYER
  8
一般
  9
$CELTYPE
  6
Continuous
  9
$CECOLOR
 62
             256
  9
$CELTSCALE
 40
1.0
  9
$DISPSILH
 70
               0
  9
$DIMSCALE
 40
1.0
  9
$DIMASZ
 40
7.5034179687499991
  9
$DIMEXO
 40
4.9999999999999991
  9
$DIMDLI
 40
4.9999999999999991
  9
$DIMRND
 40
0.0
  9
$DIMDLE
 40
0.0
  9
$DIMEXE
 40
0.0
  9
$DIMTP
 40
0.0
  9
$DIMTM
 40
0.0
  9
$DIMTXT
 40
2.411714039621017
  9
$DIMCEN
 40
0.0
  9
$DIMTSZ
 40
0.0
  9
$DIMTOL
 70
               0
  9
$DIMLIM
 70
               0
  9
$DIMTIH
 70
               0
  9
$DIMTOH
 70
               0
  9
$DIMSE1
 70
               0
  9
$DIMSE2
 70
               0
  9
$DIMTAD
 70
               1
  9
$DIMZIN
 70
              11
  9
$DIMBLK
  1
VW_FILLEDARROW
  9
$DIMASO
 70
               1
  9
$DIMSHO
 70
               1
  9
$DIMPOST
  1
<>
  9
$DIMAPOST
  1
[]
  9
$DIMALT
 70
               0
  9
$DIMALTD
 70
               2
  9
$DIMALTF
 40
1.0
  9
$DIMLFAC
 40
1.0
  9
$DIMTOFL
 70
               1
  9
$DIMTVP
 40
0.0
  9
$DIMTIX
 70
               1
  9
$DIMSOXD
 70
               0
  9
$DIMSAH
 70
               0
  9
$DIMBLK1
  1

  9
$DIMBLK2
  1

  9
$DIMSTYLE
  2
Ekitchen
  9
$DIMCLRD
 70
               0
  9
$DIMCLRE
 70
               0
  9
$DIMCLRT
 70
               0
  9
$DIMTFAC
 40
0.8
  9
$DIMGAP
 40
0.7999999999999999
  9
$DIMJUST
 70
               0
  9
$DIMSD1
 70
               0
  9
$DIMSD2
 70
               0
  9
$DIMTOLJ
 70
               1
  9
$DIMTZIN
 70
              11
  9
$DIMALTZ
 70
              11
  9
$DIMALTTZ
 70
              11
  9
$DIMUPT
 70
               0
  9
$DIMDEC
 70
               2
  9
$DIMTDEC
 70
               2
  9
$DIMALTU
 70
               2
  9
$DIMALTTD
 70
               2
  9
$DIMTXSTY
  7
ＭＳ ゴシック
  9
$DIMAUNIT
 70
               0
  9
$DIMADEC
 70
               0
  9
$DIMALTRND
 40
0.0
  9
$DIMAZIN
 70
               0
  9
$DIMDSEP
 70
              46
  9
$DIMATFIT
 70
               0
  9
$DIMFRAC
 70
               2
  9
$DIMLDRBLK
  1

  9
$DIMLUNIT
 70
               2
  9
$DIMLWD
 70
              -2
  9
$DIMLWE
 70
              -2
  9
$DIMTMOVE
 70
               0
  9
$LUNITS
 70
               2
  9
$LUPREC
 70
               4
  9
$SKETCHINC
 40
0.1
  9
$FILLETRAD
 40
0.0
  9
$AUNITS
 70
               0
  9
$AUPREC
 70
               0
  9
$MENU
  1
acad
  9
$ELEVATION
 40
0.0
  9
$PELEVATION
 40
0.0
  9
$THICKNESS
 40
0.0
  9
$LIMCHECK
 70
               0
  9
$CHAMFERA
 40
0.0
  9
$CHAMFERB
 40
0.0
  9
$CHAMFERC
 40
0.0
  9
$CHAMFERD
 40
0.0
  9
$SKPOLY
 70
               0
  9
$TDCREATE
 40
2458285.534016204
  9
$TDUCREATE
 40
0.000000000
  9
$TDUPDATE
 40
2458285.534016204
  9
$TDUUPDATE
 40
0.000000000
  9
$TDINDWG
 40
0.0000000000
  9
$TDUSRTIMER
 40
0.0000000000
  9
$USRTIMER
 70
               1
  9
$ANGBASE
 50
0.0
  9
$ANGDIR
 70
               0
  9
$PDMODE
 70
               1
  9
$PDSIZE
 40
-2.0
  9
$PLINEWID
 40
0.0
  9
$SPLFRAME
 70
               0
  9
$SPLINETYPE
 70
               6
  9
$SPLINESEGS
 70
               8
  9
$HANDSEED
  5
3B6
  9
$SURFTAB1
 70
               6
  9
$SURFTAB2
 70
               6
  9
$SURFTYPE
 70
               6
  9
$SURFU
 70
               6
  9
$SURFV
 70
               6
  9
$UCSBASE
  2

  9
$UCSNAME
  2

  9
$UCSORG
 10
0.0
 20
0.0
 30
0.0
  9
$UCSXDIR
 10
1.0
 20
0.0
 30
0.0
  9
$UCSYDIR
 10
0.0
 20
1.0
 30
0.0
  9
$UCSORTHOREF
  2

  9
$UCSORTHOVIEW
 70
               0
  9
$UCSORGTOP
 10
0.0
 20
0.0
 30
0.0
  9
$UCSORGBOTTOM
 10
0.0
 20
0.0
 30
0.0
  9
$UCSORGLEFT
 10
0.0
 20
0.0
 30
0.0
  9
$UCSORGRIGHT
 10
0.0
 20
0.0
 30
0.0
  9
$UCSORGFRONT
 10
0.0
 20
0.0
 30
0.0
  9
$UCSORGBACK
 10
0.0
 20
0.0
 30
0.0
  9
$PUCSBASE
  2

  9
$PUCSNAME
  2

  9
$PUCSORG
 10
0.0
 20
0.0
 30
0.0
  9
$PUCSXDIR
 10
1.0
 20
0.0
 30
0.0
  9
$PUCSYDIR
 10
0.0
 20
1.0
 30
0.0
  9
$PUCSORTHOREF
  2

  9
$PUCSORTHOVIEW
 70
               0
  9
$PUCSORGTOP
 10
0.0
 20
0.0
 30
0.0
  9
$PUCSORGBOTTOM
 10
0.0
 20
0.0
 30
0.0
  9
$PUCSORGLEFT
 10
0.0
 20
0.0
 30
0.0
  9
$PUCSORGRIGHT
 10
0.0
 20
0.0
 30
0.0
  9
$PUCSORGFRONT
 10
0.0
 20
0.0
 30
0.0
  9
$PUCSORGBACK
 10
0.0
 20
0.0
 30
0.0
  9
$USERI1
 70
               0
  9
$USERI2
 70
               0
  9
$USERI3
 70
               0
  9
$USERI4
 70
               0
  9
$USERI5
 70
               0
  9
$USERR1
 40
0.0
  9
$USERR2
 40
0.0
  9
$USERR3
 40
0.0
  9
$USERR4
 40
0.0
  9
$USERR5
 40
0.0
  9
$WORLDVIEW
 70
               1
  9
$SHADEDGE
 70
               3
  9
$SHADEDIF
 70
              70
  9
$TILEMODE
 70
               1
  9
$MAXACTVP
 70
              16
  9
$PINSBASE
 10
0.0
 20
0.0
 30
0.0
  9
$PLIMCHECK
 70
               0
  9
$PEXTMIN
 10
1.0000000000000000E+20
 20
1.0000000000000000E+20
 30
1.0000000000000000E+20
  9
$PEXTMAX
 10
-1.0000000000000000E+20
 20
-1.0000000000000000E+20
 30
-1.0000000000000000E+20
  9
$PLIMMIN
 10
0.0
 20
0.0
  9
$PLIMMAX
 10
12.0
 20
9.0
  9
$UNITMODE
 70
               0
  9
$VISRETAIN
 70
               0
  9
$PLINEGEN
 70
               1
  9
$PSLTSCALE
 70
               0
  9
$TREEDEPTH
 70
            3020
  9
$CMLSTYLE
  2
Standard
  9
$CMLJUST
 70
               0
  9
$CMLSCALE
 40
1.0
  9
$PROXYGRAPHICS
 70
               0
  9
$MEASUREMENT
 70
               1
  9
$CELWEIGHT
370
               0
  9
$ENDCAPS
280
               0
  9
$JOINSTYLE
280
               0
  9
$LWDISPLAY
290
               1
  9
$INSUNITS
 70
               4
  9
$HYPERLINKBASE
  1

  9
$STYLESHEET
  1

  9
$XEDIT
290
               1
  9
$CEPSNTYPE
380
               0
  9
$PSTYLEMODE
290
               1
  9
$FINGERPRINTGUID
  2

  9
$VERSIONGUID
  2

  9
$EXTNAMES
290
               1
  9
$PSVPSCALE
 40
0.0
  0
ENDSEC
  0
SECTION
  2
CLASSES
  0
CLASS
  1
LWPOLYLINE
  2
AcDbPolyline
  3
AutoCAD 2000
 90
        0
280
               0
281
               1
  0
CLASS
  1
IMAGE
  2
AcDbRasterImage
  3
ISM
 90
    32895
280
               0
281
               1
  0
CLASS
  1
OLE2FRAME
  2
AcDbOle2Frame
  3
AutoCAD 2000
 90
    32768
280
               0
281
               1
  0
CLASS
  1
HATCH
  2
AcDbHatch
  3
AutoCAD 2000
 90
        0
280
               0
281
               1
  0
CLASS
  1
DICTIONARYVAR
  2
AcDbDictionaryVar
  3
AutoCAD 2000
 90
    32768
280
               0
281
               0
  0
CLASS
  1
RASTERVARIABLES
  2
AcDbRasterVariables
  3
ISM
 90
    32768
280
               0
281
               0
  0
CLASS
  1
IMAGEDEF
  2
AcDbRasterImageDef
  3
ISM
 90
    32768
280
               0
281
               0
  0
CLASS
  1
IMAGEDEF_REACTOR
  2
AcDbRasterImageDefReactor
  3
ISM
 90
    32769
280
               0
281
               0
  0
CLASS
  1
IDBUFFER
  2
AcDbIdBuffer
  3
AutoCAD 2000
 90
    32768
280
               0
281
               0
  0
CLASS
  1
SPATIAL_FILTER
  2
AcDbSpatialFilter
  3
AutoCAD 2000
 90
    32768
280
               0
281
               0
  0
CLASS
  1
XRECORD
  2
AcDbXrecord
  3
AutoCAD 2000
 90
    32768
280
               0
281
               0
  0
CLASS
  1
SORTENTSTABLE
  2
AcDbSortentsTable
  3
AutoCAD 2000
 90
    32768
280
               0
281
               0
  0
CLASS
  1
LAYER_INDEX
  2
AcDbLayerIndex
  3
AutoCAD 2000
 90
    32768
280
               0
281
               0
  0
CLASS
  1
SPATIAL_INDEX
  2
AcDbSpatialIndex
  3
AutoCAD 2000
 90
    32768
280
               0
281
               0
  0
CLASS
  1
OBJECT_PTR
  2
CAseDLPNTableRecord
  3
"ASE-LPNTableRecord"
 90
    32769
280
               0
281
               0
  0
CLASS
  1
LAYOUT
  2
AcDbLayout
  3
AutoCAD 2000
 90
        0
280
               0
281
               0
  0
CLASS
  1
PLOTSETTINGS
  2
AcDbPlotSettings
  3
AutoCAD 2000
 90
    32768
280
               0
281
               0
  0
CLASS
  1
ACDBDICTIONARYWDFLT
  2
AcDbDictionaryWithDefault
  3
AutoCAD 2000
 90
        0
280
               0
281
               0
  0
CLASS
  1
ACDBPLACEHOLDER
  2
AcDbPlaceHolder
  3
AutoCAD 2000
 90
        0
280
               0
281
               0
  0
CLASS
  1
VBA_PROJECT
  2
AcDbVbaProject
  3
acadvba
 90
    32768
280
               0
281
               0
  0
CLASS
  1
WIPEOUT
  2
AcDbWipeout
  3
WipeOut|AutoCAD Express Tool|expresstools@autodesk.com
 90
      127
280
               0
281
               1
  0
CLASS
  1
WIPEOUTVARIABLES
  2
AcDbWipeoutVariables
  3
WipeOut|AutoCAD Express Tool|expresstools@autodesk.com
 90
        0
280
               0
281
               0
  0
CLASS
  1
RTEXT
  2
RText
  3
RText|AutoCAD Express Tool|expresstools@autodesk.com
 90
    32768
280
               0
281
               1
  0
CLASS
  1
ARCALIGNEDTEXT
  2
AcDbArcAlignedText
  3
ATEXT|AutoCAD Express Tool|expresstools@autodesk.com
 90
    32768
280
               0
281
               1
  0
ENDSEC
  0
SECTION
  2
TABLES
  0
TABLE
  2
VPORT
  5
7
100
AcDbSymbolTable
 70
               1
  0
VPORT
  5
15
100
AcDbSymbolTableRecord
100
AcDbViewportTableRecord
  2
*ACTIVE
 70
               0
 10
0.0
 20
0.0
 11
1.0
 21
1.0
 12
1662.8711756617595
 22
2673.1804991694953
 13
0.0
 23
0.0
 14
1.0
 24
1.0
 15
0.0
 25
0.0
 16
0.0
 26
0.0
 36
1.0
 17
0.0
 27
0.0
 37
0.0
 40
6608.3609983389906
 41
0.688564
 42
50.0
 43
0.0
 44
0.0
 50
0.0
 51
0.0
 71
               0
 72
             100
 73
               1
 74
               1
 75
               0
 76
               0
 77
               0
 78
               0
281
               0
 65
               0
110
0.0
120
0.0
130
0.0
111
1.0
121
0.0
131
0.0
112
0.0
122
1.0
132
0.0
345
0
346
0
 79
               0
146
0.0
  0
ENDTAB
  0
TABLE
  2
LTYPE
  5
4
100
AcDbSymbolTable
 70
              22
  0
LTYPE
  5
11
100
AcDbSymbolTableRecord
100
AcDbLinetypeTableRecord
  2
ByBlock
 70
              64
  3

 72
              65
 73
               0
 40
0.0
  0
LTYPE
  5
12
100
AcDbSymbolTableRecord
100
AcDbLinetypeTableRecord
  2
ByLayer
 70
              64
  3

 72
              65
 73
               0
 40
0.0
  0
LTYPE
  5
13
100
AcDbSymbolTableRecord
100
AcDbLinetypeTableRecord
  2
Continuous
 70
              64
  3
Solid line
 72
              65
 73
               0
 40
0.0
  0
LTYPE
  5
4C
100
AcDbSymbolTableRecord
100
AcDbLinetypeTableRecord
  2
STYLE_01
 70
               0
  3

 72
              65
 73
               2
 40
0.3333120000000001
 49
0.166624
 74
               0
 49
-0.1666880000000001
 74
               0
  0
LTYPE
  5
4D
100
AcDbSymbolTableRecord
100
AcDbLinetypeTableRecord
  2
STYLE_02
 70
               0
  3

 72
              65
 73
               2
 40
0.55554
 49
0.388856
 74
               0
 49
-0.166684
 74
               0
  0
LTYPE
  5
4E
100
AcDbSymbolTableRecord
100
AcDbLinetypeTableRecord
  2
STYLE_03
 70
               0
  3

 72
              65
 73
               2
 40
1.0
 49
0.8333120000000001
 74
               0
 49
-0.166688
 74
               0
  0
LTYPE
  5
4F
100
AcDbSymbolTableRecord
100
AcDbLinetypeTableRecord
  2
STYLE_04
 70
               0
  3

 72
              65
 73
               2
 40
1.2221679999999999
 49
1.0555399999999999
 74
               0
 49
-0.1666280000000001
 74
               0
  0
LTYPE
  5
50
100
AcDbSymbolTableRecord
100
AcDbLinetypeTableRecord
  2
STYLE_05
 70
               0
  3

 72
              65
 73
               2
 40
0.166624
 49
0.05554
 74
               0
 49
-0.111084
 74
               0
  0
LTYPE
  5
51
100
AcDbSymbolTableRecord
100
AcDbLinetypeTableRecord
  2
STYLE_06
 70
               0
  3

 72
              65
 73
               4
 40
0.8333120000000001
 49
0.5
 74
               0
 49
-0.1666240000000001
 74
               0
 49
0.055544
 74
               0
 49
-0.111144
 74
               0
  0
LTYPE
  5
52
100
AcDbSymbolTableRecord
100
AcDbLinetypeTableRecord
  2
STYLE_07
 70
               0
  3

 72
              65
 73
               6
 40
1.5000000000000004
 49
0.5
 74
               0
 49
-0.1666240000000001
 74
               0
 49
0.5000000000000002
 74
               0
 49
-0.1666880000000001
 74
               0
 49
0.0555440000000001
 74
               0
 49
-0.111144
 74
               0
  0
LTYPE
  5
53
100
AcDbSymbolTableRecord
100
AcDbLinetypeTableRecord
  2
STYLE_08
 70
               0
  3

 72
              65
 73
               6
 40
1.0
 49
0.5
 74
               0
 49
-0.1666240000000001
 74
               0
 49
0.055544
 74
               0
 49
-0.111144
 74
               0
 49
0.055544
 74
               0
 49
-0.111144
 74
               0
  0
LTYPE
  5
54
100
AcDbSymbolTableRecord
100
AcDbLinetypeTableRecord
  2
STYLE_09
 70
               0
  3

 72
              65
 73
               4
 40
4.0
 49
3.0000000000000004
 74
               0
 49
-0.2222279999999999
 74
               0
 49
0.555544
 74
               0
 49
-0.2222279999999999
 74
               0
  0
LTYPE
  5
55
100
AcDbSymbolTableRecord
100
AcDbLinetypeTableRecord
  2
STYLE_10
 70
               0
  3

 72
              65
 73
               6
 40
4.75
 49
3.0000000000000004
 74
               0
 49
-0.2222279999999999
 74
               0
 49
0.555544
 74
               0
 49
-0.2222279999999999
 74
               0
 49
0.4999999999999999
 74
               0
 49
-0.2500000000000002
 74
               0
  0
LTYPE
  5
56
100
AcDbSymbolTableRecord
100
AcDbLinetypeTableRecord
  2
STYLE_11
 70
               0
  3

 72
              65
 73
               4
 40
2.22222900390625
 49
1.888916015625
 74
               0
 49
-0.111083984375
 74
               0
 49
0.111083984375
 74
               0
 49
-0.1111450195312499
 74
               0
  0
LTYPE
  5
57
100
AcDbSymbolTableRecord
100
AcDbLinetypeTableRecord
  2
STYLE_12
 70
               0
  3

 72
              65
 73
               6
 40
1.8333333333333337
 49
1.22222900390625
 74
               0
 49
-0.1111043294270833
 74
               0
 49
0.1111111111111113
 74
               0
 49
-0.1666666666666669
 74
               0
 49
0.1111111111111113
 74
               0
 49
-0.111111111111111
 74
               0
  0
LTYPE
  5
58
100
AcDbSymbolTableRecord
100
AcDbLinetypeTableRecord
  2
STYLE_13
 70
               0
  3

 72
              65
 73
               8
 40
1.02
 49
0.48
 74
               0
 49
-0.12
 74
               0
 49
0.02
 74
               0
 49
-0.12
 74
               0
 49
0.02
 74
               0
 49
-0.12
 74
               0
 49
0.02
 74
               0
 49
-0.12
 74
               0
  0
LTYPE
  5
59
100
AcDbSymbolTableRecord
100
AcDbLinetypeTableRecord
  2
STYLE_14
 70
               0
  3

 72
              65
 73
              10
 40
1.6200000000000006
 49
0.48
 74
               0
 49
-0.12
 74
               0
 49
0.48
 74
               0
 49
-0.1200000000000003
 74
               0
 49
0.02
 74
               0
 49
-0.1200000000000001
 74
               0
 49
0.02
 74
               0
 49
-0.1200000000000001
 74
               0
 49
0.02
 74
               0
 49
-0.1200000000000001
 74
               0
  0
LTYPE
  5
5A
100
AcDbSymbolTableRecord
100
AcDbLinetypeTableRecord
  2
STYLE_15
 70
               0
  3

 72
              65
 73
               2
 40
0.333248
 49
0.166624
 74
               0
 49
-0.166624
 74
               0
  0
LTYPE
  5
5B
100
AcDbSymbolTableRecord
100
AcDbLinetypeTableRecord
  2
STYLE_16
 70
               0
  3

 72
              65
 73
               2
 40
0.55548
 49
0.388856
 74
               0
 49
-0.166624
 74
               0
  0
LTYPE
  5
5C
100
AcDbSymbolTableRecord
100
AcDbLinetypeTableRecord
  2
STYLE_17
 70
               0
  3

 72
              65
 73
               2
 40
4.5
 49
3.0000000000000004
 74
               0
 49
-1.4999999999999996
 74
               0
  0
LTYPE
  5
5D
100
AcDbSymbolTableRecord
100
AcDbLinetypeTableRecord
  2
STYLE_18
 70
               0
  3

 72
              65
 73
               2
 40
16.0
 49
15.0
 74
               0
 49
-1.0000000000000009
 74
               0
  0
LTYPE
  5
5E
100
AcDbSymbolTableRecord
100
AcDbLinetypeTableRecord
  2
STYLE_19
 70
               0
  3

 72
              65
 73
               2
 40
16.0
 49
15.0
 74
               0
 49
-1.0000000000000009
 74
               0
  0
ENDTAB
  0
TABLE
  2
LAYER
  5
2
100
AcDbSymbolTable
 70
              36
  0
LAYER
  5
14
100
AcDbSymbolTableRecord
100
AcDbLayerTableRecord
  2
0
 70
               0
 62
               7
  6
Continuous
290
               1
370
              20
390
1D
  0
LAYER
  5
5F
100
AcDbSymbolTableRecord
100
AcDbLayerTableRecord
  2
Defpoints
 70
               0
 62
               7
  6
Continuous
290
               0
370
              -3
390
1D
  0
LAYER
  5
60
100
AcDbSymbolTableRecord
100
AcDbLayerTableRecord
  2
一般
 70
               0
 62
               7
  6
Continuous
290
               1
370
               9
390
1D
  0
LAYER
  5
61
100
AcDbSymbolTableRecord
100
AcDbLayerTableRecord
  2
寸法
 70
               0
 62
               7
  6
Continuous
290
               1
370
               9
390
1D
  0
LAYER
  5
62
100
AcDbSymbolTableRecord
100
AcDbLayerTableRecord
  2
文字-室名
 70
               1
 62
               7
  6
Continuous
290
               1
370
               5
390
1D
  0
LAYER
  5
63
100
AcDbSymbolTableRecord
100
AcDbLayerTableRecord
  2
文字-メモ
 70
               1
 62
               7
  6
Continuous
290
               1
370
               5
390
1D
  0
LAYER
  5
64
100
AcDbSymbolTableRecord
100
AcDbLayerTableRecord
  2
線-通り芯
 70
               1
 62
               7
  6
STYLE_06
290
               1
370
               5
390
1D
  0
LAYER
  5
65
100
AcDbSymbolTableRecord
100
AcDbLayerTableRecord
  2
線-詳細
 70
               1
 62
               7
  6
Continuous
290
               1
370
               5
390
1D
  0
LAYER
  5
66
100
AcDbSymbolTableRecord
100
AcDbLayerTableRecord
  2
床
 70
               1
 62
               7
  6
Continuous
290
               1
370
               5
390
1D
  0
LAYER
  5
67
100
AcDbSymbolTableRecord
100
AcDbLayerTableRecord
  2
線-仕上線
 70
               1
 62
               7
  6
Continuous
290
               1
370
              30
390
1D
  0
LAYER
  5
68
100
AcDbSymbolTableRecord
100
AcDbLayerTableRecord
  2
線-躯体
 70
               1
 62
               7
  6
Continuous
290
               1
370
               5
390
1D
  0
LAYER
  5
69
100
AcDbSymbolTableRecord
100
AcDbLayerTableRecord
  2
工事区分-計画
 70
               1
 62
               7
  6
Continuous
290
               1
370
               5
390
1D
  0
LAYER
  5
6A
100
AcDbSymbolTableRecord
100
AcDbLayerTableRecord
  2
工事区分-既存
 70
               1
 62
               7
  6
Continuous
290
               1
370
               5
390
1D
  0
LAYER
  5
6B
100
AcDbSymbolTableRecord
100
AcDbLayerTableRecord
  2
家具
 70
               1
 62
               7
  6
Continuous
290
               1
370
               5
390
1D
  0
LAYER
  5
6C
100
AcDbSymbolTableRecord
100
AcDbLayerTableRecord
  2
sunpo
 70
               0
 62
               7
  6
Continuous
290
               1
370
              15
390
1D
  0
LAYER
  5
6D
100
AcDbSymbolTableRecord
100
AcDbLayerTableRecord
  2
ﾀｲﾄﾙ枠
 70
               0
 62
               7
  6
Continuous
290
               1
370
              30
390
1D
  0
LAYER
  5
6E
100
AcDbSymbolTableRecord
100
AcDbLayerTableRecord
  2
view
 70
               1
 62
               7
  6
Continuous
290
               1
370
              15
390
1D
  0
LAYER
  5
6F
100
AcDbSymbolTableRecord
100
AcDbLayerTableRecord
  2
Defpoints
 70
               0
 62
               7
  6
Continuous
290
               0
370
              15
390
1D
  0
LAYER
  5
70
100
AcDbSymbolTableRecord
100
AcDbLayerTableRecord
  2
sen-h
 70
               0
 62
               7
  6
STYLE_17
290
               1
370
              15
390
1D
  0
LAYER
  5
71
100
AcDbSymbolTableRecord
100
AcDbLayerTableRecord
  2
sen-c
 70
               0
 62
               7
  6
STYLE_18
290
               1
370
              15
390
1D
  0
LAYER
  5
72
100
AcDbSymbolTableRecord
100
AcDbLayerTableRecord
  2
sen2
 70
               0
 62
               7
  6
Continuous
290
               1
370
              15
390
1D
  0
LAYER
  5
73
100
AcDbSymbolTableRecord
100
AcDbLayerTableRecord
  2
sen-p
 70
               0
 62
               7
  6
STYLE_03
290
               1
370
               9
390
1D
  0
LAYER
  5
74
100
AcDbSymbolTableRecord
100
AcDbLayerTableRecord
  2
1_2
 70
               0
 62
               7
  6
STYLE_03
290
               1
370
              15
390
1D
  0
LAYER
  5
75
100
AcDbSymbolTableRecord
100
AcDbLayerTableRecord
  2
レイヤー_1
 70
               0
 62
               7
  6
Continuous
290
               1
370
              20
390
1D
  0
LAYER
  5
76
100
AcDbSymbolTableRecord
100
AcDbLayerTableRecord
  2
sunpo2
 70
               0
 62
               7
  6
Continuous
290
               1
370
               9
390
1D
  0
LAYER
  5
77
100
AcDbSymbolTableRecord
100
AcDbLayerTableRecord
  2
補強
 70
               0
 62
               7
  6
STYLE_03
290
               1
370
               9
390
1D
  0
LAYER
  5
78
100
AcDbSymbolTableRecord
100
AcDbLayerTableRecord
  2
水栓
 70
               0
 62
               7
  6
Continuous
290
               1
370
               9
390
1D
  0
LAYER
  5
79
100
AcDbSymbolTableRecord
100
AcDbLayerTableRecord
  2
1
 70
               0
 62
               7
  6
Continuous
290
               1
370
               9
390
1D
  0
LAYER
  5
7A
100
AcDbSymbolTableRecord
100
AcDbLayerTableRecord
  2
3
 70
               0
 62
               7
  6
Continuous
290
               1
370
               9
390
1D
  0
LAYER
  5
7B
100
AcDbSymbolTableRecord
100
AcDbLayerTableRecord
  2
2
 70
               0
 62
               7
  6
Continuous
290
               1
370
               9
390
1D
  0
LAYER
  5
7C
100
AcDbSymbolTableRecord
100
AcDbLayerTableRecord
  2
補助グリッド-1
 70
               0
 62
               7
  6
Continuous
290
               1
370
              13
390
1D
  0
LAYER
  5
7D
100
AcDbSymbolTableRecord
100
AcDbLayerTableRecord
  2
カットライン
 70
               0
 62
               7
  6
STYLE_19
290
               1
370
              15
390
1D
  0
LAYER
  5
7E
100
AcDbSymbolTableRecord
100
AcDbLayerTableRecord
  2
_Viewport_Crop
 70
               1
 62
               7
  6
Continuous
290
               1
370
              15
390
1D
  0
LAYER
  5
7F
100
AcDbSymbolTableRecord
100
AcDbLayerTableRecord
  2
ﾚｲﾔｰ1
 70
               0
 62
               7
  6
Continuous
290
               1
370
               9
390
1D
  0
LAYER
  5
80
100
AcDbSymbolTableRecord
100
AcDbLayerTableRecord
  2
unassigned
 70
               0
 62
               7
  6
Continuous
290
               1
370
               9
390
1D
  0
LAYER
  5
81
100
AcDbSymbolTableRecord
100
AcDbLayerTableRecord
  2
LAYER0
 70
               0
 62
               7
  6
Continuous
290
               1
370
               9
390
1D
  0
ENDTAB
  0
TABLE
  2
STYLE
  5
3
100
AcDbSymbolTable
 70
               4
  0
STYLE
  5
17
100
AcDbSymbolTableRecord
100
AcDbTextStyleTableRecord
  2
Standard
 70
               0
 40
0.0
 41
1.0
 50
0.0
 71
               0
 42
0.0
  3
txt
  4
BIGFONT.SHX
  0
STYLE
  5
49
100
AcDbSymbolTableRecord
100
AcDbTextStyleTableRecord
  2
Arial
 70
               0
 40
0.0
 41
1.0
 50
0.0
 71
               0
 42
0.0
  3
Arial
  4

1001
ACAD
1000
Arial
1071
        0
  0
STYLE
  5
4A
100
AcDbSymbolTableRecord
100
AcDbTextStyleTableRecord
  2
ＭＳ ゴシック
 70
               0
 40
0.0
 41
1.0
 50
0.0
 71
               0
 42
0.0
  3
ＭＳ ゴシック
  4

1001
ACAD
1000
ＭＳ ゴシック
1071
        0
  0
STYLE
  5
4B
100
AcDbSymbolTableRecord
100
AcDbTextStyleTableRecord
  2
メイリオ
 70
               0
 40
0.0
 41
1.0
 50
0.0
 71
               0
 42
0.0
  3
メイリオ
  4

1001
ACAD
1000
メイリオ
1071
        0
  0
ENDTAB
  0
TABLE
  2
VIEW
  5
5
100
AcDbSymbolTable
 70
               0
  0
ENDTAB
  0
TABLE
  2
UCS
  5
6
100
AcDbSymbolTable
 70
               0
  0
ENDTAB
  0
TABLE
  2
APPID
  5
8
100
AcDbSymbolTable
 70
               1
  0
APPID
  5
16
100
AcDbSymbolTableRecord
100
AcDbRegAppTableRecord
  2
ACAD
 70
               0
  0
ENDTAB
  0
TABLE
  2
DIMSTYLE
  5
9
100
AcDbSymbolTable
 70
               2
100
AcDbDimStyleTable
 71
               0
  0
DIMSTYLE
105
18
100
AcDbSymbolTableRecord
100
AcDbDimStyleTableRecord
  2
Standard
 70
               0
  3

  4

 40
1.0
 41
0.18
 42
0.0625
 43
0.38
 44
0.18
 45
0.0
 46
0.0
 47
0.0
 48
0.0
 71
               0
 72
               0
 73
               1
 74
               1
 75
               0
 76
               0
 77
               0
 78
               0
 79
               0
140
0.18
141
0.09
142
0.0
143
25.399999999999999
144
1.0
145
0.0
146
1.0
147
0.09
148
0.0
170
               0
171
               2
172
               0
173
               0
174
               0
175
               0
176
               0
177
               0
178
               0
179
               0
271
               4
272
               4
273
               2
274
               2
275
               0
276
               0
277
               2
278
              46
279
               0
280
               0
281
               0
282
               0
283
               1
284
               0
285
               0
286
               0
288
               0
340
17
341
0
342
0
343
0
344
0
371
              -2
372
              -2
  0
DIMSTYLE
105
8A
100
AcDbSymbolTableRecord
100
AcDbDimStyleTableRecord
  2
Ekitchen
 70
               0
  3
<>
  4
[]
 40
1.0
 41
7.5034179687499991
 42
4.9999999999999991
 43
4.9999999999999991
 44
0.0
 45
0.0
 46
0.0
 47
0.0
 48
0.0
 71
               0
 72
               0
 73
               0
 74
               0
 75
               0
 76
               0
 77
               1
 78
              11
 79
               0
140
2.411714039621017
141
0.0
142
0.0
143
1.0
144
1.0
145
0.0
146
0.8
147
0.7999999999999999
148
0.0
170
               0
171
               2
172
               1
173
               0
174
               1
175
               0
176
               0
177
               0
178
               0
179
               0
271
               2
272
               2
273
               2
274
               2
275
               0
276
               2
277
               2
278
              46
279
               0
280
               0
281
               0
282
               0
283
               1
284
              11
285
              11
286
              11
288
               0
340
4A
341
86
342
82
343
0
344
0
371
              -2
372
              -2
  0
ENDTAB
  0
TABLE
  2
BLOCK_RECORD
  5
1
100
AcDbSymbolTable
 70
              39
  0
BLOCK_RECORD
  5
A
100
AcDbSymbolTableRecord
100
AcDbBlockTableRecord
  2
*MODEL_SPACE
340
20
  0
BLOCK_RECORD
  5
B
100
AcDbSymbolTableRecord
100
AcDbBlockTableRecord
  2
*PAPER_SPACE
340
21
  0
BLOCK_RECORD
  5
82
100
AcDbSymbolTableRecord
100
AcDbBlockTableRecord
  2
VW_FILLEDARROW
340
0
  0
BLOCK_RECORD
  5
86
100
AcDbSymbolTableRecord
100
AcDbBlockTableRecord
  2
VW_FILLEDARROW-1
340
0
  0
BLOCK_RECORD
  5
24
100
AcDbSymbolTableRecord
100
AcDbBlockTableRecord
  2
*D2
340
0
  0
BLOCK_RECORD
  5
25
100
AcDbSymbolTableRecord
100
AcDbBlockTableRecord
  2
*D3
340
0
  0
BLOCK_RECORD
  5
26
100
AcDbSymbolTableRecord
100
AcDbBlockTableRecord
  2
*D4
340
0
  0
BLOCK_RECORD
  5
27
100
AcDbSymbolTableRecord
100
AcDbBlockTableRecord
  2
*D5
340
0
  0
BLOCK_RECORD
  5
28
100
AcDbSymbolTableRecord
100
AcDbBlockTableRecord
  2
*D6
340
0
  0
BLOCK_RECORD
  5
29
100
AcDbSymbolTableRecord
100
AcDbBlockTableRecord
  2
*D7
340
0
  0
BLOCK_RECORD
  5
2A
100
AcDbSymbolTableRecord
100
AcDbBlockTableRecord
  2
*D8
340
0
  0
BLOCK_RECORD
  5
2B
100
AcDbSymbolTableRecord
100
AcDbBlockTableRecord
  2
*D9
340
0
  0
BLOCK_RECORD
  5
2C
100
AcDbSymbolTableRecord
100
AcDbBlockTableRecord
  2
*D10
340
0
  0
BLOCK_RECORD
  5
2D
100
AcDbSymbolTableRecord
100
AcDbBlockTableRecord
  2
*D11
340
0
  0
BLOCK_RECORD
  5
2E
100
AcDbSymbolTableRecord
100
AcDbBlockTableRecord
  2
*D12
340
0
  0
BLOCK_RECORD
  5
2F
100
AcDbSymbolTableRecord
100
AcDbBlockTableRecord
  2
*D13
340
0
  0
BLOCK_RECORD
  5
30
100
AcDbSymbolTableRecord
100
AcDbBlockTableRecord
  2
*D14
340
0
  0
BLOCK_RECORD
  5
31
100
AcDbSymbolTableRecord
100
AcDbBlockTableRecord
  2
グループ-2-2
340
0
102
{BLKREFS
331
2AB
102
}
  0
BLOCK_RECORD
  5
32
100
AcDbSymbolTableRecord
100
AcDbBlockTableRecord
  2
*D16
340
0
  0
BLOCK_RECORD
  5
33
100
AcDbSymbolTableRecord
100
AcDbBlockTableRecord
  2
*D17
340
0
  0
BLOCK_RECORD
  5
34
100
AcDbSymbolTableRecord
100
AcDbBlockTableRecord
  2
*D18
340
0
  0
BLOCK_RECORD
  5
35
100
AcDbSymbolTableRecord
100
AcDbBlockTableRecord
  2
*D19
340
0
  0
BLOCK_RECORD
  5
36
100
AcDbSymbolTableRecord
100
AcDbBlockTableRecord
  2
*D20
340
0
  0
BLOCK_RECORD
  5
37
100
AcDbSymbolTableRecord
100
AcDbBlockTableRecord
  2
*D21
340
0
  0
BLOCK_RECORD
  5
38
100
AcDbSymbolTableRecord
100
AcDbBlockTableRecord
  2
*D22
340
0
  0
BLOCK_RECORD
  5
39
100
AcDbSymbolTableRecord
100
AcDbBlockTableRecord
  2
*D23
340
0
  0
BLOCK_RECORD
  5
3A
100
AcDbSymbolTableRecord
100
AcDbBlockTableRecord
  2
*D24
340
0
  0
BLOCK_RECORD
  5
3B
100
AcDbSymbolTableRecord
100
AcDbBlockTableRecord
  2
*D25
340
0
  0
BLOCK_RECORD
  5
3C
100
AcDbSymbolTableRecord
100
AcDbBlockTableRecord
  2
*D26
340
0
  0
BLOCK_RECORD
  5
3D
100
AcDbSymbolTableRecord
100
AcDbBlockTableRecord
  2
*D27
340
0
  0
BLOCK_RECORD
  5
3E
100
AcDbSymbolTableRecord
100
AcDbBlockTableRecord
  2
*U28
340
0
102
{BLKREFS
331
243
102
}
  0
BLOCK_RECORD
  5
3F
100
AcDbSymbolTableRecord
100
AcDbBlockTableRecord
  2
*U29
340
0
102
{BLKREFS
331
246
102
}
  0
BLOCK_RECORD
  5
40
100
AcDbSymbolTableRecord
100
AcDbBlockTableRecord
  2
*D30
340
0
  0
BLOCK_RECORD
  5
41
100
AcDbSymbolTableRecord
100
AcDbBlockTableRecord
  2
*D31
340
0
  0
BLOCK_RECORD
  5
42
100
AcDbSymbolTableRecord
100
AcDbBlockTableRecord
  2
*D32
340
0
  0
BLOCK_RECORD
  5
43
100
AcDbSymbolTableRecord
100
AcDbBlockTableRecord
  2
*U33
340
0
102
{BLKREFS
331
24D
102
}
  0
BLOCK_RECORD
  5
44
100
AcDbSymbolTableRecord
100
AcDbBlockTableRecord
  2
*U34
340
0
102
{BLKREFS
331
24F
102
}
  0
BLOCK_RECORD
  5
45
100
AcDbSymbolTableRecord
100
AcDbBlockTableRecord
  2
*U35
340
0
102
{BLKREFS
331
39D
102
}
  0
BLOCK_RECORD
  5
46
100
AcDbSymbolTableRecord
100
AcDbBlockTableRecord
  2
*D36
340
0
  0
BLOCK_RECORD
  5
47
100
AcDbSymbolTableRecord
100
AcDbBlockTableRecord
  2
*D37
340
0
  0
BLOCK_RECORD
  5
48
100
AcDbSymbolTableRecord
100
AcDbBlockTableRecord
  2
*D38
340
0
  0
ENDTAB
  0
ENDSEC
  0
SECTION
  2
BLOCKS
  0
BLOCK
  5
D
100
AcDbEntity
  8
0
100
AcDbBlockBegin
  2
*MODEL_SPACE
 70
               0
 10
0.0
 20
0.0
 30
0.0
  3
*MODEL_SPACE
  1

  0
ENDBLK
  5
E
100
AcDbEntity
  8
0
100
AcDbBlockEnd
  0
BLOCK
  5
F
100
AcDbEntity
 67
               1
  8
0
100
AcDbBlockBegin
  2
*PAPER_SPACE
 70
               0
 10
0.0
 20
0.0
 30
0.0
  3
*PAPER_SPACE
  1

  0
ENDBLK
  5
10
100
AcDbEntity
 67
               1
  8
0
100
AcDbBlockEnd
  0
BLOCK
  5
83
100
AcDbEntity
  8
0
370
              -2
  6
ByBlock
 62
               0
100
AcDbBlockBegin
  2
VW_FILLEDARROW
 70
               0
 10
0.0
 20
0.0
 30
0.0
  3
VW_FILLEDARROW
  1

  0
SOLID
  5
84
100
AcDbEntity
  8
0
370
              -2
 62
               0
100
AcDbTrace
 10
0.0
 20
0.0
 30
0.0
 11
-0.9999389648437499
 21
-0.2679328381102956
 31
0.0
 12
-0.9999389648437499
 22
0.2679328381102958
 32
0.0
 13
-0.9999389648437499
 23
0.2679328381102958
 33
0.0
  0
ENDBLK
  5
85
100
AcDbEntity
  8
0
100
AcDbBlockEnd
  0
BLOCK
  5
87
100
AcDbEntity
  8
0
370
              -2
  6
ByBlock
 62
               0
100
AcDbBlockBegin
  2
VW_FILLEDARROW-1
 70
               0
 10
0.0
 20
0.0
 30
0.0
  3
VW_FILLEDARROW
  1

  0
SOLID
  5
88
100
AcDbEntity
  8
0
370
              -2
 62
               0
100
AcDbTrace
 10
0.0
 20
0.0
 30
0.0
 11
-2.1083984375
 21
-0.5649436586511659
 31
0.0
 12
-2.1083984374999996
 22
0.5649436586511665
 32
0.0
 13
-2.1083984374999996
 23
0.5649436586511665
 33
0.0
  0
ENDBLK
  5
89
100
AcDbEntity
  8
0
100
AcDbBlockEnd
  0
BLOCK
  5
8B
100
AcDbEntity
  8
寸法
100
AcDbBlockBegin
  2
*D2
 70
               1
 10
0.0
 20
0.0
 30
0.0
  3
*D2
  1

  0
ARC
  5
8C
100
AcDbEntity
  8
寸法
370
              -2
  6
Continuous
 62
               0
100
AcDbCircle
 10
809.70280315900936
 20
5951.3455875463369
 30
0.0
 40
26.015410792654166
100
AcDbArc
 50
270.0
 51
269.00000000000148
  0
SOLID
  5
8D
100
AcDbEntity
  8
寸法
370
              -2
 62
               0
100
AcDbTrace
 10
809.24877163622375
 20
5925.3341390267551
 30
0.0
 11
793.3019522890188
 21
5921.3581504072154
 31
0.0
 12
793.45042666221332
 22
5929.8642415506783
 32
0.0
 13
793.45042666221332
 23
5929.8642415506783
 33
0.0
  0
SOLID
  5
8E
100
AcDbEntity
  8
寸法
370
              -2
 62
               0
100
AcDbTrace
 10
809.70280315900936
 20
5925.3301767536832
 30
0.0
 11
825.57780315900936
 21
5929.5838701835273
 31
0.0
 12
825.57780315900936
 22
5921.0764833238391
 32
0.0
 13
825.57780315900936
 23
5921.0764833238391
 33
0.0
  0
WIPEOUT
  5
8F
100
AcDbEntity
  8
寸法
370
              -2
  6
Continuous
 62
               0
 92
        0
100
AcDbWipeout
 90
        0
 10
801.68858803597846
 20
4903.5112172704294
 30
0.0
 11
8.1642399147746119
 21
0.0
 31
0.0
 12
0.0
 22
8.1642399147746119
 32
0.0
 13
1.0
 23
1.0
340
0
 70
               7
280
               1
281
              50
282
              50
283
               0
360
0
 71
               2
 91
        5
 14
-0.5
 24
-123.87540206561034
 14
0.4522071965055682
 24
-123.75592005666836
 14
0.5
 24
-124.13680293461391
 14
-0.4522071965055682
 24
-124.2562849435559
 14
-0.5
 24
-123.87540206561034
  0
MTEXT
  5
90
100
AcDbEntity
  8
寸法
 62
               0
100
AcDbMText
 10
802.04347977519353
 20
5921.7701350640582
 30
0.0
 40
2.411714039621017
 41
0.0
 71
               1
 72
               1
  1
359° 
  7
ＭＳ ゴシック
 11
0.9922192709510687
 21
-0.1245026841209852
 31
0.0
 73
               1
 44
0.7828267384257843
  0
POINT
  5
91
100
AcDbEntity
  8
Defpoints
370
               0
 62
               0
100
AcDbPoint
 10
695.01699432771773
 20
-619.0
 30
0.0
  0
POINT
  5
92
100
AcDbEntity
  8
Defpoints
370
               0
 62
               0
100
AcDbPoint
 10
809.70280315900936
 20
-631.0
 30
0.0
  0
POINT
  5
93
100
AcDbEntity
  8
Defpoints
370
               0
 62
               0
100
AcDbPoint
 10
809.70280315900936
 20
5951.3455875463369
 30
0.0
  0
ENDBLK
  5
94
100
AcDbEntity
  8
寸法
100
AcDbBlockEnd
  0
BLOCK
  5
95
100
AcDbEntity
  8
寸法
100
AcDbBlockBegin
  2
*D3
 70
               1
 10
0.0
 20
0.0
 30
0.0
  3
*D3
  1

  0
LINE
  5
96
100
AcDbEntity
  8
寸法
370
              -2
  6
Continuous
 62
               0
100
AcDbLine
 10
1685.0
 20
2324.7909039559563
 30
0.0
 11
1685.0
 21
2390.0
 31
0.0
  0
LINE
  5
97
100
AcDbEntity
  8
寸法
370
              -2
  6
Continuous
 62
               0
100
AcDbLine
 10
1105.0
 20
2324.7909039559563
 30
0.0
 11
1105.0
 21
2390.0
 31
0.0
  0
LINE
  5
98
100
AcDbEntity
  8
寸法
370
              -2
  6
Continuous
 62
               0
100
AcDbLine
 10
1685.0
 20
2390.0
 30
0.0
 11
1105.0
 21
2390.0
 31
0.0
  0
SOLID
  5
99
100
AcDbEntity
  8
寸法
370
              -2
 62
               0
100
AcDbTrace
 10
1685.0
 20
2390.0
 30
0.0
 11
1677.49658203125
 21
2387.9894652148005
 31
0.0
 12
1677.49658203125
 22
2392.0105347851995
 32
0.0
 13
1677.49658203125
 23
2392.0105347851995
 33
0.0
  0
SOLID
  5
9A
100
AcDbEntity
  8
寸法
370
              -2
 62
               0
100
AcDbTrace
 10
1105.0
 20
2390.0
 30
0.0
 11
1112.50341796875
 21
2392.0105347851995
 31
0.0
 12
1112.50341796875
 22
2387.9894652148005
 32
0.0
 13
1112.50341796875
 23
2387.9894652148005
 33
0.0
  0
WIPEOUT
  5
9B
100
AcDbEntity
  8
寸法
370
              -2
  6
Continuous
 62
               0
 92
        0
100
AcDbWipeout
 90
        0
 10
1371.5967465590111
 20
1379.5448578263056
 30
0.0
 11
31.75
 21
0.0
 31
0.0
 12
0.0
 22
31.75
 32
0.0
 13
1.0
 23
1.0
340
0
 70
               7
280
               1
281
              50
282
              50
283
               0
360
0
 71
               2
 91
        5
 14
-0.5
 24
-31.451343060588801
 14
0.5
 24
-31.451343060588801
 14
0.5
 24
-32.118009727255462
 14
-0.5
 24
-32.118009727255462
 14
-0.5
 24
-31.451343060588801
  0
MTEXT
  5
9C
100
AcDbEntity
  8
寸法
 62
               0
100
AcDbMText
 10
1371.5967465590111
 20
2413.2517447916666
 30
0.0
 40
16.288411458333332
 41
0.0
 71
               1
 72
               1
  1
580
  7
ＭＳ ゴシック
 73
               1
 44
0.7828267384257843
  0
POINT
  5
9D
100
AcDbEntity
  8
Defpoints
370
               0
 62
               0
100
AcDbPoint
 10
1105.0
 20
2319.7909039559563
 30
0.0
  0
POINT
  5
9E
100
AcDbEntity
  8
Defpoints
370
               0
 62
               0
100
AcDbPoint
 10
1685.0
 20
2319.7909039559563
 30
0.0
  0
POINT
  5
9F
100
AcDbEntity
  8
Defpoints
370
               0
 62
               0
100
AcDbPoint
 10
1685.0
 20
2390.0
 30
0.0
  0
ENDBLK
  5
A0
100
AcDbEntity
  8
寸法
100
AcDbBlockEnd
  0
BLOCK
  5
A1
100
AcDbEntity
  8
寸法
100
AcDbBlockBegin
  2
*D4
 70
               1
 10
0.0
 20
0.0
 30
0.0
  3
*D4
  1

  0
LINE
  5
A2
100
AcDbEntity
  8
寸法
370
              -2
  6
Continuous
 62
               0
100
AcDbLine
 10
1770.0
 20
3103.5
 30
0.0
 11
1770.0
 21
3184.0
 31
0.0
  0
LINE
  5
A3
100
AcDbEntity
  8
寸法
370
              -2
  6
Continuous
 62
               0
100
AcDbLine
 10
1020.0
 20
3103.5
 30
0.0
 11
1020.0
 21
3184.0
 31
0.0
  0
LINE
  5
A4
100
AcDbEntity
  8
寸法
370
              -2
  6
Continuous
 62
               0
100
AcDbLine
 10
1770.0
 20
3184.0
 30
0.0
 11
1020.0
 21
3184.0
 31
0.0
  0
SOLID
  5
A5
100
AcDbEntity
  8
寸法
370
              -2
 62
               0
100
AcDbTrace
 10
1770.0
 20
3184.0
 30
0.0
 11
1762.49658203125
 21
3181.9894652148005
 31
0.0
 12
1762.49658203125
 22
3186.0105347851995
 32
0.0
 13
1762.49658203125
 23
3186.0105347851995
 33
0.0
  0
SOLID
  5
A6
100
AcDbEntity
  8
寸法
370
              -2
 62
               0
100
AcDbTrace
 10
1020.0
 20
3184.0
 30
0.0
 11
1027.50341796875
 21
3186.0105347851995
 31
0.0
 12
1027.50341796875
 22
3181.9894652148005
 32
0.0
 13
1027.50341796875
 23
3181.9894652148005
 33
0.0
  0
WIPEOUT
  5
A7
100
AcDbEntity
  8
寸法
370
              -2
  6
Continuous
 62
               0
 92
        0
100
AcDbWipeout
 90
        0
 10
1379.125
 20
2173.5448578263058
 30
0.0
 11
31.75
 21
0.0
 31
0.0
 12
0.0
 22
31.75
 32
0.0
 13
1.0
 23
1.0
340
0
 70
               7
280
               1
281
              50
282
              50
283
               0
360
0
 71
               2
 91
        5
 14
-0.5
 24
-31.451343060588794
 14
0.5
 24
-31.451343060588794
 14
0.5
 24
-32.118009727255455
 14
-0.5
 24
-32.118009727255455
 14
-0.5
 24
-31.451343060588794
  0
MTEXT
  5
A8
100
AcDbEntity
  8
寸法
 62
               0
100
AcDbMText
 10
1379.125
 20
3207.2517447916666
 30
0.0
 40
16.288411458333332
 41
0.0
 71
               1
 72
               1
  1
750
  7
ＭＳ ゴシック
 73
               1
 44
0.7828267384257843
  0
POINT
  5
A9
100
AcDbEntity
  8
Defpoints
370
               0
 62
               0
100
AcDbPoint
 10
1020.0
 20
3098.5
 30
0.0
  0
POINT
  5
AA
100
AcDbEntity
  8
Defpoints
370
               0
 62
               0
100
AcDbPoint
 10
1770.0
 20
3098.5
 30
0.0
  0
POINT
  5
AB
100
AcDbEntity
  8
Defpoints
370
               0
 62
               0
100
AcDbPoint
 10
1770.0
 20
3184.0
 30
0.0
  0
ENDBLK
  5
AC
100
AcDbEntity
  8
寸法
100
AcDbBlockEnd
  0
BLOCK
  5
AD
100
AcDbEntity
  8
寸法
100
AcDbBlockBegin
  2
*D5
 70
               1
 10
0.0
 20
0.0
 30
0.0
  3
*D5
  1

  0
LINE
  5
AE
100
AcDbEntity
  8
寸法
370
              -2
  6
Continuous
 62
               0
100
AcDbLine
 10
1739.9999999999991
 20
2324.7909039410551
 30
0.0
 11
1373.388088542589
 21
2324.7909039410551
 31
0.0
  0
LINE
  5
AF
100
AcDbEntity
  8
寸法
370
              -2
  6
Continuous
 62
               0
100
AcDbLine
 10
1389.999999999998
 20
2184.7909039410551
 30
0.0
 11
1373.388088542589
 21
2184.7909039410551
 31
0.0
  0
LINE
  5
B0
100
AcDbEntity
  8
寸法
370
              -2
  6
Continuous
 62
               0
100
AcDbLine
 10
1373.388088542589
 20
2324.7909039410551
 30
0.0
 11
1373.388088542589
 21
2184.7909039410551
 31
0.0
  0
SOLID
  5
B1
100
AcDbEntity
  8
寸法
370
              -2
 62
               0
100
AcDbTrace
 10
1373.388088542589
 20
2324.7909039410551
 30
0.0
 11
1375.3986233277888
 21
2317.2874859723051
 31
0.0
 12
1371.3775537573893
 22
2317.2874859723051
 32
0.0
 13
1371.3775537573893
 23
2317.2874859723051
 33
0.0
  0
SOLID
  5
B2
100
AcDbEntity
  8
寸法
370
              -2
 62
               0
100
AcDbTrace
 10
1373.388088542589
 20
2184.7909039410551
 30
0.0
 11
1371.3775537573893
 21
2192.2943219098051
 31
0.0
 12
1375.3986233277888
 22
2192.2943219098051
 32
0.0
 13
1375.3986233277888
 23
2192.2943219098051
 33
0.0
  0
WIPEOUT
  5
B3
100
AcDbEntity
  8
寸法
370
              -2
  6
Continuous
 62
               0
 92
        0
100
AcDbWipeout
 90
        0
 10
1348.2214218759223
 20
1227.3202617673605
 30
0.0
 11
31.75
 21
0.0
 31
0.0
 12
0.0
 22
31.75
 32
0.0
 13
1.0
 23
1.0
340
0
 70
               7
280
               1
281
              50
282
              50
283
               0
360
0
 71
               2
 91
        5
 14
0.1666666666666691
 24
-31.451343060588808
 14
0.1666666666666691
 24
-32.451343060588805
 14
-0.5
 24
-32.451343060588805
 14
-0.5
 24
-31.451343060588808
 14
0.1666666666666691
 24
-31.451343060588808
  0
MTEXT
  5
B4
100
AcDbEntity
  8
寸法
 62
               0
100
AcDbMText
 10
1350.1363437509224
 20
2241.7754039410552
 30
0.0
 40
16.288411458333332
 41
0.0
 71
               1
 72
               1
  1
140
  7
ＭＳ ゴシック
 11
0.0
 21
1.0
 31
0.0
 73
               1
 44
0.7828267384257843
  0
POINT
  5
B5
100
AcDbEntity
  8
Defpoints
370
               0
 62
               0
100
AcDbPoint
 10
1394.999999999998
 20
2184.7909039410551
 30
0.0
  0
POINT
  5
B6
100
AcDbEntity
  8
Defpoints
370
               0
 62
               0
100
AcDbPoint
 10
1744.9999999999991
 20
2324.7909039410551
 30
0.0
  0
POINT
  5
B7
100
AcDbEntity
  8
Defpoints
370
               0
 62
               0
100
AcDbPoint
 10
1373.388088542589
 20
2324.7909039410551
 30
0.0
  0
ENDBLK
  5
B8
100
AcDbEntity
  8
寸法
100
AcDbBlockEnd
  0
BLOCK
  5
B9
100
AcDbEntity
  8
寸法
100
AcDbBlockBegin
  2
*D6
 70
               1
 10
0.0
 20
0.0
 30
0.0
  3
*D6
  1

  0
LINE
  5
BA
100
AcDbEntity
  8
寸法
370
              -2
  6
Continuous
 62
               0
100
AcDbLine
 10
2124.3238934521278
 20
2988.4999999999991
 30
0.0
 11
2031.3238934521289
 21
2988.4999999999991
 31
0.0
  0
LINE
  5
BB
100
AcDbEntity
  8
寸法
370
              -2
  6
Continuous
 62
               0
100
AcDbLine
 10
2120.3238934670298
 20
3073.4999999999991
 30
0.0
 11
2031.3238934521289
 21
3073.4999999999991
 31
0.0
  0
LINE
  5
BC
100
AcDbEntity
  8
寸法
370
              -2
  6
Continuous
 62
               0
100
AcDbLine
 10
2031.3238934521289
 20
2988.4999999999991
 30
0.0
 11
2031.3238934521289
 21
3073.4999999999991
 31
0.0
  0
SOLID
  5
BD
100
AcDbEntity
  8
寸法
370
              -2
 62
               0
100
AcDbTrace
 10
2031.3238934521289
 20
2988.4999999999991
 30
0.0
 11
2029.3133586669292
 21
2996.0034179687491
 31
0.0
 12
2033.3344282373287
 22
2996.0034179687491
 32
0.0
 13
2033.3344282373287
 23
2996.0034179687491
 33
0.0
  0
SOLID
  5
BE
100
AcDbEntity
  8
寸法
370
              -2
 62
               0
100
AcDbTrace
 10
2031.3238934521289
 20
3073.4999999999991
 30
0.0
 11
2033.3344282373287
 21
3065.9965820312491
 31
0.0
 12
2029.3133586669292
 22
3065.9965820312491
 32
0.0
 13
2029.3133586669292
 23
3065.9965820312491
 33
0.0
  0
WIPEOUT
  5
BF
100
AcDbEntity
  8
寸法
370
              -2
  6
Continuous
 62
               0
 92
        0
100
AcDbWipeout
 90
        0
 10
2006.1572267854622
 20
2010.2115244929723
 30
0.0
 11
21.166666666666686
 21
0.0
 31
0.0
 12
0.0
 22
21.166666666666686
 32
0.0
 13
1.0
 23
1.0
340
0
 70
               7
280
               1
281
              50
282
              50
283
               0
360
0
 71
               2
 91
        5
 14
0.5000000000000027
 24
-47.427014590883147
 14
0.5000000000000027
 24
-48.427014590883161
 14
-0.5
 24
-48.427014590883161
 14
-0.5
 24
-47.427014590883147
 14
0.5000000000000027
 24
-47.427014590883147
  0
MTEXT
  5
C0
100
AcDbEntity
  8
寸法
 62
               0
100
AcDbMText
 10
2008.0721486604623
 20
3024.6666666666665
 30
0.0
 40
16.288411458333332
 41
0.0
 71
               1
 72
               1
  1
85
  7
ＭＳ ゴシック
 11
0.0
 21
1.0
 31
0.0
 73
               1
 44
0.7828267384257843
  0
POINT
  5
C1
100
AcDbEntity
  8
Defpoints
370
               0
 62
               0
100
AcDbPoint
 10
2125.3238934670298
 20
3073.4999999999991
 30
0.0
  0
POINT
  5
C2
100
AcDbEntity
  8
Defpoints
370
               0
 62
               0
100
AcDbPoint
 10
2129.3238934521278
 20
2988.4999999999991
 30
0.0
  0
POINT
  5
C3
100
AcDbEntity
  8
Defpoints
370
               0
 62
               0
100
AcDbPoint
 10
2031.3238934521289
 20
2988.4999999999991
 30
0.0
  0
ENDBLK
  5
C4
100
AcDbEntity
  8
寸法
100
AcDbBlockEnd
  0
BLOCK
  5
C5
100
AcDbEntity
  8
寸法
100
AcDbBlockBegin
  2
*D7
 70
               1
 10
0.0
 20
0.0
 30
0.0
  3
*D7
  1

  0
LINE
  5
C6
100
AcDbEntity
  8
寸法
370
              -2
  6
Continuous
 62
               0
100
AcDbLine
 10
2129.3238934521278
 20
2856.337628370999
 30
0.0
 11
2129.3238934521278
 21
2897.9058154649783
 31
0.0
  0
LINE
  5
C7
100
AcDbEntity
  8
寸法
370
              -2
  6
Continuous
 62
               0
100
AcDbLine
 10
2269.3238934521296
 20
2906.5
 30
0.0
 11
2269.3238934521296
 21
2897.9058154649783
 31
0.0
  0
LINE
  5
C8
100
AcDbEntity
  8
寸法
370
              -2
  6
Continuous
 62
               0
100
AcDbLine
 10
2129.3238934521278
 20
2897.9058154649783
 30
0.0
 11
2269.3238934521296
 21
2897.9058154649783
 31
0.0
  0
SOLID
  5
C9
100
AcDbEntity
  8
寸法
370
              -2
 62
               0
100
AcDbTrace
 10
2129.3238934521278
 20
2897.9058154649783
 30
0.0
 11
2136.8273114208778
 21
2899.9163502501779
 31
0.0
 12
2136.8273114208778
 22
2895.8952806797784
 32
0.0
 13
2136.8273114208778
 23
2895.8952806797784
 33
0.0
  0
SOLID
  5
CA
100
AcDbEntity
  8
寸法
370
              -2
 62
               0
100
AcDbTrace
 10
2269.3238934521296
 20
2897.9058154649783
 30
0.0
 11
2261.8204754833796
 21
2895.8952806797784
 31
0.0
 12
2261.8204754833796
 22
2899.9163502501779
 32
0.0
 13
2261.8204754833796
 23
2899.9163502501779
 33
0.0
  0
WIPEOUT
  5
CB
100
AcDbEntity
  8
寸法
370
              -2
  6
Continuous
 62
               0
 92
        0
100
AcDbWipeout
 90
        0
 10
2183.2798875714498
 20
1887.4506732912837
 30
0.0
 11
31.75
 21
0.0
 31
0.0
 12
0.0
 22
31.75
 32
0.0
 13
1.0
 23
1.0
340
0
 70
               7
280
               1
281
              50
282
              50
283
               0
360
0
 71
               2
 91
        5
 14
-0.5
 24
-31.451343060588808
 14
0.5
 24
-31.451343060588808
 14
0.5
 24
-32.118009727255469
 14
-0.5
 24
-32.118009727255469
 14
-0.5
 24
-31.451343060588808
  0
MTEXT
  5
CC
100
AcDbEntity
  8
寸法
 62
               0
100
AcDbMText
 10
2183.2798875714498
 20
2921.157560256645
 30
0.0
 40
16.288411458333332
 41
0.0
 71
               1
 72
               1
  1
140
  7
ＭＳ ゴシック
 73
               1
 44
0.7828267384257843
  0
POINT
  5
CD
100
AcDbEntity
  8
Defpoints
370
               0
 62
               0
100
AcDbPoint
 10
2269.3238934521296
 20
2911.5
 30
0.0
  0
POINT
  5
CE
100
AcDbEntity
  8
Defpoints
370
               0
 62
               0
100
AcDbPoint
 10
2129.3238934521278
 20
2851.337628370999
 30
0.0
  0
POINT
  5
CF
100
AcDbEntity
  8
Defpoints
370
               0
 62
               0
100
AcDbPoint
 10
2129.3238934521278
 20
2897.9058154649783
 30
0.0
  0
ENDBLK
  5
D0
100
AcDbEntity
  8
寸法
100
AcDbBlockEnd
  0
BLOCK
  5
D1
100
AcDbEntity
  8
寸法
100
AcDbBlockBegin
  2
*D8
 70
               1
 10
0.0
 20
0.0
 30
0.0
  3
*D8
  1

  0
LINE
  5
D2
100
AcDbEntity
  8
寸法
370
              -2
  6
Continuous
 62
               0
100
AcDbLine
 10
2126.3238934521278
 20
2588.5
 30
0.0
 11
2031.3238934521289
 21
2588.5
 31
0.0
  0
LINE
  5
D3
100
AcDbEntity
  8
寸法
370
              -2
  6
Continuous
 62
               0
100
AcDbLine
 10
2124.3238934521278
 20
2548.5
 30
0.0
 11
2031.3238934521289
 21
2548.5
 31
0.0
  0
LINE
  5
D4
100
AcDbEntity
  8
寸法
370
              -2
  6
Continuous
 62
               0
100
AcDbLine
 10
2031.3238934521289
 20
2588.5
 30
0.0
 11
2031.3238934521289
 21
2548.5
 31
0.0
  0
SOLID
  5
D5
100
AcDbEntity
  8
寸法
370
              -2
 62
               0
100
AcDbTrace
 10
2031.3238934521289
 20
2588.5
 30
0.0
 11
2033.3344282373287
 21
2580.99658203125
 31
0.0
 12
2029.3133586669292
 22
2580.99658203125
 32
0.0
 13
2029.3133586669292
 23
2580.99658203125
 33
0.0
  0
SOLID
  5
D6
100
AcDbEntity
  8
寸法
370
              -2
 62
               0
100
AcDbTrace
 10
2031.3238934521289
 20
2548.5
 30
0.0
 11
2029.3133586669292
 21
2556.00341796875
 31
0.0
 12
2033.3344282373287
 22
2556.00341796875
 32
0.0
 13
2033.3344282373287
 23
2556.00341796875
 33
0.0
  0
WIPEOUT
  5
D7
100
AcDbEntity
  8
寸法
370
              -2
  6
Continuous
 62
               0
 92
        0
100
AcDbWipeout
 90
        0
 10
2006.1572267854622
 20
1543.4615244929723
 30
0.0
 11
21.166666666666686
 21
0.0
 31
0.0
 12
0.0
 22
21.166666666666686
 32
0.0
 13
1.0
 23
1.0
340
0
 70
               7
280
               1
281
              50
282
              50
283
               0
360
0
 71
               2
 91
        5
 14
0.5000000000000027
 24
-47.427014590883147
 14
0.5000000000000027
 24
-48.427014590883161
 14
-0.5
 24
-48.427014590883161
 14
-0.5
 24
-47.427014590883147
 14
0.5000000000000027
 24
-47.427014590883147
  0
MTEXT
  5
D8
100
AcDbEntity
  8
寸法
 62
               0
100
AcDbMText
 10
2008.0721486604623
 20
2557.9166666666665
 30
0.0
 40
16.288411458333332
 41
0.0
 71
               1
 72
               1
  1
40
  7
ＭＳ ゴシック
 11
0.0
 21
1.0
 31
0.0
 73
               1
 44
0.7828267384257843
  0
POINT
  5
D9
100
AcDbEntity
  8
Defpoints
370
               0
 62
               0
100
AcDbPoint
 10
2129.3238934521278
 20
2548.5
 30
0.0
  0
POINT
  5
DA
100
AcDbEntity
  8
Defpoints
370
               0
 62
               0
100
AcDbPoint
 10
2131.3238934521278
 20
2588.5
 30
0.0
  0
POINT
  5
DB
100
AcDbEntity
  8
Defpoints
370
               0
 62
               0
100
AcDbPoint
 10
2031.3238934521289
 20
2588.5
 30
0.0
  0
ENDBLK
  5
DC
100
AcDbEntity
  8
寸法
100
AcDbBlockEnd
  0
BLOCK
  5
DD
100
AcDbEntity
  8
寸法
100
AcDbBlockBegin
  2
*D9
 70
               1
 10
0.0
 20
0.0
 30
0.0
  3
*D9
  1

  0
LINE
  5
DE
100
AcDbEntity
  8
寸法
370
              -2
  6
Continuous
 62
               0
100
AcDbLine
 10
2326.3238934521305
 20
2918.5
 30
0.0
 11
2343.1428157228311
 21
2918.5
 31
0.0
  0
LINE
  5
DF
100
AcDbEntity
  8
寸法
370
              -2
  6
Continuous
 62
               0
100
AcDbLine
 10
2151.3238934521278
 20
3098.5
 30
0.0
 11
2343.1428157228311
 21
3098.5
 31
0.0
  0
LINE
  5
E0
100
AcDbEntity
  8
寸法
370
              -2
  6
Continuous
 62
               0
100
AcDbLine
 10
2343.1428157228311
 20
2918.5
 30
0.0
 11
2343.1428157228311
 21
3098.5
 31
0.0
  0
SOLID
  5
E1
100
AcDbEntity
  8
寸法
370
              -2
 62
               0
100
AcDbTrace
 10
2343.1428157228311
 20
2918.5
 30
0.0
 11
2341.1322809376311
 21
2926.00341796875
 31
0.0
 12
2345.1533505080306
 22
2926.00341796875
 32
0.0
 13
2345.1533505080306
 23
2926.00341796875
 33
0.0
  0
SOLID
  5
E2
100
AcDbEntity
  8
寸法
370
              -2
 62
               0
100
AcDbTrace
 10
2343.1428157228311
 20
3098.5
 30
0.0
 11
2345.1533505080306
 21
3090.99658203125
 31
0.0
 12
2341.1322809376311
 22
3090.99658203125
 32
0.0
 13
2341.1322809376311
 23
3090.99658203125
 33
0.0
  0
WIPEOUT
  5
E3
100
AcDbEntity
  8
寸法
370
              -2
  6
Continuous
 62
               0
 92
        0
100
AcDbWipeout
 90
        0
 10
2317.9761490561641
 20
1957.2148566151386
 30
0.0
 11
31.75
 21
0.0
 31
0.0
 12
0.0
 22
31.75
 32
0.0
 13
1.0
 23
1.0
340
0
 70
               7
280
               1
281
              50
282
              50
283
               0
360
0
 71
               2
 91
        5
 14
0.1666666666666619
 24
-31.451343060588808
 14
0.1666666666666619
 24
-32.451343060588805
 14
-0.5
 24
-32.451343060588805
 14
-0.5
 24
-31.451343060588808
 14
0.1666666666666619
 24
-31.451343060588808
  0
MTEXT
  5
E4
100
AcDbEntity
  8
寸法
 62
               0
100
AcDbMText
 10
2319.891070931164
 20
2971.6699987888333
 30
0.0
 40
16.288411458333332
 41
0.0
 71
               1
 72
               1
  1
180
  7
ＭＳ ゴシック
 11
0.0
 21
1.0
 31
0.0
 73
               1
 44
0.7828267384257843
  0
POINT
  5
E5
100
AcDbEntity
  8
Defpoints
370
               0
 62
               0
100
AcDbPoint
 10
2146.3238934521278
 20
3098.5
 30
0.0
  0
POINT
  5
E6
100
AcDbEntity
  8
Defpoints
370
               0
 62
               0
100
AcDbPoint
 10
2321.3238934521305
 20
2918.5
 30
0.0
  0
POINT
  5
E7
100
AcDbEntity
  8
Defpoints
370
               0
 62
               0
100
AcDbPoint
 10
2343.1428157228311
 20
2918.5
 30
0.0
  0
ENDBLK
  5
E8
100
AcDbEntity
  8
寸法
100
AcDbBlockEnd
  0
BLOCK
  5
E9
100
AcDbEntity
  8
寸法
100
AcDbBlockBegin
  2
*D10
 70
               1
 10
0.0
 20
0.0
 30
0.0
  3
*D10
  1

  0
LINE
  5
EA
100
AcDbEntity
  8
寸法
370
              -2
  6
Continuous
 62
               0
100
AcDbLine
 10
2126.3238934521278
 20
2588.5
 30
0.0
 11
2031.3238934521289
 21
2588.5
 31
0.0
  0
LINE
  5
EB
100
AcDbEntity
  8
寸法
370
              -2
  6
Continuous
 62
               0
100
AcDbLine
 10
2110.7090960589449
 20
2988.4999999999991
 30
0.0
 11
2031.3238934521289
 21
2988.4999999999991
 31
0.0
  0
LINE
  5
EC
100
AcDbEntity
  8
寸法
370
              -2
  6
Continuous
 62
               0
100
AcDbLine
 10
2031.3238934521289
 20
2588.5
 30
0.0
 11
2031.3238934521289
 21
2988.4999999999991
 31
0.0
  0
SOLID
  5
ED
100
AcDbEntity
  8
寸法
370
              -2
 62
               0
100
AcDbTrace
 10
2031.3238934521289
 20
2588.5
 30
0.0
 11
2029.3133586669292
 21
2596.00341796875
 31
0.0
 12
2033.3344282373287
 22
2596.00341796875
 32
0.0
 13
2033.3344282373287
 23
2596.00341796875
 33
0.0
  0
SOLID
  5
EE
100
AcDbEntity
  8
寸法
370
              -2
 62
               0
100
AcDbTrace
 10
2031.3238934521289
 20
2988.4999999999991
 30
0.0
 11
2033.3344282373287
 21
2980.9965820312491
 31
0.0
 12
2029.3133586669292
 22
2980.9965820312491
 32
0.0
 13
2029.3133586669292
 23
2980.9965820312491
 33
0.0
  0
WIPEOUT
  5
EF
100
AcDbEntity
  8
寸法
370
              -2
  6
Continuous
 62
               0
 92
        0
100
AcDbWipeout
 90
        0
 10
2006.1572267854622
 20
1760.1810093871227
 30
0.0
 11
31.75
 21
0.0
 31
0.0
 12
0.0
 22
31.75
 32
0.0
 13
1.0
 23
1.0
340
0
 70
               7
280
               1
281
              50
282
              50
283
               0
360
0
 71
               2
 91
        5
 14
0.1666666666666691
 24
-31.451343060588794
 14
0.1666666666666691
 24
-32.45134306058879
 14
-0.5
 24
-32.45134306058879
 14
-0.5
 24
-31.451343060588794
 14
0.1666666666666691
 24
-31.451343060588794
  0
MTEXT
  5
F0
100
AcDbEntity
  8
寸法
 62
               0
100
AcDbMText
 10
2008.0721486604623
 20
2774.6361515608169
 30
0.0
 40
16.288411458333332
 41
0.0
 71
               1
 72
               1
  1
400
  7
ＭＳ ゴシック
 11
0.0
 21
1.0
 31
0.0
 73
               1
 44
0.7828267384257843
  0
POINT
  5
F1
100
AcDbEntity
  8
Defpoints
370
               0
 62
               0
100
AcDbPoint
 10
2115.7090960589449
 20
2988.4999999999991
 30
0.0
  0
POINT
  5
F2
100
AcDbEntity
  8
Defpoints
370
               0
 62
               0
100
AcDbPoint
 10
2131.3238934521278
 20
2588.5
 30
0.0
  0
POINT
  5
F3
100
AcDbEntity
  8
Defpoints
370
               0
 62
               0
100
AcDbPoint
 10
2031.3238934521289
 20
2588.5
 30
0.0
  0
ENDBLK
  5
F4
100
AcDbEntity
  8
寸法
100
AcDbBlockEnd
  0
BLOCK
  5
F5
100
AcDbEntity
  8
寸法
100
AcDbBlockBegin
  2
*D11
 70
               1
 10
0.0
 20
0.0
 30
0.0
  3
*D11
  1

  0
LINE
  5
F6
100
AcDbEntity
  8
寸法
370
              -2
  6
Continuous
 62
               0
100
AcDbLine
 10
1024.6147973931829
 20
2548.5
 30
0.0
 11
898.0
 21
2548.5
 31
0.0
  0
LINE
  5
F7
100
AcDbEntity
  8
寸法
370
              -2
  6
Continuous
 62
               0
100
AcDbLine
 10
1018.0
 20
3098.5
 30
0.0
 11
898.0
 21
3098.5
 31
0.0
  0
LINE
  5
F8
100
AcDbEntity
  8
寸法
370
              -2
  6
Continuous
 62
               0
100
AcDbLine
 10
898.0
 20
2548.5
 30
0.0
 11
898.0
 21
3098.5
 31
0.0
  0
SOLID
  5
F9
100
AcDbEntity
  8
寸法
370
              -2
 62
               0
100
AcDbTrace
 10
898.0
 20
2548.5
 30
0.0
 11
895.98946521480025
 21
2556.00341796875
 31
0.0
 12
900.01053478519975
 22
2556.00341796875
 32
0.0
 13
900.01053478519975
 23
2556.00341796875
 33
0.0
  0
SOLID
  5
FA
100
AcDbEntity
  8
寸法
370
              -2
 62
               0
100
AcDbTrace
 10
898.0
 20
3098.5
 30
0.0
 11
900.01053478519975
 21
3090.99658203125
 31
0.0
 12
895.98946521480025
 22
3090.99658203125
 32
0.0
 13
895.98946521480025
 23
3090.99658203125
 33
0.0
  0
WIPEOUT
  5
FB
100
AcDbEntity
  8
寸法
370
              -2
  6
Continuous
 62
               0
 92
        0
100
AcDbWipeout
 90
        0
 10
872.83333333333326
 20
1793.1698578263056
 30
0.0
 11
31.75
 21
0.0
 31
0.0
 12
0.0
 22
31.75
 32
0.0
 13
1.0
 23
1.0
340
0
 70
               7
280
               1
281
              50
282
              50
283
               0
360
0
 71
               2
 91
        5
 14
0.1666666666666655
 24
-31.451343060588801
 14
0.1666666666666655
 24
-32.451343060588798
 14
-0.5
 24
-32.451343060588798
 14
-0.5
 24
-31.451343060588801
 14
0.1666666666666655
 24
-31.451343060588801
  0
MTEXT
  5
FC
100
AcDbEntity
  8
寸法
 62
               0
100
AcDbMText
 10
874.74825520833326
 20
2807.625
 30
0.0
 40
16.288411458333332
 41
0.0
 71
               1
 72
               1
  1
550
  7
ＭＳ ゴシック
 11
0.0
 21
1.0
 31
0.0
 73
               1
 44
0.7828267384257843
  0
POINT
  5
FD
100
AcDbEntity
  8
Defpoints
370
               0
 62
               0
100
AcDbPoint
 10
1023.0
 20
3098.5
 30
0.0
  0
POINT
  5
FE
100
AcDbEntity
  8
Defpoints
370
               0
 62
               0
100
AcDbPoint
 10
1029.6147973931829
 20
2548.5
 30
0.0
  0
POINT
  5
FF
100
AcDbEntity
  8
Defpoints
370
               0
 62
               0
100
AcDbPoint
 10
898.0
 20
2548.5
 30
0.0
  0
ENDBLK
  5
100
100
AcDbEntity
  8
寸法
100
AcDbBlockEnd
  0
BLOCK
  5
101
100
AcDbEntity
  8
寸法
100
AcDbBlockBegin
  2
*D12
 70
               1
 10
0.0
 20
0.0
 30
0.0
  3
*D12
  1

  0
LINE
  5
102
100
AcDbEntity
  8
寸法
370
              -2
  6
Continuous
 62
               0
100
AcDbLine
 10
2124.3238934521278
 20
3098.5
 30
0.0
 11
2031.3238934521289
 21
3098.5
 31
0.0
  0
LINE
  5
103
100
AcDbEntity
  8
寸法
370
              -2
  6
Continuous
 62
               0
100
AcDbLine
 10
2124.3238934521278
 20
3073.4999999999991
 30
0.0
 11
2031.3238934521289
 21
3073.4999999999991
 31
0.0
  0
LINE
  5
104
100
AcDbEntity
  8
寸法
370
              -2
  6
Continuous
 62
               0
100
AcDbLine
 10
2031.3238934521289
 20
3098.5
 30
0.0
 11
2031.3238934521289
 21
3073.4999999999991
 31
0.0
  0
SOLID
  5
105
100
AcDbEntity
  8
寸法
370
              -2
 62
               0
100
AcDbTrace
 10
2031.3238934521289
 20
3098.5
 30
0.0
 11
2033.3344282373287
 21
3090.99658203125
 31
0.0
 12
2029.3133586669292
 22
3090.99658203125
 32
0.0
 13
2029.3133586669292
 23
3090.99658203125
 33
0.0
  0
SOLID
  5
106
100
AcDbEntity
  8
寸法
370
              -2
 62
               0
100
AcDbTrace
 10
2031.3238934521289
 20
3073.4999999999991
 30
0.0
 11
2029.3133586669292
 21
3081.0034179687491
 31
0.0
 12
2033.3344282373287
 22
3081.0034179687491
 32
0.0
 13
2033.3344282373287
 23
3081.0034179687491
 33
0.0
  0
MTEXT
  5
107
100
AcDbEntity
  8
寸法
 62
               0
100
AcDbMText
 10
2008.0721486604623
 20
3075.4166666666665
 30
0.0
 40
16.288411458333332
 41
0.0
 71
               1
 72
               1
  1
25
  7
ＭＳ ゴシック
 11
0.0
 21
1.0
 31
0.0
 73
               1
 44
0.7828267384257843
  0
POINT
  5
108
100
AcDbEntity
  8
Defpoints
370
               0
 62
               0
100
AcDbPoint
 10
2129.3238934521278
 20
3073.4999999999991
 30
0.0
  0
POINT
  5
109
100
AcDbEntity
  8
Defpoints
370
               0
 62
               0
100
AcDbPoint
 10
2129.3238934521278
 20
3098.5
 30
0.0
  0
POINT
  5
10A
100
AcDbEntity
  8
Defpoints
370
               0
 62
               0
100
AcDbPoint
 10
2031.3238934521289
 20
3098.5
 30
0.0
  0
ENDBLK
  5
10B
100
AcDbEntity
  8
寸法
100
AcDbBlockEnd
  0
BLOCK
  5
10C
100
AcDbEntity
  8
寸法
100
AcDbBlockBegin
  2
*D13
 70
               1
 10
0.0
 20
0.0
 30
0.0
  3
*D13
  1

  0
LINE
  5
10D
100
AcDbEntity
  8
寸法
370
              -2
  6
Continuous
 62
               0
100
AcDbLine
 10
2129.3238934521278
 20
3025.5794900168094
 30
0.0
 11
2129.3238934521278
 21
3015.4999999999991
 31
0.0
  0
LINE
  5
10E
100
AcDbEntity
  8
寸法
370
              -2
  6
Continuous
 62
               0
100
AcDbLine
 10
2139.3238934521278
 20
3053.4999999999991
 30
0.0
 11
2139.3238934521278
 21
3015.4999999999991
 31
0.0
  0
LINE
  5
10F
100
AcDbEntity
  8
寸法
370
              -2
  6
Continuous
 62
               0
100
AcDbLine
 10
2129.3238934521278
 20
3015.4999999999991
 30
0.0
 11
2106.9391190125316
 21
3015.4999999999991
 31
0.0
  0
LINE
  5
110
100
AcDbEntity
  8
寸法
370
              -2
  6
Continuous
 62
               0
100
AcDbLine
 10
2129.3238934521278
 20
3015.4999999999991
 30
0.0
 11
2139.3238934521278
 21
3015.4999999999991
 31
0.0
  0
SOLID
  5
111
100
AcDbEntity
  8
寸法
370
              -2
 62
               0
100
AcDbTrace
 10
2129.3238934521278
 20
3015.4999999999991
 30
0.0
 11
2136.8273114208778
 21
3017.5105347851986
 31
0.0
 12
2136.8273114208778
 22
3013.4894652147996
 32
0.0
 13
2136.8273114208778
 23
3013.4894652147996
 33
0.0
  0
SOLID
  5
112
100
AcDbEntity
  8
寸法
370
              -2
 62
               0
100
AcDbTrace
 10
2139.3238934521278
 20
3015.4999999999991
 30
0.0
 11
2131.8204754833778
 21
3013.4894652147996
 31
0.0
 12
2131.8204754833778
 22
3017.5105347851986
 32
0.0
 13
2131.8204754833778
 23
3017.5105347851986
 33
0.0
  0
WIPEOUT
  5
113
100
AcDbEntity
  8
寸法
370
              -2
  6
Continuous
 62
               0
 92
        0
100
AcDbWipeout
 90
        0
 10
2106.9391190125316
 20
2005.0448578263047
 30
0.0
 11
21.166666666666686
 21
0.0
 31
0.0
 12
0.0
 22
21.166666666666686
 32
0.0
 13
1.0
 23
1.0
340
0
 70
               7
280
               1
281
              50
282
              50
283
               0
360
0
 71
               2
 91
        5
 14
-0.5
 24
-47.427014590883161
 14
0.4999999999999919
 24
-47.427014590883161
 14
0.4999999999999919
 24
-48.427014590883147
 14
-0.5
 24
-48.427014590883147
 14
-0.5
 24
-47.427014590883161
  0
MTEXT
  5
114
100
AcDbEntity
  8
寸法
 62
               0
100
AcDbMText
 10
2106.9391190125316
 20
3038.7517447916657
 30
0.0
 40
16.288411458333332
 41
0.0
 71
               1
 72
               1
  1
10
  7
ＭＳ ゴシック
 73
               1
 44
0.7828267384257843
  0
POINT
  5
115
100
AcDbEntity
  8
Defpoints
370
               0
 62
               0
100
AcDbPoint
 10
2139.3238934521278
 20
3058.4999999999991
 30
0.0
  0
POINT
  5
116
100
AcDbEntity
  8
Defpoints
370
               0
 62
               0
100
AcDbPoint
 10
2129.3238934521278
 20
3030.5794900168094
 30
0.0
  0
POINT
  5
117
100
AcDbEntity
  8
Defpoints
370
               0
 62
               0
100
AcDbPoint
 10
2129.3238934521278
 20
3015.4999999999991
 30
0.0
  0
ENDBLK
  5
118
100
AcDbEntity
  8
寸法
100
AcDbBlockEnd
  0
BLOCK
  5
119
100
AcDbEntity
  8
寸法
100
AcDbBlockBegin
  2
*D14
 70
               1
 10
0.0
 20
0.0
 30
0.0
  3
*D14
  1

  0
LINE
  5
11A
100
AcDbEntity
  8
寸法
370
              -2
  6
Continuous
 62
               0
100
AcDbLine
 10
2129.3238934521278
 20
2545.5
 30
0.0
 11
2129.3238934521278
 21
2517.5
 31
0.0
  0
LINE
  5
11B
100
AcDbEntity
  8
寸法
370
              -2
  6
Continuous
 62
               0
100
AcDbLine
 10
2146.3238934521278
 20
2543.5
 30
0.0
 11
2146.3238934521278
 21
2517.5
 31
0.0
  0
LINE
  5
11C
100
AcDbEntity
  8
寸法
370
              -2
  6
Continuous
 62
               0
100
AcDbLine
 10
2146.3238934521278
 20
2517.5
 30
0.0
 11
2168.4447672001734
 21
2517.5
 31
0.0
  0
LINE
  5
11D
100
AcDbEntity
  8
寸法
370
              -2
  6
Continuous
 62
               0
100
AcDbLine
 10
2129.3238934521278
 20
2517.5
 30
0.0
 11
2146.3238934521278
 21
2517.5
 31
0.0
  0
SOLID
  5
11E
100
AcDbEntity
  8
寸法
370
              -2
 62
               0
100
AcDbTrace
 10
2129.3238934521278
 20
2517.5
 30
0.0
 11
2136.8273114208778
 21
2519.5105347851995
 31
0.0
 12
2136.8273114208778
 22
2515.4894652148005
 32
0.0
 13
2136.8273114208778
 23
2515.4894652148005
 33
0.0
  0
SOLID
  5
11F
100
AcDbEntity
  8
寸法
370
              -2
 62
               0
100
AcDbTrace
 10
2146.3238934521278
 20
2517.5
 30
0.0
 11
2138.8204754833778
 21
2515.4894652148005
 31
0.0
 12
2138.8204754833778
 22
2519.5105347851995
 32
0.0
 13
2138.8204754833778
 23
2519.5105347851995
 33
0.0
  0
WIPEOUT
  5
120
100
AcDbEntity
  8
寸法
370
              -2
  6
Continuous
 62
               0
 92
        0
100
AcDbWipeout
 90
        0
 10
2147.2781005335064
 20
1507.0448578263056
 30
0.0
 11
21.166666666666686
 21
0.0
 31
0.0
 12
0.0
 22
21.166666666666686
 32
0.0
 13
1.0
 23
1.0
340
0
 70
               7
280
               1
281
              50
282
              50
283
               0
360
0
 71
               2
 91
        5
 14
-0.5
 24
-47.427014590883161
 14
0.5000000000000133
 24
-47.427014590883161
 14
0.5000000000000133
 24
-48.427014590883147
 14
-0.5
 24
-48.427014590883147
 14
-0.5
 24
-47.427014590883161
  0
MTEXT
  5
121
100
AcDbEntity
  8
寸法
 62
               0
100
AcDbMText
 10
2147.2781005335064
 20
2540.7517447916666
 30
0.0
 40
16.288411458333332
 41
0.0
 71
               1
 72
               1
  1
17
  7
ＭＳ ゴシック
 73
               1
 44
0.7828267384257843
  0
POINT
  5
122
100
AcDbEntity
  8
Defpoints
370
               0
 62
               0
100
AcDbPoint
 10
2146.3238934521278
 20
2548.5
 30
0.0
  0
POINT
  5
123
100
AcDbEntity
  8
Defpoints
370
               0
 62
               0
100
AcDbPoint
 10
2129.3238934521278
 20
2550.5
 30
0.0
  0
POINT
  5
124
100
AcDbEntity
  8
Defpoints
370
               0
 62
               0
100
AcDbPoint
 10
2129.3238934521278
 20
2517.5
 30
0.0
  0
ENDBLK
  5
125
100
AcDbEntity
  8
寸法
100
AcDbBlockEnd
  0
BLOCK
  5
126
100
AcDbEntity
  8
一般
100
AcDbBlockBegin
  2
グループ-2-2
 70
               0
 10
0.0
 20
0.0
 30
0.0
  3
グループ-2-2
  1

  0
CIRCLE
  5
127
100
AcDbEntity
  8
一般
370
               9
  6
STYLE_01
 62
               0
100
AcDbCircle
 10
639.11541607852178
 20
2069.4002092017472
 30
0.0
 40
3.0
  0
CIRCLE
  5
128
100
AcDbEntity
  8
一般
370
               9
  6
STYLE_01
 62
               0
100
AcDbCircle
 10
639.11541607852178
 20
2069.4002092017472
 30
0.0
 40
7.75
  0
POINT
  5
129
100
AcDbEntity
  8
一般
370
               5
  6
Continuous
 62
               0
100
AcDbPoint
 10
639.115416078522
 20
2069.4002092017472
 30
0.0
  0
CIRCLE
  5
12A
100
AcDbEntity
  8
一般
370
               9
  6
STYLE_01
 62
               0
100
AcDbCircle
 10
639.11541607852178
 20
2069.4002092017472
 30
0.0
 40
9.3000000000001819
  0
CIRCLE
  5
12B
100
AcDbEntity
  8
一般
370
               9
  6
STYLE_01
 62
               0
100
AcDbCircle
 10
622.76820919840179
 20
2019.088679708002
 30
0.0
 40
3.0
  0
CIRCLE
  5
12C
100
AcDbEntity
  8
一般
370
               9
  6
STYLE_01
 62
               0
100
AcDbCircle
 10
622.76820919840179
 20
2019.088679708002
 30
0.0
 40
7.75
  0
POINT
  5
12D
100
AcDbEntity
  8
一般
370
               5
  6
Continuous
 62
               0
100
AcDbPoint
 10
622.76820919840179
 20
2019.088679708002
 30
0.0
  0
CIRCLE
  5
12E
100
AcDbEntity
  8
一般
370
               9
  6
STYLE_01
 62
               0
100
AcDbCircle
 10
622.76820919840179
 20
2019.088679708002
 30
0.0
 40
9.2999999999999545
  0
CIRCLE
  5
12F
100
AcDbEntity
  8
一般
370
               9
  6
STYLE_01
 62
               0
100
AcDbCircle
 10
665.56575243168345
 20
1987.9944444548751
 30
0.0
 40
3.0
  0
CIRCLE
  5
130
100
AcDbEntity
  8
一般
370
               9
  6
STYLE_01
 62
               0
100
AcDbCircle
 10
665.56575243168345
 20
1987.9944444548751
 30
0.0
 40
7.75
  0
POINT
  5
131
100
AcDbEntity
  8
一般
370
               5
  6
Continuous
 62
               0
100
AcDbPoint
 10
665.56575243168345
 20
1987.9944444548751
 30
0.0
  0
CIRCLE
  5
132
100
AcDbEntity
  8
一般
370
               9
  6
STYLE_01
 62
               0
100
AcDbCircle
 10
665.56575243168345
 20
1987.9944444548751
 30
0.0
 40
9.2999999999999545
  0
CIRCLE
  5
133
100
AcDbEntity
  8
一般
370
               9
  6
STYLE_01
 62
               0
100
AcDbCircle
 10
692.0160887848449
 20
2069.4002092017472
 30
0.0
 40
3.0
  0
CIRCLE
  5
134
100
AcDbEntity
  8
一般
370
               9
  6
STYLE_01
 62
               0
100
AcDbCircle
 10
692.0160887848449
 20
2069.4002092017472
 30
0.0
 40
7.75
  0
POINT
  5
135
100
AcDbEntity
  8
一般
370
               5
  6
Continuous
 62
               0
100
AcDbPoint
 10
692.0160887848449
 20
2069.4002092017472
 30
0.0
  0
CIRCLE
  5
136
100
AcDbEntity
  8
一般
370
               9
  6
STYLE_01
 62
               0
100
AcDbCircle
 10
692.0160887848449
 20
2069.4002092017472
 30
0.0
 40
9.3000000000001819
  0
CIRCLE
  5
137
100
AcDbEntity
  8
一般
370
               9
  6
STYLE_01
 62
               0
100
AcDbCircle
 10
715.02069127903133
 20
2016.9255607473769
 30
0.0
 40
3.0
  0
CIRCLE
  5
138
100
AcDbEntity
  8
一般
370
               9
  6
STYLE_01
 62
               0
100
AcDbCircle
 10
715.02069127903133
 20
2016.9255607473769
 30
0.0
 40
7.75
  0
POINT
  5
139
100
AcDbEntity
  8
一般
370
               5
  6
Continuous
 62
               0
100
AcDbPoint
 10
715.02069127903133
 20
2016.9255607473769
 30
0.0
  0
CIRCLE
  5
13A
100
AcDbEntity
  8
一般
370
               9
  6
STYLE_01
 62
               0
100
AcDbCircle
 10
715.02069127903133
 20
2016.9255607473769
 30
0.0
 40
9.2999999999999545
  0
POINT
  5
13B
100
AcDbEntity
  8
一般
370
               5
  6
Continuous
 62
               0
100
AcDbPoint
 10
666.06575243168345
 20
2032.9944444548751
 30
0.0
  0
ENDBLK
  5
13C
100
AcDbEntity
  8
一般
100
AcDbBlockEnd
  0
BLOCK
  5
13D
100
AcDbEntity
  8
寸法
100
AcDbBlockBegin
  2
*D16
 70
               1
 10
0.0
 20
0.0
 30
0.0
  3
*D16
  1

  0
LINE
  5
13E
100
AcDbEntity
  8
寸法
370
              -2
  6
Continuous
 62
               0
100
AcDbLine
 10
2124.3238934521278
 20
2988.4999999999991
 30
0.0
 11
1993.142815722829
 21
2988.4999999999991
 31
0.0
  0
LINE
  5
13F
100
AcDbEntity
  8
寸法
370
              -2
  6
Continuous
 62
               0
100
AcDbLine
 10
2118.2333545967917
 20
3098.5
 30
0.0
 11
1993.142815722829
 21
3098.5
 31
0.0
  0
LINE
  5
140
100
AcDbEntity
  8
寸法
370
              -2
  6
Continuous
 62
               0
100
AcDbLine
 10
1993.142815722829
 20
2988.4999999999991
 30
0.0
 11
1993.142815722829
 21
3098.5
 31
0.0
  0
SOLID
  5
141
100
AcDbEntity
  8
寸法
370
              -2
 62
               0
100
AcDbTrace
 10
1993.142815722829
 20
2988.4999999999991
 30
0.0
 11
1991.1322809376293
 21
2996.0034179687491
 31
0.0
 12
1995.1533505080288
 22
2996.0034179687491
 32
0.0
 13
1995.1533505080288
 23
2996.0034179687491
 33
0.0
  0
SOLID
  5
142
100
AcDbEntity
  8
寸法
370
              -2
 62
               0
100
AcDbTrace
 10
1993.142815722829
 20
3098.5
 30
0.0
 11
1995.1533505080288
 21
3090.99658203125
 31
0.0
 12
1991.1322809376293
 22
3090.99658203125
 32
0.0
 13
1991.1322809376293
 23
3090.99658203125
 33
0.0
  0
WIPEOUT
  5
143
100
AcDbEntity
  8
寸法
370
              -2
  6
Continuous
 62
               0
 92
        0
100
AcDbWipeout
 90
        0
 10
1967.9761490561623
 20
2014.3092075457637
 30
0.0
 11
31.75
 21
0.0
 31
0.0
 12
0.0
 22
31.75
 32
0.0
 13
1.0
 23
1.0
340
0
 70
               7
280
               1
281
              50
282
              50
283
               0
360
0
 71
               2
 91
        5
 14
0.1666666666666691
 24
-31.451343060588801
 14
0.1666666666666691
 24
-32.451343060588798
 14
-0.5
 24
-32.451343060588798
 14
-0.5
 24
-31.451343060588801
 14
0.1666666666666691
 24
-31.451343060588801
  0
MTEXT
  5
144
100
AcDbEntity
  8
寸法
 62
               0
100
AcDbMText
 10
1969.8910709311624
 20
3028.7643497194581
 30
0.0
 40
16.288411458333332
 41
0.0
 71
               1
 72
               1
  1
110
  7
ＭＳ ゴシック
 11
0.0
 21
1.0
 31
0.0
 73
               1
 44
0.7828267384257843
  0
POINT
  5
145
100
AcDbEntity
  8
Defpoints
370
               0
 62
               0
100
AcDbPoint
 10
2123.2333545967917
 20
3098.5
 30
0.0
  0
POINT
  5
146
100
AcDbEntity
  8
Defpoints
370
               0
 62
               0
100
AcDbPoint
 10
2129.3238934521278
 20
2988.4999999999991
 30
0.0
  0
POINT
  5
147
100
AcDbEntity
  8
Defpoints
370
               0
 62
               0
100
AcDbPoint
 10
1993.142815722829
 20
2988.4999999999991
 30
0.0
  0
ENDBLK
  5
148
100
AcDbEntity
  8
寸法
100
AcDbBlockEnd
  0
BLOCK
  5
149
100
AcDbEntity
  8
寸法
100
AcDbBlockBegin
  2
*D17
 70
               1
 10
0.0
 20
0.0
 30
0.0
  3
*D17
  1

  0
LINE
  5
14A
100
AcDbEntity
  8
寸法
370
              -2
  6
Continuous
 62
               0
100
AcDbLine
 10
2124.3238934521278
 20
2988.4999999999991
 30
0.0
 11
1993.142815722829
 21
2988.4999999999991
 31
0.0
  0
LINE
  5
14B
100
AcDbEntity
  8
寸法
370
              -2
  6
Continuous
 62
               0
100
AcDbLine
 10
2124.3238934521278
 20
2548.5
 30
0.0
 11
1993.142815722829
 21
2548.5
 31
0.0
  0
LINE
  5
14C
100
AcDbEntity
  8
寸法
370
              -2
  6
Continuous
 62
               0
100
AcDbLine
 10
1993.142815722829
 20
2548.5
 30
0.0
 11
1993.142815722829
 21
2515.2603577247223
 31
0.0
  0
LINE
  5
14D
100
AcDbEntity
  8
寸法
370
              -2
  6
Continuous
 62
               0
100
AcDbLine
 10
1993.142815722829
 20
2988.4999999999991
 30
0.0
 11
1993.142815722829
 21
2548.5
 31
0.0
  0
SOLID
  5
14E
100
AcDbEntity
  8
寸法
370
              -2
 62
               0
100
AcDbTrace
 10
1993.142815722829
 20
2988.4999999999991
 30
0.0
 11
1995.1533505080288
 21
2980.9965820312491
 31
0.0
 12
1991.1322809376293
 22
2980.9965820312491
 32
0.0
 13
1991.1322809376293
 23
2980.9965820312491
 33
0.0
  0
SOLID
  5
14F
100
AcDbEntity
  8
寸法
370
              -2
 62
               0
100
AcDbTrace
 10
1993.142815722829
 20
2548.5
 30
0.0
 11
1991.1322809376293
 21
2556.00341796875
 31
0.0
 12
1995.1533505080288
 22
2556.00341796875
 32
0.0
 13
1995.1533505080288
 23
2556.00341796875
 33
0.0
  0
WIPEOUT
  5
150
100
AcDbEntity
  8
寸法
370
              -2
  6
Continuous
 62
               0
 92
        0
100
AcDbWipeout
 90
        0
 10
1967.9761490561623
 20
1500.8052155510279
 30
0.0
 11
31.75
 21
0.0
 31
0.0
 12
0.0
 22
31.75
 32
0.0
 13
1.0
 23
1.0
340
0
 70
               7
280
               1
281
              50
282
              50
283
               0
360
0
 71
               2
 91
        5
 14
0.1666666666666691
 24
-31.451343060588801
 14
0.1666666666666691
 24
-32.451343060588798
 14
-0.5
 24
-32.451343060588798
 14
-0.5
 24
-31.451343060588801
 14
0.1666666666666691
 24
-31.451343060588801
  0
MTEXT
  5
151
100
AcDbEntity
  8
寸法
 62
               0
100
AcDbMText
 10
1969.8910709311624
 20
2515.2603577247223
 30
0.0
 40
16.288411458333332
 41
0.0
 71
               1
 72
               1
  1
440
  7
ＭＳ ゴシック
 11
0.0
 21
1.0
 31
0.0
 73
               1
 44
0.7828267384257843
  0
POINT
  5
152
100
AcDbEntity
  8
Defpoints
370
               0
 62
               0
100
AcDbPoint
 10
2129.3238934521278
 20
2548.5
 30
0.0
  0
POINT
  5
153
100
AcDbEntity
  8
Defpoints
370
               0
 62
               0
100
AcDbPoint
 10
2129.3238934521278
 20
2988.4999999999991
 30
0.0
  0
POINT
  5
154
100
AcDbEntity
  8
Defpoints
370
               0
 62
               0
100
AcDbPoint
 10
1993.142815722829
 20
2988.4999999999991
 30
0.0
  0
ENDBLK
  5
155
100
AcDbEntity
  8
寸法
100
AcDbBlockEnd
  0
BLOCK
  5
156
100
AcDbEntity
  8
寸法
100
AcDbBlockBegin
  2
*D18
 70
               1
 10
0.0
 20
0.0
 30
0.0
  3
*D18
  1

  0
LINE
  5
157
100
AcDbEntity
  8
寸法
370
              -2
  6
Continuous
 62
               0
100
AcDbLine
 10
2331.3238934335041
 20
2918.5
 30
0.0
 11
2343.1428157228311
 21
2918.5
 31
0.0
  0
LINE
  5
158
100
AcDbEntity
  8
寸法
370
              -2
  6
Continuous
 62
               0
100
AcDbLine
 10
2151.3238934521278
 20
2548.5
 30
0.0
 11
2343.1428157228311
 21
2548.5
 31
0.0
  0
LINE
  5
159
100
AcDbEntity
  8
寸法
370
              -2
  6
Continuous
 62
               0
100
AcDbLine
 10
2343.1428157228311
 20
2918.5
 30
0.0
 11
2343.1428157228311
 21
2548.5
 31
0.0
  0
SOLID
  5
15A
100
AcDbEntity
  8
寸法
370
              -2
 62
               0
100
AcDbTrace
 10
2343.1428157228311
 20
2918.5
 30
0.0
 11
2345.1533505080306
 21
2910.99658203125
 31
0.0
 12
2341.1322809376311
 22
2910.99658203125
 32
0.0
 13
2341.1322809376311
 23
2910.99658203125
 33
0.0
  0
SOLID
  5
15B
100
AcDbEntity
  8
寸法
370
              -2
 62
               0
100
AcDbTrace
 10
2343.1428157228311
 20
2548.5
 30
0.0
 11
2341.1322809376311
 21
2556.00341796875
 31
0.0
 12
2345.1533505080306
 22
2556.00341796875
 32
0.0
 13
2345.1533505080306
 23
2556.00341796875
 33
0.0
  0
WIPEOUT
  5
15C
100
AcDbEntity
  8
寸法
370
              -2
  6
Continuous
 62
               0
 92
        0
100
AcDbWipeout
 90
        0
 10
2317.9761490561641
 20
1703.1698578263056
 30
0.0
 11
31.749999999999993
 21
0.0
 31
0.0
 12
0.0
 22
31.749999999999993
 32
0.0
 13
1.0
 23
1.0
340
0
 70
               7
280
               1
281
              50
282
              50
283
               0
360
0
 71
               2
 91
        5
 14
0.1666666666666621
 24
-31.451343060588808
 14
0.1666666666666621
 24
-32.451343060588805
 14
-0.5
 24
-32.451343060588805
 14
-0.5
 24
-31.451343060588808
 14
0.1666666666666621
 24
-31.451343060588808
  0
MTEXT
  5
15D
100
AcDbEntity
  8
寸法
 62
               0
100
AcDbMText
 10
2319.891070931164
 20
2717.625
 30
0.0
 40
16.288411458333332
 41
0.0
 71
               1
 72
               1
  1
370
  7
ＭＳ ゴシック
 11
0.0
 21
1.0
 31
0.0
 73
               1
 44
0.7828267384257843
  0
POINT
  5
15E
100
AcDbEntity
  8
Defpoints
370
               0
 62
               0
100
AcDbPoint
 10
2146.3238934521278
 20
2548.5
 30
0.0
  0
POINT
  5
15F
100
AcDbEntity
  8
Defpoints
370
               0
 62
               0
100
AcDbPoint
 10
2326.3238934335041
 20
2918.5
 30
0.0
  0
POINT
  5
160
100
AcDbEntity
  8
Defpoints
370
               0
 62
               0
100
AcDbPoint
 10
2343.1428157228311
 20
2918.5
 30
0.0
  0
ENDBLK
  5
161
100
AcDbEntity
  8
寸法
100
AcDbBlockEnd
  0
BLOCK
  5
162
100
AcDbEntity
  8
寸法
100
AcDbBlockBegin
  2
*D19
 70
               1
 10
0.0
 20
0.0
 30
0.0
  3
*D19
  1

  0
LINE
  5
163
100
AcDbEntity
  8
寸法
370
              -2
  6
Continuous
 62
               0
100
AcDbLine
 10
1770.0293162364569
 20
2321.790903952231
 30
0.0
 11
1770.0293162364569
 21
2390.0
 31
0.0
  0
LINE
  5
164
100
AcDbEntity
  8
寸法
370
              -2
  6
Continuous
 62
               0
100
AcDbLine
 10
1685.0
 20
2322.969218917453
 30
0.0
 11
1685.0
 21
2390.0
 31
0.0
  0
LINE
  5
165
100
AcDbEntity
  8
寸法
370
              -2
  6
Continuous
 62
               0
100
AcDbLine
 10
1770.0293162364569
 20
2390.0
 30
0.0
 11
1685.0
 21
2390.0
 31
0.0
  0
SOLID
  5
166
100
AcDbEntity
  8
寸法
370
              -2
 62
               0
100
AcDbTrace
 10
1770.0293162364569
 20
2390.0
 30
0.0
 11
1762.5258982677069
 21
2387.9894652148005
 31
0.0
 12
1762.5258982677069
 22
2392.0105347851995
 32
0.0
 13
1762.5258982677069
 23
2392.0105347851995
 33
0.0
  0
SOLID
  5
167
100
AcDbEntity
  8
寸法
370
              -2
 62
               0
100
AcDbTrace
 10
1685.0
 20
2390.0
 30
0.0
 11
1692.50341796875
 21
2392.0105347851995
 31
0.0
 12
1692.50341796875
 22
2387.9894652148005
 32
0.0
 13
1692.50341796875
 23
2387.9894652148005
 33
0.0
  0
WIPEOUT
  5
168
100
AcDbEntity
  8
寸法
370
              -2
  6
Continuous
 62
               0
 92
        0
100
AcDbWipeout
 90
        0
 10
1716.9313247848947
 20
1379.5448578263056
 30
0.0
 11
21.166666666666686
 21
0.0
 31
0.0
 12
0.0
 22
21.166666666666686
 32
0.0
 13
1.0
 23
1.0
340
0
 70
               7
280
               1
281
              50
282
              50
283
               0
360
0
 71
               2
 91
        5
 14
-0.5
 24
-47.427014590883161
 14
0.4999999999999919
 24
-47.427014590883161
 14
0.4999999999999919
 24
-48.427014590883147
 14
-0.5
 24
-48.427014590883147
 14
-0.5
 24
-47.427014590883161
  0
MTEXT
  5
169
100
AcDbEntity
  8
寸法
 62
               0
100
AcDbMText
 10
1716.9313247848947
 20
2413.2517447916666
 30
0.0
 40
16.288411458333332
 41
0.0
 71
               1
 72
               1
  1
85
  7
ＭＳ ゴシック
 73
               1
 44
0.7828267384257843
  0
POINT
  5
16A
100
AcDbEntity
  8
Defpoints
370
               0
 62
               0
100
AcDbPoint
 10
1685.0
 20
2317.969218917453
 30
0.0
  0
POINT
  5
16B
100
AcDbEntity
  8
Defpoints
370
               0
 62
               0
100
AcDbPoint
 10
1770.0293162364569
 20
2316.790903952231
 30
0.0
  0
POINT
  5
16C
100
AcDbEntity
  8
Defpoints
370
               0
 62
               0
100
AcDbPoint
 10
1770.0293162364569
 20
2390.0
 30
0.0
  0
ENDBLK
  5
16D
100
AcDbEntity
  8
寸法
100
AcDbBlockEnd
  0
BLOCK
  5
16E
100
AcDbEntity
  8
寸法
100
AcDbBlockBegin
  2
*D20
 70
               1
 10
0.0
 20
0.0
 30
0.0
  3
*D20
  1

  0
LINE
  5
16F
100
AcDbEntity
  8
寸法
370
              -2
  6
Continuous
 62
               0
100
AcDbLine
 10
1768.535533905932
 20
2549.9644660940671
 30
0.0
 11
1801.2236148382133
 21
2517.2763851617774
 31
0.0
  0
LINE
  5
170
100
AcDbEntity
  8
寸法
370
              -2
  6
Continuous
 62
               0
100
AcDbLine
 10
1765.0
 20
2553.5
 30
0.0
 11
1768.535533905932
 21
2549.9644660940671
 31
0.0
  0
SOLID
  5
171
100
AcDbEntity
  8
寸法
370
              -2
 62
               0
100
AcDbTrace
 10
1768.535533905932
 20
2549.9644660940671
 30
0.0
 11
1754.3023982852642
 21
2558.1819707760724
 31
0.0
 12
1760.3180292239269
 22
2564.1976017147349
 32
0.0
 13
1760.3180292239269
 23
2564.1976017147349
 33
0.0
  0
WIPEOUT
  5
172
100
AcDbEntity
  8
寸法
370
              -2
  6
Continuous
 62
               0
 92
        0
100
AcDbWipeout
 90
        0
 10
1781.6014016602899
 20
1505.649670112829
 30
0.0
 11
37.417733837789086
 21
0.0
 31
0.0
 12
0.0
 22
37.417733837789086
 32
0.0
 13
1.0
 23
1.0
340
0
 70
               7
280
               1
281
              50
282
              50
283
               0
360
0
 71
               2
 91
        5
 14
-0.5
 24
-27.211613615391464
 14
0.0999999999999038
 24
-26.611613615391402
 14
0.4999999999999492
 24
-27.011613615391337
 14
-0.0999999999999608
 24
-27.611613615391398
 14
-0.5
 24
-27.211613615391464
  0
MTEXT
  5
173
100
AcDbEntity
  8
寸法
 62
               0
100
AcDbMText
 10
1795.2144409521518
 20
2556.1684918810574
 30
0.0
 40
16.288411458333332
 41
0.0
 71
               1
 72
               1
  1
R 5
  7
ＭＳ ゴシック
 11
0.7071067811864563
 21
-0.7071067811866387
 31
0.0
 73
               1
 44
0.7828267384257843
  0
POINT
  5
174
100
AcDbEntity
  8
Defpoints
370
               0
 62
               0
100
AcDbPoint
 10
1765.0
 20
2553.5
 30
0.0
  0
POINT
  5
175
100
AcDbEntity
  8
Defpoints
370
               0
 62
               0
100
AcDbPoint
 10
1768.535533905932
 20
2549.9644660940671
 30
0.0
  0
ENDBLK
  5
176
100
AcDbEntity
  8
寸法
100
AcDbBlockEnd
  0
BLOCK
  5
177
100
AcDbEntity
  8
寸法
100
AcDbBlockBegin
  2
*D21
 70
               1
 10
0.0
 20
0.0
 30
0.0
  3
*D21
  1

  0
LINE
  5
178
100
AcDbEntity
  8
寸法
370
              -2
  6
Continuous
 62
               0
100
AcDbLine
 10
1769.5980762113531
 20
3097.0
 30
0.0
 11
1807.6557683734741
 21
3118.9726188145378
 31
0.0
  0
LINE
  5
179
100
AcDbEntity
  8
寸法
370
              -2
  6
Continuous
 62
               0
100
AcDbLine
 10
1767.0
 20
3095.5
 30
0.0
 11
1769.5980762113531
 21
3097.0
 31
0.0
  0
SOLID
  5
17A
100
AcDbEntity
  8
寸法
370
              -2
 62
               0
100
AcDbTrace
 10
1769.5980762113531
 20
3097.0
 30
0.0
 11
1757.9767696411973
 21
3085.3786934298441
 31
0.0
 12
1753.7230762113531
 22
3092.7463065701559
 32
0.0
 13
1753.7230762113531
 23
3092.7463065701559
 33
0.0
  0
WIPEOUT
  5
17B
100
AcDbEntity
  8
寸法
370
              -2
  6
Continuous
 62
               0
 92
        0
100
AcDbWipeout
 90
        0
 10
1767.5761284699847
 20
2092.1065782559804
 30
0.0
 11
38.079639903489337
 21
0.0
 31
0.0
 12
0.0
 22
38.079639903489337
 32
0.0
 13
1.0
 23
1.0
340
0
 70
               7
280
               1
281
              50
282
              50
283
               0
360
0
 71
               2
 91
        5
 14
-0.222073702373327
 24
-26.140355443086463
 14
0.5000000000000004
 24
-26.557244889526469
 14
0.2220737023733214
 24
-27.038627357775354
 14
-0.5
 24
-26.621737911335337
 14
-0.222073702373327
 24
-26.140355443086463
  0
MTEXT
  5
17C
100
AcDbEntity
  8
寸法
 62
               0
100
AcDbMText
 10
1768.5335894074847
 20
3123.2342204864326
 30
0.0
 40
16.288411458333332
 41
0.0
 71
               1
 72
               1
  1
R 3
  7
ＭＳ ゴシック
 11
0.8660254037844245
 21
0.5000000000000244
 31
0.0
 73
               1
 44
0.7828267384257843
  0
POINT
  5
17D
100
AcDbEntity
  8
Defpoints
370
               0
 62
               0
100
AcDbPoint
 10
1767.0
 20
3095.5
 30
0.0
  0
POINT
  5
17E
100
AcDbEntity
  8
Defpoints
370
               0
 62
               0
100
AcDbPoint
 10
1769.5980762113531
 20
3097.0
 30
0.0
  0
ENDBLK
  5
17F
100
AcDbEntity
  8
寸法
100
AcDbBlockEnd
  0
BLOCK
  5
180
100
AcDbEntity
  8
寸法
100
AcDbBlockBegin
  2
*D22
 70
               1
 10
0.0
 20
0.0
 30
0.0
  3
*D22
  1

  0
LINE
  5
181
100
AcDbEntity
  8
寸法
370
              -2
  6
Continuous
 62
               0
100
AcDbLine
 10
2126.3238934521278
 20
2588.5
 30
0.0
 11
2076.0
 21
2588.5
 31
0.0
  0
LINE
  5
182
100
AcDbEntity
  8
寸法
370
              -2
  6
Continuous
 62
               0
100
AcDbLine
 10
2134.3238934521278
 20
2598.5
 30
0.0
 11
2076.0
 21
2598.5
 31
0.0
  0
LINE
  5
183
100
AcDbEntity
  8
寸法
370
              -2
  6
Continuous
 62
               0
100
AcDbLine
 10
2076.0
 20
2598.5
 30
0.0
 11
2076.0
 21
2588.5
 31
0.0
  0
LINE
  5
184
100
AcDbEntity
  8
寸法
370
              -2
  6
Continuous
 62
               0
100
AcDbLine
 10
2076.0
 20
2588.5
 30
0.0
 11
2076.0
 21
2573.5
 31
0.0
  0
SOLID
  5
185
100
AcDbEntity
  8
寸法
370
              -2
 62
               0
100
AcDbTrace
 10
2076.0
 20
2588.5
 30
0.0
 11
2078.0105347851995
 21
2580.99658203125
 31
0.0
 12
2073.9894652148005
 22
2580.99658203125
 32
0.0
 13
2073.9894652148005
 23
2580.99658203125
 33
0.0
  0
LINE
  5
186
100
AcDbEntity
  8
寸法
370
              -2
  6
Continuous
 62
               0
100
AcDbLine
 10
2076.0
 20
2598.5
 30
0.0
 11
2076.0
 21
2613.5
 31
0.0
  0
SOLID
  5
187
100
AcDbEntity
  8
寸法
370
              -2
 62
               0
100
AcDbTrace
 10
2076.0
 20
2598.5
 30
0.0
 11
2073.9894652148005
 21
2606.00341796875
 31
0.0
 12
2078.0105347851995
 22
2606.00341796875
 32
0.0
 13
2078.0105347851995
 23
2606.00341796875
 33
0.0
  0
WIPEOUT
  5
188
100
AcDbEntity
  8
寸法
370
              -2
  6
Continuous
 62
               0
 92
        0
100
AcDbWipeout
 90
        0
 10
2050.8333333333335
 20
1572.9615244929723
 30
0.0
 11
21.166666666666686
 21
0.0
 31
0.0
 12
0.0
 22
21.166666666666686
 32
0.0
 13
1.0
 23
1.0
340
0
 70
               7
280
               1
281
              50
282
              50
283
               0
360
0
 71
               2
 91
        5
 14
0.4999999999999919
 24
-47.427014590883147
 14
0.4999999999999919
 24
-48.427014590883161
 14
-0.5
 24
-48.427014590883161
 14
-0.5
 24
-47.427014590883147
 14
0.4999999999999919
 24
-47.427014590883147
  0
MTEXT
  5
189
100
AcDbEntity
  8
寸法
 62
               0
100
AcDbMText
 10
2052.7482552083334
 20
2587.4166666666665
 30
0.0
 40
16.288411458333332
 41
0.0
 71
               1
 72
               1
  1
10
  7
ＭＳ ゴシック
 11
0.0
 21
1.0
 31
0.0
 73
               1
 44
0.7828267384257843
  0
POINT
  5
18A
100
AcDbEntity
  8
Defpoints
370
               0
 62
               0
100
AcDbPoint
 10
2139.3238934521278
 20
2598.5
 30
0.0
  0
POINT
  5
18B
100
AcDbEntity
  8
Defpoints
370
               0
 62
               0
100
AcDbPoint
 10
2131.3238934521278
 20
2588.5
 30
0.0
  0
POINT
  5
18C
100
AcDbEntity
  8
Defpoints
370
               0
 62
               0
100
AcDbPoint
 10
2076.0
 20
2588.5
 30
0.0
  0
ENDBLK
  5
18D
100
AcDbEntity
  8
寸法
100
AcDbBlockEnd
  0
BLOCK
  5
18E
100
AcDbEntity
  8
寸法
100
AcDbBlockBegin
  2
*D23
 70
               1
 10
0.0
 20
0.0
 30
0.0
  3
*D23
  1

  0
LINE
  5
18F
100
AcDbEntity
  8
寸法
370
              -2
  6
Continuous
 62
               0
100
AcDbLine
 10
1685.0
 20
2328.7909039410551
 30
0.0
 11
1685.0
 21
2358.0
 31
0.0
  0
LINE
  5
190
100
AcDbEntity
  8
寸法
370
              -2
  6
Continuous
 62
               0
100
AcDbLine
 10
1655.0
 20
2319.7909039410551
 30
0.0
 11
1655.0
 21
2358.0
 31
0.0
  0
LINE
  5
191
100
AcDbEntity
  8
寸法
370
              -2
  6
Continuous
 62
               0
100
AcDbLine
 10
1685.0
 20
2358.0
 30
0.0
 11
1655.0
 21
2358.0
 31
0.0
  0
SOLID
  5
192
100
AcDbEntity
  8
寸法
370
              -2
 62
               0
100
AcDbTrace
 10
1685.0
 20
2358.0
 30
0.0
 11
1677.49658203125
 21
2355.9894652148005
 31
0.0
 12
1677.49658203125
 22
2360.0105347851995
 32
0.0
 13
1677.49658203125
 23
2360.0105347851995
 33
0.0
  0
SOLID
  5
193
100
AcDbEntity
  8
寸法
370
              -2
 62
               0
100
AcDbTrace
 10
1655.0
 20
2358.0
 30
0.0
 11
1662.50341796875
 21
2360.0105347851995
 31
0.0
 12
1662.50341796875
 22
2355.9894652148005
 32
0.0
 13
1662.50341796875
 23
2355.9894652148005
 33
0.0
  0
WIPEOUT
  5
194
100
AcDbEntity
  8
寸法
370
              -2
  6
Continuous
 62
               0
 92
        0
100
AcDbWipeout
 90
        0
 10
1659.4166666666667
 20
1347.5448578263056
 30
0.0
 11
21.166666666666686
 21
0.0
 31
0.0
 12
0.0
 22
21.166666666666686
 32
0.0
 13
1.0
 23
1.0
340
0
 70
               7
280
               1
281
              50
282
              50
283
               0
360
0
 71
               2
 91
        5
 14
-0.5
 24
-47.427014590883161
 14
0.4999999999999919
 24
-47.427014590883161
 14
0.4999999999999919
 24
-48.427014590883147
 14
-0.5
 24
-48.427014590883147
 14
-0.5
 24
-47.427014590883161
  0
MTEXT
  5
195
100
AcDbEntity
  8
寸法
 62
               0
100
AcDbMText
 10
1659.4166666666667
 20
2381.2517447916666
 30
0.0
 40
16.288411458333332
 41
0.0
 71
               1
 72
               1
  1
30
  7
ＭＳ ゴシック
 73
               1
 44
0.7828267384257843
  0
POINT
  5
196
100
AcDbEntity
  8
Defpoints
370
               0
 62
               0
100
AcDbPoint
 10
1655.0
 20
2314.7909039410551
 30
0.0
  0
POINT
  5
197
100
AcDbEntity
  8
Defpoints
370
               0
 62
               0
100
AcDbPoint
 10
1685.0
 20
2323.7909039410551
 30
0.0
  0
POINT
  5
198
100
AcDbEntity
  8
Defpoints
370
               0
 62
               0
100
AcDbPoint
 10
1685.0
 20
2358.0
 30
0.0
  0
ENDBLK
  5
199
100
AcDbEntity
  8
寸法
100
AcDbBlockEnd
  0
BLOCK
  5
19A
100
AcDbEntity
  8
寸法
100
AcDbBlockBegin
  2
*D24
 70
               1
 10
0.0
 20
0.0
 30
0.0
  3
*D24
  1

  0
LINE
  5
19B
100
AcDbEntity
  8
寸法
370
              -2
  6
Continuous
 62
               0
100
AcDbLine
 10
1019.9706837635431
 20
2321.790903952231
 30
0.0
 11
1019.9706837635431
 21
2388.0
 31
0.0
  0
LINE
  5
19C
100
AcDbEntity
  8
寸法
370
              -2
  6
Continuous
 62
               0
100
AcDbLine
 10
1105.0
 20
2322.969218917453
 30
0.0
 11
1105.0
 21
2388.0
 31
0.0
  0
LINE
  5
19D
100
AcDbEntity
  8
寸法
370
              -2
  6
Continuous
 62
               0
100
AcDbLine
 10
1019.9706837635431
 20
2388.0
 30
0.0
 11
1105.0
 21
2388.0
 31
0.0
  0
SOLID
  5
19E
100
AcDbEntity
  8
寸法
370
              -2
 62
               0
100
AcDbTrace
 10
1019.9706837635431
 20
2388.0
 30
0.0
 11
1027.4741017322931
 21
2390.0105347851995
 31
0.0
 12
1027.4741017322931
 22
2385.9894652148005
 32
0.0
 13
1027.4741017322931
 23
2385.9894652148005
 33
0.0
  0
SOLID
  5
19F
100
AcDbEntity
  8
寸法
370
              -2
 62
               0
100
AcDbTrace
 10
1105.0
 20
2388.0
 30
0.0
 11
1097.49658203125
 21
2385.9894652148005
 31
0.0
 12
1097.49658203125
 22
2390.0105347851995
 32
0.0
 13
1097.49658203125
 23
2390.0105347851995
 33
0.0
  0
WIPEOUT
  5
1A0
100
AcDbEntity
  8
寸法
370
              -2
  6
Continuous
 62
               0
 92
        0
100
AcDbWipeout
 90
        0
 10
1051.9020085484385
 20
1377.5448578263056
 30
0.0
 11
21.166666666666686
 21
0.0
 31
0.0
 12
0.0
 22
21.166666666666686
 32
0.0
 13
1.0
 23
1.0
340
0
 70
               7
280
               1
281
              50
282
              50
283
               0
360
0
 71
               2
 91
        5
 14
-0.5
 24
-47.427014590883161
 14
0.5000000000000027
 24
-47.427014590883161
 14
0.5000000000000027
 24
-48.427014590883147
 14
-0.5
 24
-48.427014590883147
 14
-0.5
 24
-47.427014590883161
  0
MTEXT
  5
1A1
100
AcDbEntity
  8
寸法
 62
               0
100
AcDbMText
 10
1051.9020085484385
 20
2411.2517447916666
 30
0.0
 40
16.288411458333332
 41
0.0
 71
               1
 72
               1
  1
85
  7
ＭＳ ゴシック
 73
               1
 44
0.7828267384257843
  0
POINT
  5
1A2
100
AcDbEntity
  8
Defpoints
370
               0
 62
               0
100
AcDbPoint
 10
1105.0
 20
2317.969218917453
 30
0.0
  0
POINT
  5
1A3
100
AcDbEntity
  8
Defpoints
370
               0
 62
               0
100
AcDbPoint
 10
1019.9706837635431
 20
2316.790903952231
 30
0.0
  0
POINT
  5
1A4
100
AcDbEntity
  8
Defpoints
370
               0
 62
               0
100
AcDbPoint
 10
1019.9706837635431
 20
2388.0
 30
0.0
  0
ENDBLK
  5
1A5
100
AcDbEntity
  8
寸法
100
AcDbBlockEnd
  0
BLOCK
  5
1A6
100
AcDbEntity
  8
寸法
100
AcDbBlockBegin
  2
*D25
 70
               1
 10
0.0
 20
0.0
 30
0.0
  3
*D25
  1

  0
LINE
  5
1A7
100
AcDbEntity
  8
寸法
370
              -2
  6
Continuous
 62
               0
100
AcDbLine
 10
2131.081252765006
 20
2550.4502789953513
 30
0.0
 11
2100.4664798956751
 21
2519.8355061260186
 31
0.0
  0
LINE
  5
1A8
100
AcDbEntity
  8
寸法
370
              -2
  6
Continuous
 62
               0
100
AcDbLine
 10
2135.3238934521278
 20
2554.6929196824731
 30
0.0
 11
2131.081252765006
 21
2550.4502789953513
 31
0.0
  0
SOLID
  5
1A9
100
AcDbEntity
  8
寸法
370
              -2
 62
               0
100
AcDbTrace
 10
2131.081252765006
 20
2550.4502789953513
 30
0.0
 11
2139.2987574470112
 21
2564.683414616019
 31
0.0
 12
2145.3143883856737
 22
2558.6677836773561
 32
0.0
 13
2145.3143883856737
 23
2558.6677836773561
 33
0.0
  0
WIPEOUT
  5
1AA
100
AcDbEntity
  8
寸法
370
              -2
  6
Continuous
 62
               0
 92
        0
100
AcDbWipeout
 90
        0
 10
2082.6709592358134
 20
1508.2087910770701
 30
0.0
 11
37.417733837788333
 21
0.0
 31
0.0
 12
0.0
 22
37.417733837788333
 32
0.0
 13
1.0
 23
1.0
340
0
 70
               7
280
               1
281
              50
282
              50
283
               0
360
0
 71
               2
 91
        5
 14
-0.0999999999999953
 24
-26.61161361539196
 14
0.4999999999999936
 24
-27.211613615391972
 14
0.0999999999999767
 24
-27.611613615391953
 14
-0.5
 24
-27.011613615391941
 14
-0.0999999999999953
 24
-26.61161361539196
  0
MTEXT
  5
1AB
100
AcDbEntity
  8
寸法
 62
               0
100
AcDbMText
 10
2084.0250134790685
 20
2536.2769725426247
 30
0.0
 40
16.288411458333332
 41
0.0
 71
               1
 72
               1
  1
R 6
  7
ＭＳ ゴシック
 11
0.7071067811865286
 21
0.7071067811865665
 31
0.0
 73
               1
 44
0.7828267384257843
  0
POINT
  5
1AC
100
AcDbEntity
  8
Defpoints
370
               0
 62
               0
100
AcDbPoint
 10
2135.3238934521278
 20
2554.6929196824731
 30
0.0
  0
POINT
  5
1AD
100
AcDbEntity
  8
Defpoints
370
               0
 62
               0
100
AcDbPoint
 10
2131.081252765006
 20
2550.4502789953513
 30
0.0
  0
ENDBLK
  5
1AE
100
AcDbEntity
  8
寸法
100
AcDbBlockEnd
  0
BLOCK
  5
1AF
100
AcDbEntity
  8
寸法
100
AcDbBlockBegin
  2
*D26
 70
               1
 10
0.0
 20
0.0
 30
0.0
  3
*D26
  1

  0
LINE
  5
1B0
100
AcDbEntity
  8
寸法
370
              -2
  6
Continuous
 62
               0
100
AcDbLine
 10
2129.3238934521278
 20
2599.5
 30
0.0
 11
2129.3238934521278
 21
2618.3188888859081
 31
0.0
  0
LINE
  5
1B1
100
AcDbEntity
  8
寸法
370
              -2
  6
Continuous
 62
               0
100
AcDbLine
 10
2131.3238934521278
 20
2593.5
 30
0.0
 11
2131.3238934521278
 21
2618.3188888859081
 31
0.0
  0
LINE
  5
1B2
100
AcDbEntity
  8
寸法
370
              -2
  6
Continuous
 62
               0
100
AcDbLine
 10
2129.3238934521278
 20
2618.3188888859081
 30
0.0
 11
2112.4331614222033
 21
2618.3188888859081
 31
0.0
  0
LINE
  5
1B3
100
AcDbEntity
  8
寸法
370
              -2
  6
Continuous
 62
               0
100
AcDbLine
 10
2129.3238934521278
 20
2618.3188888859081
 30
0.0
 11
2131.3238934521278
 21
2618.3188888859081
 31
0.0
  0
SOLID
  5
1B4
100
AcDbEntity
  8
寸法
370
              -2
 62
               0
100
AcDbTrace
 10
2129.3238934521278
 20
2618.3188888859081
 30
0.0
 11
2136.8273114208778
 21
2620.3294236711076
 31
0.0
 12
2136.8273114208778
 22
2616.3083541007086
 32
0.0
 13
2136.8273114208778
 23
2616.3083541007086
 33
0.0
  0
SOLID
  5
1B5
100
AcDbEntity
  8
寸法
370
              -2
 62
               0
100
AcDbTrace
 10
2131.3238934521278
 20
2618.3188888859081
 30
0.0
 11
2123.8204754833778
 21
2616.3083541007086
 31
0.0
 12
2123.8204754833778
 22
2620.3294236711076
 32
0.0
 13
2123.8204754833778
 23
2620.3294236711076
 33
0.0
  0
WIPEOUT
  5
1B6
100
AcDbEntity
  8
寸法
370
              -2
  6
Continuous
 62
               0
 92
        0
100
AcDbWipeout
 90
        0
 10
2112.4331614222033
 20
1607.8637467122137
 30
0.0
 11
21.166666666666664
 21
0.0
 31
0.0
 12
0.0
 22
21.166666666666664
 32
0.0
 13
1.0
 23
1.0
340
0
 70
               7
280
               1
281
              50
282
              50
283
               0
360
0
 71
               2
 91
        5
 14
-0.5
 24
-47.427014590883203
 14
-0.0000000000000143
 24
-47.427014590883203
 14
-0.0000000000000143
 24
-48.427014590883196
 14
-0.5
 24
-48.427014590883196
 14
-0.5
 24
-47.427014590883203
  0
MTEXT
  5
1B7
100
AcDbEntity
  8
寸法
 62
               0
100
AcDbMText
 10
2112.4331614222033
 20
2641.5706336775747
 30
0.0
 40
16.288411458333332
 41
0.0
 71
               1
 72
               1
  1
2
  7
ＭＳ ゴシック
 73
               1
 44
0.7828267384257843
  0
POINT
  5
1B8
100
AcDbEntity
  8
Defpoints
370
               0
 62
               0
100
AcDbPoint
 10
2131.3238934521278
 20
2588.5
 30
0.0
  0
POINT
  5
1B9
100
AcDbEntity
  8
Defpoints
370
               0
 62
               0
100
AcDbPoint
 10
2129.3238934521278
 20
2594.5
 30
0.0
  0
POINT
  5
1BA
100
AcDbEntity
  8
Defpoints
370
               0
 62
               0
100
AcDbPoint
 10
2129.3238934521278
 20
2618.3188888859081
 30
0.0
  0
ENDBLK
  5
1BB
100
AcDbEntity
  8
寸法
100
AcDbBlockEnd
  0
BLOCK
  5
1BC
100
AcDbEntity
  8
寸法
100
AcDbBlockBegin
  2
*D27
 70
               1
 10
0.0
 20
0.0
 30
0.0
  3
*D27
  1

  0
LINE
  5
1BD
100
AcDbEntity
  8
寸法
370
              -2
  6
Continuous
 62
               0
100
AcDbLine
 10
1675.0
 20
2324.7909039410551
 30
0.0
 11
1633.0
 21
2324.7909039410551
 31
0.0
  0
LINE
  5
1BE
100
AcDbEntity
  8
寸法
370
              -2
  6
Continuous
 62
               0
100
AcDbLine
 10
1680.0
 20
2322.7909039410551
 30
0.0
 11
1633.0
 21
2322.7909039410551
 31
0.0
  0
LINE
  5
1BF
100
AcDbEntity
  8
寸法
370
              -2
  6
Continuous
 62
               0
100
AcDbLine
 10
1633.0
 20
2324.7909039410551
 30
0.0
 11
1633.0
 21
2338.3742372743882
 31
0.0
  0
LINE
  5
1C0
100
AcDbEntity
  8
寸法
370
              -2
  6
Continuous
 62
               0
100
AcDbLine
 10
1633.0
 20
2324.7909039410551
 30
0.0
 11
1633.0
 21
2322.7909039410551
 31
0.0
  0
SOLID
  5
1C1
100
AcDbEntity
  8
寸法
370
              -2
 62
               0
100
AcDbTrace
 10
1633.0
 20
2324.7909039410551
 30
0.0
 11
1635.0105347851998
 21
2317.2874859723051
 31
0.0
 12
1630.9894652148002
 22
2317.2874859723051
 32
0.0
 13
1630.9894652148002
 23
2317.2874859723051
 33
0.0
  0
SOLID
  5
1C2
100
AcDbEntity
  8
寸法
370
              -2
 62
               0
100
AcDbTrace
 10
1633.0
 20
2322.7909039410551
 30
0.0
 11
1630.9894652148002
 21
2330.2943219098051
 31
0.0
 12
1635.0105347851998
 22
2330.2943219098051
 32
0.0
 13
1635.0105347851998
 23
2330.2943219098051
 33
0.0
  0
WIPEOUT
  5
1C3
100
AcDbEntity
  8
寸法
370
              -2
  6
Continuous
 62
               0
 92
        0
100
AcDbWipeout
 90
        0
 10
1607.8333333333333
 20
1313.3357617673605
 30
0.0
 11
21.166666666666664
 21
0.0
 31
0.0
 12
0.0
 22
21.166666666666664
 32
0.0
 13
1.0
 23
1.0
340
0
 70
               7
280
               1
281
              50
282
              50
283
               0
360
0
 71
               2
 91
        5
 14
0.5000000000000038
 24
-47.427014590883218
 14
0.5000000000000038
 24
-47.927014590883203
 14
-0.5
 24
-47.927014590883203
 14
-0.5
 24
-47.427014590883218
 14
0.5000000000000038
 24
-47.427014590883218
  0
MTEXT
  5
1C4
100
AcDbEntity
  8
寸法
 62
               0
100
AcDbMText
 10
1609.7482552083334
 20
2327.7909039410551
 30
0.0
 40
16.288411458333332
 41
0.0
 71
               1
 72
               1
  1
2
  7
ＭＳ ゴシック
 11
0.0
 21
1.0
 31
0.0
 73
               1
 44
0.7828267384257843
  0
POINT
  5
1C5
100
AcDbEntity
  8
Defpoints
370
               0
 62
               0
100
AcDbPoint
 10
1685.0
 20
2322.7909039410551
 30
0.0
  0
POINT
  5
1C6
100
AcDbEntity
  8
Defpoints
370
               0
 62
               0
100
AcDbPoint
 10
1680.0
 20
2324.7909039410551
 30
0.0
  0
POINT
  5
1C7
100
AcDbEntity
  8
Defpoints
370
               0
 62
               0
100
AcDbPoint
 10
1633.0
 20
2324.7909039410551
 30
0.0
  0
ENDBLK
  5
1C8
100
AcDbEntity
  8
寸法
100
AcDbBlockEnd
  0
BLOCK
  5
1C9
100
AcDbEntity
  8
一般
100
AcDbBlockBegin
  2
*U28
 70
               1
 10
0.0
 20
0.0
 30
0.0
  3
*U28
  1

  0
LINE
  5
1CA
100
AcDbEntity
  8
一般
370
               9
  6
STYLE_02
 62
               0
100
AcDbLine
 10
-634.72535699580089
 20
-25.780499169495442
 30
0.0
 11
-598.72535699580101
 21
-25.780499169495442
 31
0.0
  0
LINE
  5
1CB
100
AcDbEntity
  8
一般
370
               9
  6
STYLE_02
 62
               0
100
AcDbLine
 10
-634.72535699580089
 20
-22.780499169495442
 30
0.0
 11
-598.72535699580101
 21
-22.780499169495442
 31
0.0
  0
LINE
  5
1CC
100
AcDbEntity
  8
一般
370
               9
  6
STYLE_02
 62
               0
100
AcDbLine
 10
-598.72535699580101
 20
-22.780499169495442
 30
0.0
 11
-598.72535699580101
 21
-25.780499169495442
 31
0.0
  0
ARC
  5
1CD
100
AcDbEntity
  8
一般
370
               9
  6
STYLE_02
 62
               0
100
AcDbCircle
 10
-634.72535699580089
 20
-22.280499169495442
 30
0.0
 40
0.5
100
AcDbArc
 50
180.0
 51
270.0
  0
ARC
  5
1CE
100
AcDbEntity
  8
一般
370
               9
  6
STYLE_02
 62
               0
100
AcDbCircle
 10
-634.72535699580089
 20
-26.280499169495442
 30
0.0
 40
0.5
100
AcDbArc
 50
90.0
 51
180.0
  0
LINE
  5
1CF
100
AcDbEntity
  8
一般
370
               9
  6
STYLE_02
 62
               0
100
AcDbLine
 10
-591.21980349633554
 20
-25.780499169495442
 30
0.0
 11
-591.21980349633554
 21
-22.780499169495442
 31
0.0
  0
LINE
  5
1D0
100
AcDbEntity
  8
一般
370
               9
  6
STYLE_02
 62
               0
100
AcDbLine
 10
-598.72535699580101
 20
-25.780499169495442
 30
0.0
 11
-591.21980349633554
 21
-25.780499169495442
 31
0.0
  0
LINE
  5
1D1
100
AcDbEntity
  8
一般
370
               9
  6
STYLE_02
 62
               0
100
AcDbLine
 10
-598.72535699580101
 20
-22.780499169495442
 30
0.0
 11
-591.21980349633554
 21
-22.780499169495442
 31
0.0
  0
LINE
  5
1D2
100
AcDbEntity
  8
一般
370
               9
  6
STYLE_02
 62
               0
100
AcDbLine
 10
-634.72535699580089
 20
-33.580499169495397
 30
0.0
 11
-598.72535699580101
 21
-33.580499169495397
 31
0.0
  0
LINE
  5
1D3
100
AcDbEntity
  8
一般
370
               9
  6
STYLE_02
 62
               0
100
AcDbLine
 10
-634.72535699580089
 20
-36.580499169495397
 30
0.0
 11
-598.72535699580101
 21
-36.580499169495397
 31
0.0
  0
LINE
  5
1D4
100
AcDbEntity
  8
一般
370
               9
  6
STYLE_02
 62
               0
100
AcDbLine
 10
-598.72535699580101
 20
-36.580499169495397
 30
0.0
 11
-598.72535699580101
 21
-33.580499169495397
 31
0.0
  0
ARC
  5
1D5
100
AcDbEntity
  8
一般
370
               9
  6
STYLE_02
 62
               0
100
AcDbCircle
 10
-634.72535699580089
 20
-37.080499169495397
 30
0.0
 40
0.5
100
AcDbArc
 50
90.0
 51
180.0
  0
ARC
  5
1D6
100
AcDbEntity
  8
一般
370
               9
  6
STYLE_02
 62
               0
100
AcDbCircle
 10
-634.72535699580089
 20
-33.080499169495397
 30
0.0
 40
0.5
100
AcDbArc
 50
180.0
 51
270.0
  0
LINE
  5
1D7
100
AcDbEntity
  8
一般
370
               9
  6
STYLE_02
 62
               0
100
AcDbLine
 10
-591.21980349633554
 20
-33.580499169495397
 30
0.0
 11
-591.21980349633554
 21
-36.580499169495397
 31
0.0
  0
LINE
  5
1D8
100
AcDbEntity
  8
一般
370
               9
  6
STYLE_02
 62
               0
100
AcDbLine
 10
-598.72535699580101
 20
-33.580499169495397
 30
0.0
 11
-591.21980349633554
 21
-33.580499169495397
 31
0.0
  0
LINE
  5
1D9
100
AcDbEntity
  8
一般
370
               9
  6
STYLE_02
 62
               0
100
AcDbLine
 10
-598.72535699580101
 20
-36.580499169495397
 30
0.0
 11
-591.21980349633554
 21
-36.580499169495397
 31
0.0
  0
LINE
  5
1DA
100
AcDbEntity
  8
一般
370
               9
  6
STYLE_02
 62
               0
100
AcDbLine
 10
-635.22535699580089
 20
-26.280499169495442
 30
0.0
 11
-635.22535699580089
 21
-33.080499169495397
 31
0.0
  0
POINT
  5
1DB
100
AcDbEntity
  8
一般
370
               5
  6
Continuous
 62
               0
100
AcDbPoint
 10
-638.72535699580089
 20
-29.680499169495306
 30
0.0
  0
ENDBLK
  5
1DC
100
AcDbEntity
  8
一般
100
AcDbBlockEnd
  0
BLOCK
  5
1DD
100
AcDbEntity
  8
一般
100
AcDbBlockBegin
  2
*U29
 70
               1
 10
0.0
 20
0.0
 30
0.0
  3
*U29
  1

  0
LINE
  5
1DE
100
AcDbEntity
  8
一般
370
               9
  6
STYLE_02
 62
               0
100
AcDbLine
 10
-634.72535699580089
 20
369.21950083050478
 30
0.0
 11
-598.72535699580101
 21
369.21950083050478
 31
0.0
  0
LINE
  5
1DF
100
AcDbEntity
  8
一般
370
               9
  6
STYLE_02
 62
               0
100
AcDbLine
 10
-634.72535699580089
 20
372.21950083050478
 30
0.0
 11
-598.72535699580101
 21
372.21950083050478
 31
0.0
  0
LINE
  5
1E0
100
AcDbEntity
  8
一般
370
               9
  6
STYLE_02
 62
               0
100
AcDbLine
 10
-598.72535699580101
 20
372.21950083050478
 30
0.0
 11
-598.72535699580101
 21
369.21950083050478
 31
0.0
  0
ARC
  5
1E1
100
AcDbEntity
  8
一般
370
               9
  6
STYLE_02
 62
               0
100
AcDbCircle
 10
-634.72535699580089
 20
372.71950083050478
 30
0.0
 40
0.5
100
AcDbArc
 50
180.0
 51
270.0
  0
ARC
  5
1E2
100
AcDbEntity
  8
一般
370
               9
  6
STYLE_02
 62
               0
100
AcDbCircle
 10
-634.72535699580089
 20
368.71950083050478
 30
0.0
 40
0.5
100
AcDbArc
 50
90.0
 51
180.0
  0
LINE
  5
1E3
100
AcDbEntity
  8
一般
370
               9
  6
STYLE_02
 62
               0
100
AcDbLine
 10
-591.21980349633554
 20
369.21950083050478
 30
0.0
 11
-591.21980349633554
 21
372.21950083050478
 31
0.0
  0
LINE
  5
1E4
100
AcDbEntity
  8
一般
370
               9
  6
STYLE_02
 62
               0
100
AcDbLine
 10
-598.72535699580101
 20
369.21950083050478
 30
0.0
 11
-591.21980349633554
 21
369.21950083050478
 31
0.0
  0
LINE
  5
1E5
100
AcDbEntity
  8
一般
370
               9
  6
STYLE_02
 62
               0
100
AcDbLine
 10
-598.72535699580101
 20
372.21950083050478
 30
0.0
 11
-591.21980349633554
 21
372.21950083050478
 31
0.0
  0
LINE
  5
1E6
100
AcDbEntity
  8
一般
370
               9
  6
STYLE_02
 62
               0
100
AcDbLine
 10
-634.72535699580089
 20
361.4195008305046
 30
0.0
 11
-598.72535699580101
 21
361.4195008305046
 31
0.0
  0
LINE
  5
1E7
100
AcDbEntity
  8
一般
370
               9
  6
STYLE_02
 62
               0
100
AcDbLine
 10
-634.72535699580089
 20
358.4195008305046
 30
0.0
 11
-598.72535699580101
 21
358.4195008305046
 31
0.0
  0
LINE
  5
1E8
100
AcDbEntity
  8
一般
370
               9
  6
STYLE_02
 62
               0
100
AcDbLine
 10
-598.72535699580101
 20
358.4195008305046
 30
0.0
 11
-598.72535699580101
 21
361.4195008305046
 31
0.0
  0
ARC
  5
1E9
100
AcDbEntity
  8
一般
370
               9
  6
STYLE_02
 62
               0
100
AcDbCircle
 10
-634.72535699580089
 20
357.9195008305046
 30
0.0
 40
0.5
100
AcDbArc
 50
90.0
 51
180.0
  0
ARC
  5
1EA
100
AcDbEntity
  8
一般
370
               9
  6
STYLE_02
 62
               0
100
AcDbCircle
 10
-634.72535699580089
 20
361.9195008305046
 30
0.0
 40
0.5
100
AcDbArc
 50
180.0
 51
270.0
  0
LINE
  5
1EB
100
AcDbEntity
  8
一般
370
               9
  6
STYLE_02
 62
               0
100
AcDbLine
 10
-591.21980349633554
 20
361.4195008305046
 30
0.0
 11
-591.21980349633554
 21
358.4195008305046
 31
0.0
  0
LINE
  5
1EC
100
AcDbEntity
  8
一般
370
               9
  6
STYLE_02
 62
               0
100
AcDbLine
 10
-598.72535699580101
 20
361.4195008305046
 30
0.0
 11
-591.21980349633554
 21
361.4195008305046
 31
0.0
  0
LINE
  5
1ED
100
AcDbEntity
  8
一般
370
               9
  6
STYLE_02
 62
               0
100
AcDbLine
 10
-598.72535699580101
 20
358.4195008305046
 30
0.0
 11
-591.21980349633554
 21
358.4195008305046
 31
0.0
  0
LINE
  5
1EE
100
AcDbEntity
  8
一般
370
               9
  6
STYLE_02
 62
               0
100
AcDbLine
 10
-635.22535699580089
 20
368.71950083050478
 30
0.0
 11
-635.22535699580089
 21
361.9195008305046
 31
0.0
  0
POINT
  5
1EF
100
AcDbEntity
  8
一般
370
               5
  6
Continuous
 62
               0
100
AcDbPoint
 10
-638.72535699580089
 20
365.31950083050469
 30
0.0
  0
ENDBLK
  5
1F0
100
AcDbEntity
  8
一般
100
AcDbBlockEnd
  0
BLOCK
  5
1F1
100
AcDbEntity
  8
寸法
100
AcDbBlockBegin
  2
*D30
 70
               1
 10
0.0
 20
0.0
 30
0.0
  3
*D30
  1

  0
LINE
  5
1F2
100
AcDbEntity
  8
寸法
370
              -2
  6
Continuous
 62
               0
100
AcDbLine
 10
-706.72535699580089
 20
365.31950083050469
 30
0.0
 11
-707.72535699580203
 21
365.31950083050469
 31
0.0
  0
LINE
  5
1F3
100
AcDbEntity
  8
寸法
370
              -2
  6
Continuous
 62
               0
100
AcDbLine
 10
-639.72535699580089
 20
425.31950083050469
 30
0.0
 11
-707.72535699580203
 21
425.31950083050469
 31
0.0
  0
LINE
  5
1F4
100
AcDbEntity
  8
寸法
370
              -2
  6
Continuous
 62
               0
100
AcDbLine
 10
-707.72535699580203
 20
365.31950083050469
 30
0.0
 11
-707.72535699580203
 21
425.31950083050469
 31
0.0
  0
SOLID
  5
1F5
100
AcDbEntity
  8
寸法
370
              -2
 62
               0
100
AcDbTrace
 10
-707.72535699580203
 20
365.31950083050469
 30
0.0
 11
-709.73589178100178
 21
372.82291879925469
 31
0.0
 12
-705.71482221060228
 22
372.82291879925469
 32
0.0
 13
-705.71482221060228
 23
372.82291879925469
 33
0.0
  0
SOLID
  5
1F6
100
AcDbEntity
  8
寸法
370
              -2
 62
               0
100
AcDbTrace
 10
-707.72535699580203
 20
425.31950083050469
 30
0.0
 11
-705.71482221060228
 21
417.81608286175469
 31
0.0
 12
-709.73589178100178
 22
417.81608286175469
 32
0.0
 13
-709.73589178100178
 23
417.81608286175469
 33
0.0
  0
WIPEOUT
  5
1F7
100
AcDbEntity
  8
寸法
370
              -2
  6
Continuous
 62
               0
 92
        0
100
AcDbWipeout
 90
        0
 10
-732.89202366246877
 20
384.73616749717138
 30
0.0
 11
21.166666666666686
 21
0.0
 31
0.0
 12
0.0
 22
21.166666666666686
 32
0.0
 13
1.0
 23
1.0
340
0
 70
               7
280
               1
281
              50
282
              50
283
               0
360
0
 71
               2
 91
        5
 14
0.4999999999999973
 24
0.5
 14
0.4999999999999973
 24
-0.5
 14
-0.5
 24
-0.5
 14
-0.5
 24
0.5
 14
0.4999999999999973
 24
0.5
  0
MTEXT
  5
1F8
100
AcDbEntity
  8
寸法
 62
               0
100
AcDbMText
 10
-730.97710178746877
 20
384.73616749717138
 30
0.0
 40
16.288411458333332
 41
0.0
 71
               1
 72
               1
  1
60
  7
ＭＳ ゴシック
 11
0.0
 21
1.0
 31
0.0
 73
               1
 44
0.7828267384257843
  0
POINT
  5
1F9
100
AcDbEntity
  8
Defpoints
370
               0
 62
               0
100
AcDbPoint
 10
-634.72535699580089
 20
425.31950083050469
 30
0.0
  0
POINT
  5
1FA
100
AcDbEntity
  8
Defpoints
370
               0
 62
               0
100
AcDbPoint
 10
-701.72535699580089
 20
365.31950083050469
 30
0.0
  0
POINT
  5
1FB
100
AcDbEntity
  8
Defpoints
370
               0
 62
               0
100
AcDbPoint
 10
-707.72535699580203
 20
365.31950083050469
 30
0.0
  0
ENDBLK
  5
1FC
100
AcDbEntity
  8
寸法
100
AcDbBlockEnd
  0
BLOCK
  5
1FD
100
AcDbEntity
  8
寸法
100
AcDbBlockBegin
  2
*D31
 70
               1
 10
0.0
 20
0.0
 30
0.0
  3
*D31
  1

  0
LINE
  5
1FE
100
AcDbEntity
  8
寸法
370
              -2
  6
Continuous
 62
               0
100
AcDbLine
 10
-706.72535699580089
 20
-29.680499169495306
 30
0.0
 11
-707.72535699580203
 21
-29.680499169495306
 31
0.0
  0
LINE
  5
1FF
100
AcDbEntity
  8
寸法
370
              -2
  6
Continuous
 62
               0
100
AcDbLine
 10
-706.72535699580089
 20
365.31950083050469
 30
0.0
 11
-707.72535699580203
 21
365.31950083050469
 31
0.0
  0
LINE
  5
200
100
AcDbEntity
  8
寸法
370
              -2
  6
Continuous
 62
               0
100
AcDbLine
 10
-707.72535699580203
 20
-29.680499169495306
 30
0.0
 11
-707.72535699580203
 21
365.31950083050469
 31
0.0
  0
SOLID
  5
201
100
AcDbEntity
  8
寸法
370
              -2
 62
               0
100
AcDbTrace
 10
-707.72535699580203
 20
-29.680499169495306
 30
0.0
 11
-709.73589178100178
 21
-22.177081200745306
 31
0.0
 12
-705.71482221060228
 22
-22.177081200745306
 32
0.0
 13
-705.71482221060228
 23
-22.177081200745306
 33
0.0
  0
SOLID
  5
202
100
AcDbEntity
  8
寸法
370
              -2
 62
               0
100
AcDbTrace
 10
-707.72535699580203
 20
365.31950083050469
 30
0.0
 11
-705.71482221060228
 21
357.81608286175469
 31
0.0
 12
-709.73589178100178
 22
357.81608286175469
 32
0.0
 13
-709.73589178100178
 23
357.81608286175469
 33
0.0
  0
WIPEOUT
  5
203
100
AcDbEntity
  8
寸法
370
              -2
  6
Continuous
 62
               0
 92
        0
100
AcDbWipeout
 90
        0
 10
-732.89202366246877
 20
151.94450083050469
 30
0.0
 11
31.75
 21
0.0
 31
0.0
 12
0.0
 22
31.75
 32
0.0
 13
1.0
 23
1.0
340
0
 70
               7
280
               1
281
              50
282
              50
283
               0
360
0
 71
               2
 91
        5
 14
0.1666666666666655
 24
0.5
 14
0.1666666666666655
 24
-0.5
 14
-0.5
 24
-0.5
 14
-0.5
 24
0.5
 14
0.1666666666666655
 24
0.5
  0
MTEXT
  5
204
100
AcDbEntity
  8
寸法
 62
               0
100
AcDbMText
 10
-730.97710178746877
 20
151.94450083050469
 30
0.0
 40
16.288411458333332
 41
0.0
 71
               1
 72
               1
  1
395
  7
ＭＳ ゴシック
 11
0.0
 21
1.0
 31
0.0
 73
               1
 44
0.7828267384257843
  0
POINT
  5
205
100
AcDbEntity
  8
Defpoints
370
               0
 62
               0
100
AcDbPoint
 10
-701.72535699580089
 20
365.31950083050469
 30
0.0
  0
POINT
  5
206
100
AcDbEntity
  8
Defpoints
370
               0
 62
               0
100
AcDbPoint
 10
-701.72535699580089
 20
-29.680499169495306
 30
0.0
  0
POINT
  5
207
100
AcDbEntity
  8
Defpoints
370
               0
 62
               0
100
AcDbPoint
 10
-707.72535699580203
 20
-29.680499169495306
 30
0.0
  0
ENDBLK
  5
208
100
AcDbEntity
  8
寸法
100
AcDbBlockEnd
  0
BLOCK
  5
209
100
AcDbEntity
  8
寸法
100
AcDbBlockBegin
  2
*D32
 70
               1
 10
0.0
 20
0.0
 30
0.0
  3
*D32
  1

  0
LINE
  5
20A
100
AcDbEntity
  8
寸法
370
              -2
  6
Continuous
 62
               0
100
AcDbLine
 10
-638.72535699580089
 20
-124.68049916949531
 30
0.0
 11
-707.72535699580089
 21
-124.68049916949531
 31
0.0
  0
LINE
  5
20B
100
AcDbEntity
  8
寸法
370
              -2
  6
Continuous
 62
               0
100
AcDbLine
 10
-702.72535699580089
 20
-29.680499169495306
 30
0.0
 11
-707.72535699580089
 21
-29.680499169495306
 31
0.0
  0
LINE
  5
20C
100
AcDbEntity
  8
寸法
370
              -2
  6
Continuous
 62
               0
100
AcDbLine
 10
-707.72535699580089
 20
-124.68049916949531
 30
0.0
 11
-707.72535699580089
 21
-29.680499169495306
 31
0.0
  0
SOLID
  5
20D
100
AcDbEntity
  8
寸法
370
              -2
 62
               0
100
AcDbTrace
 10
-707.72535699580089
 20
-124.68049916949531
 30
0.0
 11
-709.73589178100065
 21
-117.17708120074531
 31
0.0
 12
-705.71482221060114
 22
-117.17708120074531
 32
0.0
 13
-705.71482221060114
 23
-117.17708120074531
 33
0.0
  0
SOLID
  5
20E
100
AcDbEntity
  8
寸法
370
              -2
 62
               0
100
AcDbTrace
 10
-707.72535699580089
 20
-29.680499169495306
 30
0.0
 11
-705.71482221060114
 21
-37.183917138245306
 31
0.0
 12
-709.73589178100065
 22
-37.183917138245306
 32
0.0
 13
-709.73589178100065
 23
-37.183917138245306
 33
0.0
  0
WIPEOUT
  5
20F
100
AcDbEntity
  8
寸法
370
              -2
  6
Continuous
 62
               0
 92
        0
100
AcDbWipeout
 90
        0
 10
-732.89202366246764
 20
-87.763832502828635
 30
0.0
 11
21.166666666666671
 21
0.0
 31
0.0
 12
0.0
 22
21.166666666666671
 32
0.0
 13
1.0
 23
1.0
340
0
 70
               7
280
               1
281
              50
282
              50
283
               0
360
0
 71
               2
 91
        5
 14
0.499999999999998
 24
0.5
 14
0.499999999999998
 24
-0.5
 14
-0.5
 24
-0.5
 14
-0.5
 24
0.5
 14
0.499999999999998
 24
0.5
  0
MTEXT
  5
210
100
AcDbEntity
  8
寸法
 62
               0
100
AcDbMText
 10
-730.97710178746763
 20
-87.763832502828635
 30
0.0
 40
16.288411458333332
 41
0.0
 71
               1
 72
               1
  1
95
  7
ＭＳ ゴシック
 11
0.0
 21
1.0
 31
0.0
 73
               1
 44
0.7828267384257843
  0
POINT
  5
211
100
AcDbEntity
  8
Defpoints
370
               0
 62
               0
100
AcDbPoint
 10
-697.72535699580089
 20
-29.680499169495306
 30
0.0
  0
POINT
  5
212
100
AcDbEntity
  8
Defpoints
370
               0
 62
               0
100
AcDbPoint
 10
-633.72535699580089
 20
-124.68049916949531
 30
0.0
  0
POINT
  5
213
100
AcDbEntity
  8
Defpoints
370
               0
 62
               0
100
AcDbPoint
 10
-707.72535699580089
 20
-124.68049916949531
 30
0.0
  0
ENDBLK
  5
214
100
AcDbEntity
  8
寸法
100
AcDbBlockEnd
  0
BLOCK
  5
215
100
AcDbEntity
  8
一般
100
AcDbBlockBegin
  2
*U33
 70
               1
 10
0.0
 20
0.0
 30
0.0
  3
*U33
  1

  0
LINE
  5
216
100
AcDbEntity
  8
一般
370
               9
  6
STYLE_02
 62
               0
100
AcDbLine
 10
107.27464300419933
 20
-25.780499169495442
 30
0.0
 11
71.274643004199334
 21
-25.780499169495442
 31
0.0
  0
LINE
  5
217
100
AcDbEntity
  8
一般
370
               9
  6
STYLE_02
 62
               0
100
AcDbLine
 10
107.27464300419933
 20
-22.780499169495442
 30
0.0
 11
71.274643004199334
 21
-22.780499169495442
 31
0.0
  0
LINE
  5
218
100
AcDbEntity
  8
一般
370
               9
  6
STYLE_02
 62
               0
100
AcDbLine
 10
71.274643004199334
 20
-22.780499169495442
 30
0.0
 11
71.274643004199334
 21
-25.780499169495442
 31
0.0
  0
ARC
  5
219
100
AcDbEntity
  8
一般
370
               9
  6
STYLE_02
 62
               0
100
AcDbCircle
 10
107.27464300419933
 20
-22.280499169495442
 30
0.0
 40
0.5
100
AcDbArc
 50
270.0
 51
0.0
  0
ARC
  5
21A
100
AcDbEntity
  8
一般
370
               9
  6
STYLE_02
 62
               0
100
AcDbCircle
 10
107.27464300419933
 20
-26.280499169495442
 30
0.0
 40
0.5
100
AcDbArc
 50
0.0
 51
90.0
  0
LINE
  5
21B
100
AcDbEntity
  8
一般
370
               9
  6
STYLE_02
 62
               0
100
AcDbLine
 10
63.769089504733984
 20
-25.780499169495442
 30
0.0
 11
63.769089504733984
 21
-22.780499169495442
 31
0.0
  0
LINE
  5
21C
100
AcDbEntity
  8
一般
370
               9
  6
STYLE_02
 62
               0
100
AcDbLine
 10
71.274643004199334
 20
-25.780499169495442
 30
0.0
 11
63.769089504733984
 21
-25.780499169495442
 31
0.0
  0
LINE
  5
21D
100
AcDbEntity
  8
一般
370
               9
  6
STYLE_02
 62
               0
100
AcDbLine
 10
71.274643004199334
 20
-22.780499169495442
 30
0.0
 11
63.769089504733984
 21
-22.780499169495442
 31
0.0
  0
LINE
  5
21E
100
AcDbEntity
  8
一般
370
               9
  6
STYLE_02
 62
               0
100
AcDbLine
 10
107.27464300419933
 20
-33.580499169495397
 30
0.0
 11
71.274643004199334
 21
-33.580499169495397
 31
0.0
  0
LINE
  5
21F
100
AcDbEntity
  8
一般
370
               9
  6
STYLE_02
 62
               0
100
AcDbLine
 10
107.27464300419933
 20
-36.580499169495397
 30
0.0
 11
71.274643004199334
 21
-36.580499169495397
 31
0.0
  0
LINE
  5
220
100
AcDbEntity
  8
一般
370
               9
  6
STYLE_02
 62
               0
100
AcDbLine
 10
71.274643004199334
 20
-36.580499169495397
 30
0.0
 11
71.274643004199334
 21
-33.580499169495397
 31
0.0
  0
ARC
  5
221
100
AcDbEntity
  8
一般
370
               9
  6
STYLE_02
 62
               0
100
AcDbCircle
 10
107.27464300419933
 20
-37.080499169495397
 30
0.0
 40
0.5
100
AcDbArc
 50
0.0
 51
90.0
  0
ARC
  5
222
100
AcDbEntity
  8
一般
370
               9
  6
STYLE_02
 62
               0
100
AcDbCircle
 10
107.27464300419933
 20
-33.080499169495397
 30
0.0
 40
0.5
100
AcDbArc
 50
270.0
 51
0.0
  0
LINE
  5
223
100
AcDbEntity
  8
一般
370
               9
  6
STYLE_02
 62
               0
100
AcDbLine
 10
63.769089504733984
 20
-33.580499169495397
 30
0.0
 11
63.769089504733984
 21
-36.580499169495397
 31
0.0
  0
LINE
  5
224
100
AcDbEntity
  8
一般
370
               9
  6
STYLE_02
 62
               0
100
AcDbLine
 10
71.274643004199334
 20
-33.580499169495397
 30
0.0
 11
63.769089504733984
 21
-33.580499169495397
 31
0.0
  0
LINE
  5
225
100
AcDbEntity
  8
一般
370
               9
  6
STYLE_02
 62
               0
100
AcDbLine
 10
71.274643004199334
 20
-36.580499169495397
 30
0.0
 11
63.769089504733984
 21
-36.580499169495397
 31
0.0
  0
LINE
  5
226
100
AcDbEntity
  8
一般
370
               9
  6
STYLE_02
 62
               0
100
AcDbLine
 10
107.77464300419933
 20
-26.280499169495442
 30
0.0
 11
107.77464300419933
 21
-33.080499169495397
 31
0.0
  0
POINT
  5
227
100
AcDbEntity
  8
一般
370
               5
  6
Continuous
 62
               0
100
AcDbPoint
 10
111.27464300419933
 20
-29.680499169495306
 30
0.0
  0
ENDBLK
  5
228
100
AcDbEntity
  8
一般
100
AcDbBlockEnd
  0
BLOCK
  5
229
100
AcDbEntity
  8
一般
100
AcDbBlockBegin
  2
*U34
 70
               1
 10
0.0
 20
0.0
 30
0.0
  3
*U34
  1

  0
LINE
  5
22A
100
AcDbEntity
  8
一般
370
               9
  6
STYLE_02
 62
               0
100
AcDbLine
 10
107.27464300419933
 20
369.21950083050478
 30
0.0
 11
71.274643004199334
 21
369.21950083050478
 31
0.0
  0
LINE
  5
22B
100
AcDbEntity
  8
一般
370
               9
  6
STYLE_02
 62
               0
100
AcDbLine
 10
107.27464300419933
 20
372.21950083050478
 30
0.0
 11
71.274643004199334
 21
372.21950083050478
 31
0.0
  0
LINE
  5
22C
100
AcDbEntity
  8
一般
370
               9
  6
STYLE_02
 62
               0
100
AcDbLine
 10
71.274643004199334
 20
372.21950083050478
 30
0.0
 11
71.274643004199334
 21
369.21950083050478
 31
0.0
  0
ARC
  5
22D
100
AcDbEntity
  8
一般
370
               9
  6
STYLE_02
 62
               0
100
AcDbCircle
 10
107.27464300419933
 20
372.71950083050478
 30
0.0
 40
0.5
100
AcDbArc
 50
270.0
 51
0.0
  0
ARC
  5
22E
100
AcDbEntity
  8
一般
370
               9
  6
STYLE_02
 62
               0
100
AcDbCircle
 10
107.27464300419933
 20
368.71950083050478
 30
0.0
 40
0.5
100
AcDbArc
 50
0.0
 51
90.0
  0
LINE
  5
22F
100
AcDbEntity
  8
一般
370
               9
  6
STYLE_02
 62
               0
100
AcDbLine
 10
63.769089504733984
 20
369.21950083050478
 30
0.0
 11
63.769089504733984
 21
372.21950083050478
 31
0.0
  0
LINE
  5
230
100
AcDbEntity
  8
一般
370
               9
  6
STYLE_02
 62
               0
100
AcDbLine
 10
71.274643004199334
 20
369.21950083050478
 30
0.0
 11
63.769089504733984
 21
369.21950083050478
 31
0.0
  0
LINE
  5
231
100
AcDbEntity
  8
一般
370
               9
  6
STYLE_02
 62
               0
100
AcDbLine
 10
71.274643004199334
 20
372.21950083050478
 30
0.0
 11
63.769089504733984
 21
372.21950083050478
 31
0.0
  0
LINE
  5
232
100
AcDbEntity
  8
一般
370
               9
  6
STYLE_02
 62
               0
100
AcDbLine
 10
107.27464300419933
 20
361.4195008305046
 30
0.0
 11
71.274643004199334
 21
361.4195008305046
 31
0.0
  0
LINE
  5
233
100
AcDbEntity
  8
一般
370
               9
  6
STYLE_02
 62
               0
100
AcDbLine
 10
107.27464300419933
 20
358.4195008305046
 30
0.0
 11
71.274643004199334
 21
358.4195008305046
 31
0.0
  0
LINE
  5
234
100
AcDbEntity
  8
一般
370
               9
  6
STYLE_02
 62
               0
100
AcDbLine
 10
71.274643004199334
 20
358.4195008305046
 30
0.0
 11
71.274643004199334
 21
361.4195008305046
 31
0.0
  0
ARC
  5
235
100
AcDbEntity
  8
一般
370
               9
  6
STYLE_02
 62
               0
100
AcDbCircle
 10
107.27464300419933
 20
357.9195008305046
 30
0.0
 40
0.5
100
AcDbArc
 50
0.0
 51
90.0
  0
ARC
  5
236
100
AcDbEntity
  8
一般
370
               9
  6
STYLE_02
 62
               0
100
AcDbCircle
 10
107.27464300419933
 20
361.9195008305046
 30
0.0
 40
0.5
100
AcDbArc
 50
270.0
 51
0.0
  0
LINE
  5
237
100
AcDbEntity
  8
一般
370
               9
  6
STYLE_02
 62
               0
100
AcDbLine
 10
63.769089504733984
 20
361.4195008305046
 30
0.0
 11
63.769089504733984
 21
358.4195008305046
 31
0.0
  0
LINE
  5
238
100
AcDbEntity
  8
一般
370
               9
  6
STYLE_02
 62
               0
100
AcDbLine
 10
71.274643004199334
 20
361.4195008305046
 30
0.0
 11
63.769089504733984
 21
361.4195008305046
 31
0.0
  0
LINE
  5
239
100
AcDbEntity
  8
一般
370
               9
  6
STYLE_02
 62
               0
100
AcDbLine
 10
71.274643004199334
 20
358.4195008305046
 30
0.0
 11
63.769089504733984
 21
358.4195008305046
 31
0.0
  0
LINE
  5
23A
100
AcDbEntity
  8
一般
370
               9
  6
STYLE_02
 62
               0
100
AcDbLine
 10
107.77464300419933
 20
368.71950083050478
 30
0.0
 11
107.77464300419933
 21
361.9195008305046
 31
0.0
  0
POINT
  5
23B
100
AcDbEntity
  8
一般
370
               5
  6
Continuous
 62
               0
100
AcDbPoint
 10
111.27464300419933
 20
365.31950083050469
 30
0.0
  0
ENDBLK
  5
23C
100
AcDbEntity
  8
一般
100
AcDbBlockEnd
  0
BLOCK
  5
23D
100
AcDbEntity
  8
一般
100
AcDbBlockBegin
  2
*U35
 70
               1
 10
0.0
 20
0.0
 30
0.0
  3
*U35
  1

  0
LINE
  5
23E
100
AcDbEntity
  8
一般
370
               9
  6
STYLE_11
 62
               0
100
AcDbLine
 10
-579.40609587617155
 20
-29.680499169495306
 30
0.0
 11
-701.72535699580089
 21
-29.680499169495306
 31
0.0
  0
LINE
  5
23F
100
AcDbEntity
  8
1
370
               9
  6
STYLE_02
 62
               0
100
AcDbLine
 10
-635.22535699580089
 20
-33.080499169495397
 30
0.0
 11
-635.22535699580089
 21
-26.280499169495442
 31
0.0
  0
LINE
  5
240
100
AcDbEntity
  8
1
370
               9
  6
STYLE_02
 62
               0
100
AcDbLine
 10
-635.22535699580089
 20
-21.680499169495306
 30
0.0
 11
-635.22535699580089
 21
421.81950083050469
 31
0.0
  0
LINE
  5
241
100
AcDbEntity
  8
1
370
               9
  6
STYLE_02
 62
               0
100
AcDbLine
 10
-635.22535699580089
 20
-121.18049916949531
 30
0.0
 11
107.77464300419933
 21
-121.18049916949531
 31
0.0
  0
LINE
  5
242
100
AcDbEntity
  8
1
370
               9
  6
STYLE_02
 62
               0
100
AcDbLine
 10
-635.22535699580089
 20
421.81950083050469
 30
0.0
 11
107.77464300419933
 21
421.81950083050469
 31
0.0
  0
INSERT
  5
243
100
AcDbEntity
  8
一般
 62
               0
100
AcDbBlockReference
  2
*U28
 10
0.0
 20
0.0
 30
0.0
  0
LINE
  5
244
100
AcDbEntity
  8
一般
370
               9
  6
STYLE_11
 62
               0
100
AcDbLine
 10
-579.40609587617155
 20
365.31950083050469
 30
0.0
 11
-701.72535699580089
 21
365.31950083050469
 31
0.0
  0
LINE
  5
245
100
AcDbEntity
  8
1
370
               9
  6
STYLE_02
 62
               0
100
AcDbLine
 10
-635.22535699580089
 20
361.9195008305046
 30
0.0
 11
-635.22535699580089
 21
368.71950083050478
 31
0.0
  0
INSERT
  5
246
100
AcDbEntity
  8
一般
 62
               0
100
AcDbBlockReference
  2
*U29
 10
0.0
 20
0.0
 30
0.0
  0
DIMENSION
  5
247
100
AcDbEntity
  8
寸法
370
               9
  6
Continuous
 62
               0
100
AcDbDimension
  2
*D30
 10
-707.72535699580203
 20
365.31950083050469
 30
0.0
 11
-707.72535699580203
 21
395.31950083050469
 31
0.0
 71
               5
 72
               1
 41
1.0
 42
0.0
  3
Ekitchen
100
AcDbAlignedDimension
 13
-634.72535699580089
 23
425.31950083050469
 33
0.0
 14
-701.72535699580089
 24
365.31950083050469
 34
0.0
 50
90.0
100
AcDbRotatedDimension
1001
ACAD
1000
DSTYLE
1002
{
1070
             271
1070
               1
1070
             279
1070
               2
1070
             340
1005
4A
1070
             140
1040
16.288411458333332
1070
             147
1040
4.0
1002
}
  0
DIMENSION
  5
248
100
AcDbEntity
  8
寸法
370
               9
  6
Continuous
 62
               0
100
AcDbDimension
  2
*D31
 10
-707.72535699580203
 20
-29.680499169495306
 30
0.0
 11
-707.72535699580203
 21
167.81950083050469
 31
0.0
 71
               5
 72
               1
 41
1.0
 42
0.0
  3
Ekitchen
100
AcDbAlignedDimension
 13
-701.72535699580089
 23
365.31950083050469
 33
0.0
 14
-701.72535699580089
 24
-29.680499169495306
 34
0.0
 50
90.0
100
AcDbRotatedDimension
1001
ACAD
1000
DSTYLE
1002
{
1070
             271
1070
               1
1070
             279
1070
               2
1070
             340
1005
4A
1070
             140
1040
16.288411458333332
1070
             147
1040
4.0
1002
}
  0
DIMENSION
  5
249
100
AcDbEntity
  8
寸法
370
               9
  6
Continuous
 62
               0
100
AcDbDimension
  2
*D32
 10
-707.72535699580089
 20
-124.68049916949531
 30
0.0
 11
-707.72535699580089
 21
-77.180499169495306
 31
0.0
 71
               5
 72
               1
 41
1.0
 42
0.0
  3
Ekitchen
100
AcDbAlignedDimension
 13
-697.72535699580089
 23
-29.680499169495306
 33
0.0
 14
-633.72535699580089
 24
-124.68049916949531
 34
0.0
 50
90.0
100
AcDbRotatedDimension
1001
ACAD
1000
DSTYLE
1002
{
1070
             271
1070
               1
1070
             279
1070
               2
1070
             340
1005
4A
1070
             140
1040
16.288411458333332
1070
             147
1040
4.0
1002
}
  0
LINE
  5
24A
100
AcDbEntity
  8
一般
370
               9
  6
STYLE_02
 62
               0
100
AcDbLine
 10
-635.22535699580089
 20
-37.080499169495397
 30
0.0
 11
-635.22535699580089
 21
-121.18049916949531
 31
0.0
  0
LINE
  5
24B
100
AcDbEntity
  8
1
370
               9
  6
STYLE_02
 62
               0
100
AcDbLine
 10
107.77464300419933
 20
-33.080499169495397
 30
0.0
 11
107.77464300419933
 21
-26.280499169495442
 31
0.0
  0
LINE
  5
24C
100
AcDbEntity
  8
1
370
               9
  6
STYLE_02
 62
               0
100
AcDbLine
 10
107.77464300419933
 20
-21.680499169495306
 30
0.0
 11
107.77464300419933
 21
421.81950083050469
 31
0.0
  0
INSERT
  5
24D
100
AcDbEntity
  8
一般
 62
               0
100
AcDbBlockReference
  2
*U33
 10
0.0
 20
0.0
 30
0.0
  0
LINE
  5
24E
100
AcDbEntity
  8
1
370
               9
  6
STYLE_02
 62
               0
100
AcDbLine
 10
107.77464300419933
 20
361.9195008305046
 30
0.0
 11
107.77464300419933
 21
368.71950083050478
 31
0.0
  0
INSERT
  5
24F
100
AcDbEntity
  8
一般
 62
               0
100
AcDbBlockReference
  2
*U34
 10
0.0
 20
0.0
 30
0.0
  0
LINE
  5
250
100
AcDbEntity
  8
一般
370
               9
  6
STYLE_02
 62
               0
100
AcDbLine
 10
107.77464300419933
 20
-37.080499169495397
 30
0.0
 11
107.77464300419933
 21
-121.18049916949531
 31
0.0
  0
ENDBLK
  5
251
100
AcDbEntity
  8
一般
100
AcDbBlockEnd
  0
BLOCK
  5
252
100
AcDbEntity
  8
寸法
100
AcDbBlockBegin
  2
*D36
 70
               1
 10
0.0
 20
0.0
 30
0.0
  3
*D36
  1

  0
LINE
  5
253
100
AcDbEntity
  8
寸法
370
              -2
  6
Continuous
 62
               0
100
AcDbLine
 10
1775.0
 20
2307.7909039410551
 30
0.0
 11
1803.0
 21
2307.7909039410551
 31
0.0
  0
LINE
  5
254
100
AcDbEntity
  8
寸法
370
              -2
  6
Continuous
 62
               0
100
AcDbLine
 10
1771.0
 20
2324.7909039410551
 30
0.0
 11
1803.0
 21
2324.7909039410551
 31
0.0
  0
LINE
  5
255
100
AcDbEntity
  8
寸法
370
              -2
  6
Continuous
 62
               0
100
AcDbLine
 10
1803.0
 20
2307.7909039410551
 30
0.0
 11
1803.0
 21
2324.7909039410551
 31
0.0
  0
SOLID
  5
256
100
AcDbEntity
  8
寸法
370
              -2
 62
               0
100
AcDbTrace
 10
1803.0
 20
2307.7909039410551
 30
0.0
 11
1800.9894652148002
 21
2315.2943219098051
 31
0.0
 12
1805.0105347851998
 22
2315.2943219098051
 32
0.0
 13
1805.0105347851998
 23
2315.2943219098051
 33
0.0
  0
SOLID
  5
257
100
AcDbEntity
  8
寸法
370
              -2
 62
               0
100
AcDbTrace
 10
1803.0
 20
2324.7909039410551
 30
0.0
 11
1805.0105347851998
 21
2317.2874859723051
 31
0.0
 12
1800.9894652148002
 22
2317.2874859723051
 32
0.0
 13
1800.9894652148002
 23
2317.2874859723051
 33
0.0
  0
WIPEOUT
  5
258
100
AcDbEntity
  8
寸法
370
              -2
  6
Continuous
 62
               0
 92
        0
100
AcDbWipeout
 90
        0
 10
1777.8333333333333
 20
1291.2524284340273
 30
0.0
 11
21.166666666666686
 21
0.0
 31
0.0
 12
0.0
 22
21.166666666666686
 32
0.0
 13
1.0
 23
1.0
340
0
 70
               7
280
               1
281
              50
282
              50
283
               0
360
0
 71
               2
 91
        5
 14
0.5000000000000027
 24
-47.427014590883161
 14
0.5000000000000027
 24
-48.427014590883147
 14
-0.5
 24
-48.427014590883147
 14
-0.5
 24
-47.427014590883161
 14
0.5000000000000027
 24
-47.427014590883161
  0
MTEXT
  5
259
100
AcDbEntity
  8
寸法
 62
               0
100
AcDbMText
 10
1779.7482552083334
 20
2305.7075706077217
 30
0.0
 40
16.288411458333332
 41
0.0
 71
               1
 72
               1
  1
17
  7
ＭＳ ゴシック
 11
0.0
 21
1.0
 31
0.0
 73
               1
 44
0.7828267384257843
  0
POINT
  5
25A
100
AcDbEntity
  8
Defpoints
370
               0
 62
               0
100
AcDbPoint
 10
1766.0
 20
2324.7909039410551
 30
0.0
  0
POINT
  5
25B
100
AcDbEntity
  8
Defpoints
370
               0
 62
               0
100
AcDbPoint
 10
1770.0
 20
2307.7909039410551
 30
0.0
  0
POINT
  5
25C
100
AcDbEntity
  8
Defpoints
370
               0
 62
               0
100
AcDbPoint
 10
1803.0
 20
2307.7909039410551
 30
0.0
  0
ENDBLK
  5
25D
100
AcDbEntity
  8
寸法
100
AcDbBlockEnd
  0
BLOCK
  5
25E
100
AcDbEntity
  8
寸法
100
AcDbBlockBegin
  2
*D37
 70
               1
 10
0.0
 20
0.0
 30
0.0
  3
*D37
  1

  0
LINE
  5
25F
100
AcDbEntity
  8
寸法
370
              -2
  6
Continuous
 62
               0
100
AcDbLine
 10
1395.0
 20
2350.7909039410551
 30
0.0
 11
1395.0
 21
2345.7909039410551
 31
0.0
  0
LINE
  5
260
100
AcDbEntity
  8
寸法
370
              -2
  6
Continuous
 62
               0
100
AcDbLine
 10
1255.0
 20
2350.7909039410551
 30
0.0
 11
1255.0
 21
2345.7909039410551
 31
0.0
  0
LINE
  5
261
100
AcDbEntity
  8
寸法
370
              -2
  6
Continuous
 62
               0
100
AcDbLine
 10
1395.0
 20
2345.7909039410551
 30
0.0
 11
1255.0
 21
2345.7909039410551
 31
0.0
  0
SOLID
  5
262
100
AcDbEntity
  8
寸法
370
              -2
 62
               0
100
AcDbTrace
 10
1395.0
 20
2345.7909039410551
 30
0.0
 11
1387.49658203125
 21
2343.7803691558552
 31
0.0
 12
1387.49658203125
 22
2347.8014387262547
 32
0.0
 13
1387.49658203125
 23
2347.8014387262547
 33
0.0
  0
SOLID
  5
263
100
AcDbEntity
  8
寸法
370
              -2
 62
               0
100
AcDbTrace
 10
1255.0
 20
2345.7909039410551
 30
0.0
 11
1262.50341796875
 21
2347.8014387262547
 31
0.0
 12
1262.50341796875
 22
2343.7803691558552
 32
0.0
 13
1262.50341796875
 23
2343.7803691558552
 33
0.0
  0
WIPEOUT
  5
264
100
AcDbEntity
  8
寸法
370
              -2
  6
Continuous
 62
               0
 92
        0
100
AcDbWipeout
 90
        0
 10
1309.125
 20
1335.3357617673605
 30
0.0
 11
31.75
 21
0.0
 31
0.0
 12
0.0
 22
31.75
 32
0.0
 13
1.0
 23
1.0
340
0
 70
               7
280
               1
281
              50
282
              50
283
               0
360
0
 71
               2
 91
        5
 14
-0.5
 24
-31.451343060588808
 14
0.5
 24
-31.451343060588808
 14
0.5
 24
-32.118009727255469
 14
-0.5
 24
-32.118009727255469
 14
-0.5
 24
-31.451343060588808
  0
MTEXT
  5
265
100
AcDbEntity
  8
寸法
 62
               0
100
AcDbMText
 10
1309.125
 20
2369.0426487327218
 30
0.0
 40
16.288411458333332
 41
0.0
 71
               1
 72
               1
  1
140
  7
ＭＳ ゴシック
 73
               1
 44
0.7828267384257843
  0
POINT
  5
266
100
AcDbEntity
  8
Defpoints
370
               0
 62
               0
100
AcDbPoint
 10
1255.0
 20
2345.7909039410551
 30
0.0
  0
POINT
  5
267
100
AcDbEntity
  8
Defpoints
370
               0
 62
               0
100
AcDbPoint
 10
1395.0
 20
2345.7909039410551
 30
0.0
  0
POINT
  5
268
100
AcDbEntity
  8
Defpoints
370
               0
 62
               0
100
AcDbPoint
 10
1395.0
 20
2345.7909039410551
 30
0.0
  0
ENDBLK
  5
269
100
AcDbEntity
  8
寸法
100
AcDbBlockEnd
  0
BLOCK
  5
26A
100
AcDbEntity
  8
寸法
100
AcDbBlockBegin
  2
*D38
 70
               1
 10
0.0
 20
0.0
 30
0.0
  3
*D38
  1

  0
LINE
  5
26B
100
AcDbEntity
  8
寸法
370
              -2
  6
Continuous
 62
               0
100
AcDbLine
 10
1282.0
 20
2284.7909039410551
 30
0.0
 11
1304.0
 21
2284.7909039410551
 31
0.0
  0
LINE
  5
26C
100
AcDbEntity
  8
寸法
370
              -2
  6
Continuous
 62
               0
100
AcDbLine
 10
1291.0
 20
2314.7909039410551
 30
0.0
 11
1304.0
 21
2314.7909039410551
 31
0.0
  0
LINE
  5
26D
100
AcDbEntity
  8
寸法
370
              -2
  6
Continuous
 62
               0
100
AcDbLine
 10
1304.0
 20
2284.7909039410551
 30
0.0
 11
1304.0
 21
2314.7909039410551
 31
0.0
  0
SOLID
  5
26E
100
AcDbEntity
  8
寸法
370
              -2
 62
               0
100
AcDbTrace
 10
1304.0
 20
2284.7909039410551
 30
0.0
 11
1301.9894652148002
 21
2292.2943219098051
 31
0.0
 12
1306.0105347851998
 22
2292.2943219098051
 32
0.0
 13
1306.0105347851998
 23
2292.2943219098051
 33
0.0
  0
SOLID
  5
26F
100
AcDbEntity
  8
寸法
370
              -2
 62
               0
100
AcDbTrace
 10
1304.0
 20
2314.7909039410551
 30
0.0
 11
1306.0105347851998
 21
2307.2874859723051
 31
0.0
 12
1301.9894652148002
 22
2307.2874859723051
 32
0.0
 13
1301.9894652148002
 23
2307.2874859723051
 33
0.0
  0
WIPEOUT
  5
270
100
AcDbEntity
  8
寸法
370
              -2
  6
Continuous
 62
               0
 92
        0
100
AcDbWipeout
 90
        0
 10
1278.8333333333335
 20
1274.7524284340273
 30
0.0
 11
21.166666666666686
 21
0.0
 31
0.0
 12
0.0
 22
21.166666666666686
 32
0.0
 13
1.0
 23
1.0
340
0
 70
               7
280
               1
281
              50
282
              50
283
               0
360
0
 71
               2
 91
        5
 14
0.4999999999999919
 24
-47.427014590883161
 14
0.4999999999999919
 24
-48.427014590883147
 14
-0.5
 24
-48.427014590883147
 14
-0.5
 24
-47.427014590883161
 14
0.4999999999999919
 24
-47.427014590883161
  0
MTEXT
  5
271
100
AcDbEntity
  8
寸法
 62
               0
100
AcDbMText
 10
1280.7482552083334
 20
2289.2075706077217
 30
0.0
 40
16.288411458333332
 41
0.0
 71
               1
 72
               1
  1
30
  7
ＭＳ ゴシック
 11
0.0
 21
1.0
 31
0.0
 73
               1
 44
0.7828267384257843
  0
POINT
  5
272
100
AcDbEntity
  8
Defpoints
370
               0
 62
               0
100
AcDbPoint
 10
1286.0
 20
2314.7909039410551
 30
0.0
  0
POINT
  5
273
100
AcDbEntity
  8
Defpoints
370
               0
 62
               0
100
AcDbPoint
 10
1277.0
 20
2284.7909039410551
 30
0.0
  0
POINT
  5
274
100
AcDbEntity
  8
Defpoints
370
               0
 62
               0
100
AcDbPoint
 10
1304.0
 20
2284.7909039410551
 30
0.0
  0
ENDBLK
  5
275
100
AcDbEntity
  8
寸法
100
AcDbBlockEnd
  0
ENDSEC
  0
SECTION
  2
ENTITIES
  0
POLYLINE
  5
276
100
AcDbEntity
  8
ﾀｲﾄﾙ枠
100
AcDb2dPolyline
 66
               1
 10
0.0
 20
0.0
 30
0.0
 70
               1
 75
               5
  0
VERTEX
  5
277
100
AcDbEntity
  8
ﾀｲﾄﾙ枠
100
AcDbVertex
100
AcDb2dVertex
 10
2630.7253569958011
 20
1981.0182769442929
 30
0.0
  0
VERTEX
  5
278
100
AcDbEntity
  8
ﾀｲﾄﾙ枠
100
AcDbVertex
100
AcDb2dVertex
 10
700.72535699580089
 20
1981.0182769442929
 30
0.0
  0
VERTEX
  5
279
100
AcDbEntity
  8
ﾀｲﾄﾙ枠
100
AcDbVertex
100
AcDb2dVertex
 10
700.72535699580089
 20
3381.0182769442927
 30
0.0
  0
VERTEX
  5
27A
100
AcDbEntity
  8
ﾀｲﾄﾙ枠
100
AcDbVertex
100
AcDb2dVertex
 10
2630.7253569958011
 20
3381.0182769442927
 30
0.0
  0
SEQEND
  5
27B
100
AcDbEntity
  8
ﾀｲﾄﾙ枠
  0
LINE
  5
27C
100
AcDbEntity
  8
ﾀｲﾄﾙ枠
100
AcDbLine
 10
2205.7253569958011
 20
2101.0182769442927
 30
0.0
 11
2630.7253569958011
 21
2101.0182769442927
 31
0.0
  0
POLYLINE
  5
27D
100
AcDbEntity
  8
ﾀｲﾄﾙ枠
100
AcDb2dPolyline
 66
               1
 10
0.0
 20
0.0
 30
0.0
 70
               1
 75
               5
  0
VERTEX
  5
27E
100
AcDbEntity
  8
ﾀｲﾄﾙ枠
100
AcDbVertex
100
AcDb2dVertex
 10
2630.7253569958011
 20
1981.0182769442929
 30
0.0
  0
VERTEX
  5
27F
100
AcDbEntity
  8
ﾀｲﾄﾙ枠
100
AcDbVertex
100
AcDb2dVertex
 10
2205.7253569958011
 20
1981.0182769442929
 30
0.0
  0
VERTEX
  5
280
100
AcDbEntity
  8
ﾀｲﾄﾙ枠
100
AcDbVertex
100
AcDb2dVertex
 10
2205.7253569958011
 20
2101.0182769442927
 30
0.0
  0
VERTEX
  5
281
100
AcDbEntity
  8
ﾀｲﾄﾙ枠
100
AcDbVertex
100
AcDb2dVertex
 10
2630.7253569958011
 20
2101.0182769442927
 30
0.0
  0
SEQEND
  5
282
100
AcDbEntity
  8
ﾀｲﾄﾙ枠
  0
LINE
  5
283
100
AcDbEntity
  8
ﾀｲﾄﾙ枠
100
AcDbLine
 10
2205.7253569958011
 20
2041.0182769442929
 30
0.0
 11
2630.7253569958011
 21
2041.0182769442929
 31
0.0
  0
MTEXT
  5
284
100
AcDbEntity
  8
ﾀｲﾄﾙ枠
100
AcDbMText
 10
2213.2253569958011
 20
2094.2619134553702
 30
0.0
 40
15.585611979166666
 41
0.0
 71
               1
 72
               1
  1
製品名
  7
メイリオ
 73
               1
 44
1.2271899268160174
  0
LINE
  5
285
100
AcDbEntity
  8
ﾀｲﾄﾙ枠
100
AcDbLine
 10
2515.7253569958011
 20
2041.0182769442929
 30
0.0
 11
2515.7253569958011
 21
2101.0182769442927
 31
0.0
  0
LINE
  5
286
100
AcDbEntity
  8
ﾀｲﾄﾙ枠
100
AcDbLine
 10
2490.7253569958011
 20
2041.0182769442929
 30
0.0
 11
2490.7253569958011
 21
2101.0182769442927
 31
0.0
  0
MTEXT
  5
287
100
AcDbEntity
  8
ﾀｲﾄﾙ枠
100
AcDbMText
 10
2503.2253569958011
 20
2093.3279625191917
 30
0.0
 40
15.585611979166666
 41
0.0
 71
               2
 72
               1
  1
縮
  7
メイリオ
 73
               1
 44
1.2271899268160174
  0
MTEXT
  5
288
100
AcDbEntity
  8
ﾀｲﾄﾙ枠
100
AcDbMText
 10
2503.2253569958011
 20
2065.8279625191917
 30
0.0
 40
15.585611979166666
 41
0.0
 71
               2
 72
               1
  1
尺
  7
メイリオ
 73
               1
 44
1.2271899268160174
  0
MTEXT
  5
289
100
AcDbEntity
  8
0
100
AcDbMText
 10
2571.4423404561007
 20
2078.7351187116528
 30
0.0
 40
18.183213975694446
 41
0.0
 71
               2
 72
               1
  1
1/5
  7
メイリオ
 73
               1
 44
1.2271899268160174
  0
MTEXT
  5
28A
100
AcDbEntity
  8
0
100
AcDbMText
 10
2285.1823756457557
 20
2021.5574132615843
 30
0.0
 40
23.37841796875
 41
0.0
 71
               2
 72
               1
  1
E:kitchen
  7
メイリオ
 73
               1
 44
1.2271899268160174
  0
MTEXT
  5
28B
100
AcDbEntity
  8
0
100
AcDbMText
 10
2591.5692058584946
 20
2017.142867757892
 30
0.0
 40
18.183213975694446
 41
0.0
 71
               2
 72
               1
  1
YS
  7
メイリオ
 73
               1
 44
1.2271899268160174
  0
DIMENSION
  5
28C
100
AcDbEntity
  8
寸法
370
               9
  6
Continuous
100
AcDbDimension
  2
*D2
 10
809.92982756479591
 20
5977.360007751864
 30
0.0
 11
805.96580395032993
 21
5921.5637185323521
 31
0.0
 70
             133
 71
               5
 72
               1
 41
1.0
 42
0.0
  3
Ekitchen
100
AcDb3PointAngularDimension
 13
695.01699432771773
 23
-619.0
 33
0.0
 14
809.70280315900936
 24
-631.0
 34
0.0
 15
809.70280315900936
 25
5951.3455875463369
 35
0.0
1001
ACAD
1000
DSTYLE
1002
{
1070
             279
1070
               2
1070
             342
1005
86
1070
             340
1005
4A
1070
               3
1000
<> 
1070
             174
1070
               0
1070
             147
1040
4.0
1002
}
  0
LINE
  5
28D
100
AcDbEntity
  8
1
370
              25
  6
Continuous
100
AcDbLine
 10
1685.0
 20
3073.5
 30
0.0
 11
1685.0
 21
2713.8089788031548
 31
0.0
  0
LINE
  5
28E
100
AcDbEntity
  8
1
370
              25
  6
Continuous
100
AcDbLine
 10
1765.0
 20
2548.5
 30
0.0
 11
1025.0
 21
2548.5
 31
0.0
  0
LINE
  5
28F
100
AcDbEntity
  8
1
370
              25
  6
Continuous
100
AcDbLine
 10
1635.0
 20
2988.5
 30
0.0
 11
1155.0
 21
2988.5
 31
0.0
  0
LINE
  5
290
100
AcDbEntity
  8
1
370
               9
  6
STYLE_11
100
AcDbLine
 10
1395.0
 20
3124.4111111081311
 30
0.0
 11
1395.0
 21
2524.5
 31
0.0
  0
LINE
  5
291
100
AcDbEntity
  8
1
370
               9
  6
STYLE_11
100
AcDbLine
 10
1451.0
 20
2918.5
 30
0.0
 11
1325.0
 21
2918.5
 31
0.0
  0
CIRCLE
  5
292
100
AcDbEntity
  8
1
370
               9
  6
Continuous
100
AcDbCircle
 10
1395.0
 20
2918.5
 30
0.0
 40
25.0
  0
CIRCLE
  5
293
100
AcDbEntity
  8
1
370
               9
  6
Continuous
100
AcDbCircle
 10
1395.0
 20
2918.5
 30
0.0
 40
20.0
  0
DIMENSION
  5
294
100
AcDbEntity
  8
寸法
370
               9
  6
Continuous
100
AcDbDimension
  2
*D3
 10
1685.0
 20
2390.0
 30
0.0
 11
1387.4717465590111
 21
2394.0
 31
0.0
 70
             128
 71
               5
 72
               1
 41
1.0
 42
0.0
  3
Ekitchen
100
AcDbAlignedDimension
 13
1105.0
 23
2319.7909039559563
 33
0.0
 14
1685.0
 24
2319.7909039559563
 34
0.0
100
AcDbRotatedDimension
1001
ACAD
1000
DSTYLE
1002
{
1070
             279
1070
               2
1070
             340
1005
4A
1070
             140
1040
16.288411458333332
1070
             147
1040
4.0
1002
}
  0
LINE
  5
295
100
AcDbEntity
  8
1
370
              25
  6
Continuous
100
AcDbLine
 10
1767.0
 20
3098.5
 30
0.0
 11
1023.0
 21
3098.5
 31
0.0
  0
LINE
  5
296
100
AcDbEntity
  8
1
370
              25
  6
Continuous
100
AcDbLine
 10
1020.0
 20
2553.5
 30
0.0
 11
1020.0
 21
3095.5
 31
0.0
  0
DIMENSION
  5
297
100
AcDbEntity
  8
寸法
370
               9
  6
Continuous
100
AcDbDimension
  2
*D4
 10
1770.0
 20
3184.0
 30
0.0
 11
1395.0
 21
3184.0
 31
0.0
 71
               5
 72
               1
 41
1.0
 42
0.0
  3
Ekitchen
100
AcDbAlignedDimension
 13
1020.0
 23
3098.5
 33
0.0
 14
1770.0
 24
3098.5
 34
0.0
100
AcDbRotatedDimension
1001
ACAD
1000
DSTYLE
1002
{
1070
             279
1070
               2
1070
             340
1005
4A
1070
             140
1040
16.288411458333332
1070
             147
1040
4.0
1002
}
  0
POINT
  5
298
100
AcDbEntity
  8
一般
370
               5
  6
Continuous
100
AcDbPoint
 10
1395.0
 20
2548.5
 30
0.0
  0
DIMENSION
  5
299
100
AcDbEntity
  8
寸法
370
               9
  6
Continuous
100
AcDbDimension
  2
*D5
 10
1373.388088542589
 20
2324.7909039410551
 30
0.0
 11
1369.388088542589
 21
2257.6504039410552
 31
0.0
 70
             128
 71
               5
 72
               1
 41
1.0
 42
0.0
  3
Ekitchen
100
AcDbAlignedDimension
 13
1394.999999999998
 23
2184.7909039410551
 33
0.0
 14
1744.9999999999991
 24
2324.7909039410551
 34
0.0
 50
90.0
100
AcDbRotatedDimension
1001
ACAD
1000
DSTYLE
1002
{
1070
             271
1070
               1
1070
             279
1070
               2
1070
             340
1005
4A
1070
             140
1040
16.288411458333332
1070
             147
1040
4.0
1002
}
  0
LINE
  5
29A
100
AcDbEntity
  8
2
370
               9
  6
STYLE_11
100
AcDbLine
 10
1395.0
 20
2354.7909039410551
 30
0.0
 11
1395.0
 21
2132.7909039410542
 31
0.0
  0
DIMENSION
  5
29B
100
AcDbEntity
  8
寸法
370
               9
  6
Continuous
100
AcDbDimension
  2
*D6
 10
2031.3238934521289
 20
2988.4999999999991
 30
0.0
 11
2027.3238934521289
 21
3035.25
 31
0.0
 70
             128
 71
               5
 72
               1
 41
1.0
 42
0.0
  3
Ekitchen
100
AcDbAlignedDimension
 13
2125.3238934670298
 23
3073.4999999999991
 33
0.0
 14
2129.3238934521278
 24
2988.4999999999991
 34
0.0
 50
90.0
100
AcDbRotatedDimension
1001
ACAD
1000
DSTYLE
1002
{
1070
             279
1070
               2
1070
             340
1005
4A
1070
             140
1040
16.288411458333332
1070
             147
1040
4.0
1002
}
  0
DIMENSION
  5
29C
100
AcDbEntity
  8
寸法
370
               9
  6
Continuous
100
AcDbDimension
  2
*D7
 10
2129.3238934521278
 20
2897.9058154649783
 30
0.0
 11
2199.1548875714498
 21
2901.9058154649783
 31
0.0
 70
             128
 71
               5
 72
               1
 41
1.0
 42
0.0
  3
Ekitchen
100
AcDbAlignedDimension
 13
2269.3238934521296
 23
2911.5
 33
0.0
 14
2129.3238934521278
 24
2851.337628370999
 34
0.0
100
AcDbRotatedDimension
1001
ACAD
1000
DSTYLE
1002
{
1070
             279
1070
               2
1070
             340
1005
4A
1070
             140
1040
16.288411458333332
1070
             147
1040
4.0
1002
}
  0
DIMENSION
  5
29D
100
AcDbEntity
  8
寸法
370
               9
  6
Continuous
100
AcDbDimension
  2
*D8
 10
2031.3238934521289
 20
2588.5
 30
0.0
 11
2031.3238934521289
 21
2568.5
 31
0.0
 71
               5
 72
               1
 41
1.0
 42
0.0
  3
Ekitchen
100
AcDbAlignedDimension
 13
2129.3238934521278
 23
2548.5
 33
0.0
 14
2131.3238934521278
 24
2588.5
 34
0.0
 50
90.0
100
AcDbRotatedDimension
1001
ACAD
1000
DSTYLE
1002
{
1070
             279
1070
               2
1070
             340
1005
4A
1070
             140
1040
16.288411458333332
1070
             147
1040
4.0
1002
}
  0
DIMENSION
  5
29E
100
AcDbEntity
  8
寸法
370
               9
  6
Continuous
100
AcDbDimension
  2
*D9
 10
2343.1428157228311
 20
2918.5
 30
0.0
 11
2347.1428157228311
 21
2987.5449987888333
 31
0.0
 70
             128
 71
               5
 72
               1
 41
1.0
 42
0.0
  3
Ekitchen
100
AcDbAlignedDimension
 13
2146.3238934521278
 23
3098.5
 33
0.0
 14
2321.3238934521305
 24
2918.5
 34
0.0
 50
90.0
100
AcDbRotatedDimension
1001
ACAD
1000
DSTYLE
1002
{
1070
             279
1070
               2
1070
             340
1005
4A
1070
             140
1040
16.288411458333332
1070
             147
1040
4.0
1002
}
  0
DIMENSION
  5
29F
100
AcDbEntity
  8
寸法
370
               9
  6
Continuous
100
AcDbDimension
  2
*D10
 10
2031.3238934521289
 20
2588.5
 30
0.0
 11
2027.3238934521289
 21
2790.5111515608169
 31
0.0
 70
             128
 71
               5
 72
               1
 41
1.0
 42
0.0
  3
Ekitchen
100
AcDbAlignedDimension
 13
2115.7090960589449
 23
2988.4999999999991
 33
0.0
 14
2131.3238934521278
 24
2588.5
 34
0.0
 50
90.0
100
AcDbRotatedDimension
1001
ACAD
1000
DSTYLE
1002
{
1070
             279
1070
               2
1070
             340
1005
4A
1070
             140
1040
16.288411458333332
1070
             147
1040
4.0
1002
}
  0
DIMENSION
  5
2A0
100
AcDbEntity
  8
寸法
370
               9
  6
Continuous
100
AcDbDimension
  2
*D11
 10
898.0
 20
2548.5
 30
0.0
 11
898.0
 21
2823.5
 31
0.0
 71
               5
 72
               1
 41
1.0
 42
0.0
  3
Ekitchen
100
AcDbAlignedDimension
 13
1023.0
 23
3098.5
 33
0.0
 14
1029.6147973931829
 24
2548.5
 34
0.0
 50
90.0
100
AcDbRotatedDimension
1001
ACAD
1000
DSTYLE
1002
{
1070
             279
1070
               2
1070
             340
1005
4A
1070
             140
1040
16.288411458333332
1070
             147
1040
4.0
1002
}
  0
DIMENSION
  5
2A1
100
AcDbEntity
  8
寸法
370
               9
  6
Continuous
100
AcDbDimension
  2
*D12
 10
2031.3238934521289
 20
3098.5
 30
0.0
 11
2027.3238934521289
 21
3086.0
 31
0.0
 70
             128
 71
               5
 72
               1
 41
1.0
 42
0.0
  3
Ekitchen
100
AcDbAlignedDimension
 13
2129.3238934521278
 23
3073.4999999999991
 33
0.0
 14
2129.3238934521278
 24
3098.5
 34
0.0
 50
90.0
100
AcDbRotatedDimension
1001
ACAD
1000
DSTYLE
1002
{
1070
             279
1070
               2
1070
             340
1005
4A
1070
             140
1040
16.288411458333332
1070
             147
1040
4.0
1002
}
  0
DIMENSION
  5
2A2
100
AcDbEntity
  8
寸法
370
               9
  6
Continuous
100
AcDbDimension
  2
*D13
 10
2129.3238934521278
 20
3015.4999999999991
 30
0.0
 11
2128.1057856791981
 21
3019.4999999999991
 31
0.0
 70
             128
 71
               5
 72
               1
 41
1.0
 42
0.0
  3
Ekitchen
100
AcDbAlignedDimension
 13
2139.3238934521278
 23
3058.4999999999991
 33
0.0
 14
2129.3238934521278
 24
3030.5794900168094
 34
0.0
100
AcDbRotatedDimension
1001
ACAD
1000
DSTYLE
1002
{
1070
             279
1070
               2
1070
             340
1005
4A
1070
             140
1040
16.288411458333332
1070
             174
1070
               0
1070
             147
1040
4.0
1002
}
  0
DIMENSION
  5
2A3
100
AcDbEntity
  8
寸法
370
               9
  6
Continuous
100
AcDbDimension
  2
*D14
 10
2129.3238934521278
 20
2517.5
 30
0.0
 11
2145.5454138355626
 21
2521.5
 31
0.0
 70
             128
 71
               5
 72
               1
 41
1.0
 42
0.0
  3
Ekitchen
100
AcDbAlignedDimension
 13
2146.3238934521278
 23
2548.5
 33
0.0
 14
2129.3238934521278
 24
2550.5
 34
0.0
100
AcDbRotatedDimension
1001
ACAD
1000
DSTYLE
1002
{
1070
             279
1070
               2
1070
             340
1005
4A
1070
             140
1040
16.288411458333332
1070
             174
1070
               0
1070
             147
1040
4.0
1002
}
  0
LINE
  5
2A4
100
AcDbEntity
  8
寸法
370
               9
  6
Continuous
100
AcDbLine
 10
1395.0
 20
3114.5
 30
0.0
 11
1371.5
 21
3114.5
 31
0.0
  0
LWPOLYLINE
  5
2A5
100
AcDbEntity
  8
寸法
370
               9
  6
Continuous
100
AcDbPolyline
 90
        3
 70
             128
 10
1384.2
 20
3111.0970452561251
 10
1371.5
 20
3114.5
 10
1384.2
 20
3117.9029547438749
  0
MTEXT
  5
2A6
100
AcDbEntity
  8
寸法
100
AcDbMText
 10
1400.3610181452559
 20
3122.2601429868155
 30
0.0
 40
16.288411458333332
 41
0.0
 71
               1
 72
               1
  1
A
  7
ＭＳ ゴシック
 73
               1
 44
0.7859706209094218
  0
MTEXT
  5
2A7
100
AcDbEntity
  8
一般
100
AcDbMText
 10
1991.041778350612
 20
3172.8887671157804
 30
0.0
 40
19.003146701388893
 41
0.0
 71
               1
 72
               1
  1
Sec  A - A
  7
ＭＳ ゴシック
 73
               1
 44
0.6736891036366471
  0
LINE
  5
2A8
100
AcDbEntity
  8
寸法
370
               9
  6
Continuous
100
AcDbLine
 10
1395.0
 20
2524.5
 30
0.0
 11
1371.5
 21
2524.5
 31
0.0
  0
LWPOLYLINE
  5
2A9
100
AcDbEntity
  8
寸法
370
               9
  6
Continuous
100
AcDbPolyline
 90
        3
 70
             128
 10
1384.2
 20
2521.0970452561251
 10
1371.5
 20
2524.5
 10
1384.2
 20
2527.9029547438749
  0
MTEXT
  5
2AA
100
AcDbEntity
  8
寸法
100
AcDbMText
 10
1400.3610181452559
 20
2532.2601429868155
 30
0.0
 40
16.288411458333332
 41
0.0
 71
               1
 72
               1
  1
A
  7
ＭＳ ゴシック
 73
               1
 44
0.7859706209094218
  0
INSERT
  5
2AB
100
AcDbEntity
  8
一般
100
AcDbBlockReference
  2
グループ-2-2
 10
728.9342475683161
 20
885.50555554512493
 30
0.0
  0
LINE
  5
2AC
100
AcDbEntity
  8
寸法
370
               9
  6
Continuous
100
AcDbLine
 10
1430.5510000093129
 20
2324.7909039410551
 30
0.0
 11
1342.2103939657561
 21
2324.7909039410551
 31
0.0
  0
DIMENSION
  5
2AD
100
AcDbEntity
  8
寸法
370
               9
  6
Continuous
100
AcDbDimension
  2
*D16
 10
1993.142815722829
 20
2988.4999999999991
 30
0.0
 11
1989.142815722829
 21
3044.6393497194581
 31
0.0
 70
             128
 71
               5
 72
               1
 41
1.0
 42
0.0
  3
Ekitchen
100
AcDbAlignedDimension
 13
2123.2333545967917
 23
3098.5
 33
0.0
 14
2129.3238934521278
 24
2988.4999999999991
 34
0.0
 50
90.0
100
AcDbRotatedDimension
1001
ACAD
1000
DSTYLE
1002
{
1070
             279
1070
               2
1070
             340
1005
4A
1070
             140
1040
16.288411458333332
1070
             147
1040
4.0
1002
}
  0
DIMENSION
  5
2AE
100
AcDbEntity
  8
寸法
370
               9
  6
Continuous
100
AcDbDimension
  2
*D17
 10
1993.142815722829
 20
2988.4999999999991
 30
0.0
 11
1989.142815722829
 21
2547.0103577247223
 31
0.0
 70
             128
 71
               5
 72
               1
 41
1.0
 42
0.0
  3
Ekitchen
100
AcDbAlignedDimension
 13
2129.3238934521278
 23
2548.5
 33
0.0
 14
2129.3238934521278
 24
2988.4999999999991
 34
0.0
 50
90.0
100
AcDbRotatedDimension
1001
ACAD
1000
DSTYLE
1002
{
1070
             279
1070
               2
1070
             340
1005
4A
1070
             140
1040
16.288411458333332
1070
             174
1070
               0
1070
             147
1040
4.0
1002
}
  0
LINE
  5
2AF
100
AcDbEntity
  8
1
370
              25
  6
Continuous
100
AcDbLine
 10
1770.0
 20
3073.5
 30
0.0
 11
1020.0
 21
3073.5
 31
0.0
  0
LINE
  5
2B0
100
AcDbEntity
  8
1
370
              25
  6
Continuous
100
AcDbLine
 10
1770.0
 20
2553.5
 30
0.0
 11
1770.0
 21
3095.5
 31
0.0
  0
LINE
  5
2B1
100
AcDbEntity
  8
1
370
              25
  6
Continuous
100
AcDbLine
 10
1655.0
 20
3073.5
 30
0.0
 11
1655.0
 21
2714.8089788031548
 31
0.0
  0
DIMENSION
  5
2B2
100
AcDbEntity
  8
寸法
370
               9
  6
Continuous
100
AcDbDimension
  2
*D18
 10
2343.1428157228311
 20
2918.5
 30
0.0
 11
2343.1428157228311
 21
2733.5
 31
0.0
 71
               5
 72
               1
 41
1.0
 42
0.0
  3
Ekitchen
100
AcDbAlignedDimension
 13
2146.3238934521278
 23
2548.5
 33
0.0
 14
2326.3238934335041
 24
2918.5
 34
0.0
 50
90.0
100
AcDbRotatedDimension
1001
ACAD
1000
DSTYLE
1002
{
1070
             271
1070
               1
1070
             279
1070
               2
1070
             340
1005
4A
1070
             140
1040
16.288411458333332
1070
             147
1040
4.0
1002
}
  0
DIMENSION
  5
2B3
100
AcDbEntity
  8
寸法
370
               9
  6
Continuous
100
AcDbDimension
  2
*D19
 10
1770.0293162364569
 20
2390.0
 30
0.0
 11
1727.514658118228
 21
2394.0
 31
0.0
 70
             128
 71
               5
 72
               1
 41
1.0
 42
0.0
  3
Ekitchen
100
AcDbAlignedDimension
 13
1685.0
 23
2317.969218917453
 33
0.0
 14
1770.0293162364569
 24
2316.790903952231
 34
0.0
100
AcDbRotatedDimension
1001
ACAD
1000
DSTYLE
1002
{
1070
             271
1070
               1
1070
             279
1070
               2
1070
             340
1005
4A
1070
             140
1040
16.288411458333332
1070
             147
1040
4.0
1002
}
  0
ARC
  5
2B4
100
AcDbEntity
  8
一般
370
              25
  6
Continuous
100
AcDbCircle
 10
1395.0
 20
3098.5
 30
0.0
 40
500.00000000000011
100
AcDbArc
 50
246.54695991276458
 51
293.45304008723537
  0
ARC
  5
2B5
100
AcDbEntity
  8
1
370
              25
  6
Continuous
100
AcDbCircle
 10
1635.0
 20
2968.5
 30
0.0
 40
20.0
100
AcDbArc
 50
0.0
 51
90.0
  0
LINE
  5
2B6
100
AcDbEntity
  8
1
370
              25
  6
Continuous
100
AcDbLine
 10
1135.0
 20
3073.5
 30
0.0
 11
1135.0
 21
2714.8089788031548
 31
0.0
  0
ARC
  5
2B7
100
AcDbEntity
  8
1
370
              25
  6
Continuous
100
AcDbCircle
 10
1155.0
 20
2968.5
 30
0.0
 40
20.0
100
AcDbArc
 50
90.0
 51
180.0
  0
ARC
  5
2B8
100
AcDbEntity
  8
一般
370
              25
  6
Continuous
100
AcDbCircle
 10
1195.5
 20
2708.5
 30
0.0
 40
59.999999999999766
100
AcDbArc
 50
189.50853068628629
 51
233.75087593534809
  0
ARC
  5
2B9
100
AcDbEntity
  8
一般
370
              25
  6
Continuous
100
AcDbCircle
 10
1395.0
 20
3188.5
 30
0.0
 40
600.0
100
AcDbArc
 50
250.05163897618269
 51
289.94836102381737
  0
LINE
  5
2BA
100
AcDbEntity
  8
1
370
              25
  6
Continuous
100
AcDbLine
 10
1105.0
 20
3073.5
 30
0.0
 11
1105.0
 21
2713.8089788031548
 31
0.0
  0
ARC
  5
2BB
100
AcDbEntity
  8
一般
370
              25
  6
Continuous
100
AcDbCircle
 10
1175.5
 20
2708.5
 30
0.0
 40
69.999999521429302
100
AcDbArc
 50
189.87092716475544
 51
238.98161315385687
  0
LWPOLYLINE
  5
2BC
100
AcDbEntity
  8
一般
370
              25
  6
Continuous
100
AcDbPolyline
 90
        9
 70
             128
 10
1195.9993954113841
 20
2639.8022122964571
 10
1191.280392896979
 20
2641.9236996423924
 10
1186.6178471496301
 20
2644.1665461471271
 10
1182.014878542326
 20
2646.5292508028351
 10
1177.474567576515
 20
2649.0102323875431
 10
1172.999952820496
 20
2651.6078305233491
 10
1168.5940288758841
 20
2654.320306787617
 10
1164.259744373496
 20
2657.1458458764073
 10
1160.0
 20
2660.0825568193491
  0
LWPOLYLINE
  5
2BD
100
AcDbEntity
  8
一般
370
              25
  6
Continuous
100
AcDbPolyline
 90
        9
 70
             128
 10
1136.324316440644
 20
2698.588329183186
 10
1136.014455795653
 20
2700.6011626947839
 10
1135.7456495275139
 20
2702.6198889156803
 10
1135.518009123959
 20
2704.6436705766782
 10
1135.331628999126
 20
2706.671668311832
 10
1135.1865864544029
 20
2708.7030410065754
 10
1135.082941646365
 20
2710.7369461465678
 10
1135.020737561824
 20
2712.7725401671401
 10
1135.0
 20
2714.8089788031548
  0
LWPOLYLINE
  5
2BE
100
AcDbEntity
  8
一般
370
              25
  6
Continuous
100
AcDbPolyline
 90
        9
 70
             128
 10
1106.510199754709
 20
2696.4954220442833
 10
1106.15693101337
 20
2698.6416549355654
 10
1105.850426059003
 20
2700.795063661325
 10
1105.590829902608
 20
2702.9546294192533
 10
1105.3782653620981
 20
2705.1193304940771
 10
1105.212833004189
 20
2707.2881427409511
 10
1105.094611096823
 20
2709.460040069981
 10
1105.023655572136
 20
2711.6339949316889
 10
1105.0
 20
2713.8089788031548
  0
LWPOLYLINE
  5
2BF
100
AcDbEntity
  8
一般
370
              25
  6
Continuous
100
AcDbPolyline
 90
        9
 70
             128
 10
1190.2962544956549
 20
2624.5
 10
1183.702724690633
 20
2626.9716077216563
 10
1177.1690203648429
 20
2629.5972862630288
 10
1170.698741116041
 20
2632.3755890654584
 10
1164.2954515993581
 20
2635.3049854853712
 10
1157.962679563436
 20
2638.3838616375579
 10
1151.7039139068941
 20
2641.6105212843081
 10
1145.522602756198
 20
2644.9831867699058
 10
1139.422151565991
 20
2648.5
  0
ARC
  5
2C0
100
AcDbEntity
  8
一般
370
              25
  6
Continuous
100
AcDbCircle
 10
1594.5
 20
2708.5
 30
0.0
 40
59.999999999999858
100
AcDbArc
 50
306.24912406465188
 51
350.49146931371359
  0
ARC
  5
2C1
100
AcDbEntity
  8
一般
370
              25
  6
Continuous
100
AcDbCircle
 10
1614.5
 20
2708.5
 30
0.0
 40
69.999999521429316
100
AcDbArc
 50
301.01838684614313
 51
350.12907283524459
  0
LWPOLYLINE
  5
2C2
100
AcDbEntity
  8
一般
370
              25
  6
Continuous
100
AcDbPolyline
 90
        9
 70
             128
 10
1630.0
 20
2660.0825568193491
 10
1625.740255626504
 20
2657.1458458764073
 10
1621.4059711241159
 20
2654.320306787617
 10
1617.000047179504
 20
2651.6078305233491
 10
1612.525432423485
 20
2649.0102323875431
 10
1607.9851214576729
 20
2646.5292508028351
 10
1603.3821528503699
 20
2644.1665461471271
 10
1598.719607103021
 20
2641.9236996423924
 10
1594.0006045886159
 20
2639.8022122964571
  0
LWPOLYLINE
  5
2C3
100
AcDbEntity
  8
一般
370
              25
  6
Continuous
100
AcDbPolyline
 90
        9
 70
             128
 10
1655.0
 20
2714.8089788031548
 10
1654.979262438176
 20
2712.7725401671401
 10
1654.917058353635
 20
2710.7369461465678
 10
1654.8134135455971
 20
2708.7030410065754
 10
1654.668371000874
 20
2706.671668311832
 10
1654.481990876041
 20
2704.6436705766782
 10
1654.2543504724861
 20
2702.6198889156803
 10
1653.985544204347
 20
2700.6011626947839
 10
1653.675683559356
 20
2698.588329183186
  0
LWPOLYLINE
  5
2C4
100
AcDbEntity
  8
一般
370
              25
  6
Continuous
100
AcDbPolyline
 90
        9
 70
             128
 10
1685.0
 20
2713.8089788031548
 10
1684.976344427864
 20
2711.6339949316889
 10
1684.905388903177
 20
2709.460040069981
 10
1684.787166995811
 20
2707.2881427409511
 10
1684.6217346379019
 20
2705.1193304940771
 10
1684.409170097392
 20
2702.9546294192533
 10
1684.149573940997
 20
2700.795063661325
 10
1683.84306898663
 20
2698.6416549355654
 10
1683.489800245291
 20
2696.4954220442833
  0
LWPOLYLINE
  5
2C5
100
AcDbEntity
  8
一般
370
              25
  6
Continuous
100
AcDbPolyline
 90
        9
 70
             128
 10
1650.577848434009
 20
2648.5
 10
1644.477397243802
 20
2644.9831867699058
 10
1638.2960860931059
 20
2641.6105212843067
 10
1632.037320436564
 20
2638.3838616375579
 10
1625.7045484006419
 20
2635.3049854853712
 10
1619.301258883959
 20
2632.3755890654584
 10
1612.8309796351559
 20
2629.5972862630288
 10
1606.297275309367
 20
2626.9716077216563
 10
1599.7037455043451
 20
2624.5
  0
ARC
  5
2C6
100
AcDbEntity
  8
1
370
              25
  6
Continuous
100
AcDbCircle
 10
1765.0
 20
2553.5
 30
0.0
 40
5.0
100
AcDbArc
 50
270.0
 51
0.0
  0
ARC
  5
2C7
100
AcDbEntity
  8
1
370
              25
  6
Continuous
100
AcDbCircle
 10
1025.0
 20
2553.5
 30
0.0
 40
5.0
100
AcDbArc
 50
180.0
 51
270.0
  0
DIMENSION
  5
2C8
100
AcDbEntity
  8
寸法
370
               9
  6
Continuous
100
AcDbDimension
  2
*D20
 10
1765.0
 20
2553.5
 30
0.0
 11
1779.0229745355432
 21
2539.7270254644532
 31
0.0
 70
               4
 71
               5
 72
               1
 41
1.0
 42
0.0
  3
Ekitchen
100
AcDbRadialDimension
 15
1768.535533905932
 25
2549.9644660940671
 35
0.0
 40
14.477927382387485
1001
ACAD
1000
DSTYLE
1002
{
1070
             271
1070
               1
1070
             289
1070
               0
1070
             342
1005
86
1070
             340
1005
4A
1070
             140
1040
16.288411458333332
1070
               3
1000

1070
             174
1070
               0
1070
             147
1040
4.0
1002
}
  0
LINE
  5
2C9
100
AcDbEntity
  8
2
370
              25
  6
Continuous
100
AcDbLine
 10
1395.0
 20
2324.7909039410551
 30
0.0
 11
1024.2275251562421
 21
2324.7909039410551
 31
0.0
  0
LINE
  5
2CA
100
AcDbEntity
  8
2
370
              25
  6
Continuous
100
AcDbLine
 10
1345.2103939657561
 20
2187.4002666246893
 30
0.0
 11
1237.668385235228
 21
2193.0363044818919
 31
0.0
  0
LINE
  5
2CB
100
AcDbEntity
  8
2
370
               9
  6
Continuous
100
AcDbLine
 10
1394.999999999998
 20
2184.7909039410551
 30
0.0
 11
1367.999999999998
 21
2184.7909039410551
 31
0.0
  0
LINE
  5
2CC
100
AcDbEntity
  8
2
370
               9
  6
Continuous
100
AcDbLine
 10
1394.999999999998
 20
2170.7895990379939
 30
0.0
 11
1375.9603629710809
 21
2170.7895990379939
 31
0.0
  0
LWPOLYLINE
  5
2CD
100
AcDbEntity
  8
2
370
              25
  6
Continuous
100
AcDbPolyline
 90
        9
 70
             128
 10
1344.999999999998
 20
2187.4151164912337
 10
1346.853447148726
 20
2187.3152513460736
 10
1348.70624094752
 20
2187.2039206697509
 10
1350.558310470625
 20
2187.0811287240526
 10
1352.4095848200091
 20
2186.946880209508
 10
1354.2599931280779
 20
2186.8011802652086
 10
1356.1094645603951
 20
2186.644034468613
 10
1357.9579283183821
 20
2186.4754488353301
 10
1359.805313642039
 20
2186.2954298188924
  0
POINT
  5
2CE
100
AcDbEntity
  8
2
370
               5
  6
Continuous
100
AcDbPoint
 10
1344.999999999998
 20
2187.4151164912337
 30
0.0
  0
LINE
  5
2CF
100
AcDbEntity
  8
2
370
               9
  6
Continuous
100
AcDbLine
 10
1414.142769632819
 20
2166.7909039410551
 30
0.0
 11
1370.5052494368231
 21
2166.7909039410551
 31
0.0
  0
LINE
  5
2D0
100
AcDbEntity
  8
2
370
              25
  6
Continuous
100
AcDbLine
 10
1371.2947282492671
 20
2178.8707154257336
 30
0.0
 11
1375.5867354677091
 21
2171.4367408569401
 31
0.0
  0
POINT
  5
2D1
100
AcDbEntity
  8
2
370
               5
  6
Continuous
100
AcDbPoint
 10
1375.9603629710809
 20
2170.7895990379939
 30
0.0
  0
LINE
  5
2D2
100
AcDbEntity
  8
2
370
              25
  6
Continuous
100
AcDbLine
 10
1376.128458772713
 20
2170.0614961286597
 30
0.0
 11
1376.8835344749741
 21
2166.7909039410551
 31
0.0
  0
LINE
  5
2D3
100
AcDbEntity
  8
2
370
               9
  6
Continuous
100
AcDbLine
 10
1370.1165956256791
 20
2168.4743485474719
 30
0.0
 11
1370.5052494368231
 21
2166.7909039410551
 31
0.0
  0
ARC
  5
2D4
100
AcDbEntity
  8
2
370
              25
  6
Continuous
100
AcDbCircle
 10
1358.3043471925
 20
2171.3707154257336
 30
0.0
 40
14.999999999999936
100
AcDbArc
 50
29.999999999999137
 51
84.25711934791957
  0
LINE
  5
2D5
100
AcDbEntity
  8
2
370
               9
  6
Continuous
100
AcDbLine
 10
1365.581723464521
 20
2176.7659299767975
 30
0.0
 11
1369.574872320675
 21
2169.8495932757528
 31
0.0
  0
POINT
  5
2D6
100
AcDbEntity
  8
2
370
               5
  6
Continuous
100
AcDbPoint
 10
1367.0304119365401
 20
2186.2567279389227
 30
0.0
  0
ARC
  5
2D7
100
AcDbEntity
  8
2
370
              25
  6
Continuous
100
AcDbCircle
 10
1371.256608448786
 20
2168.9367408569406
 30
0.0
 40
5.0000000000001297
100
AcDbArc
 50
12.999999999999634
 51
29.999999999996334
  0
ARC
  5
2D8
100
AcDbEntity
  8
2
370
               9
  6
Continuous
100
AcDbCircle
 10
1365.244745301753
 20
2167.3495932757528
 30
0.0
 40
4.9999999999999085
100
AcDbArc
 50
13.000000000000218
 51
29.99999999999989
  0
LINE
  5
2D9
100
AcDbEntity
  8
一般
370
               9
  6
Continuous
100
AcDbLine
 10
1344.249999999998
 20
2173.2909039410551
 30
0.0
 11
1343.4455423594261
 21
2182.4858968481512
 31
0.0
  0
LINE
  5
2DA
100
AcDbEntity
  8
一般
370
               9
  6
Continuous
100
AcDbLine
 10
1359.749999999998
 20
2173.2909039410551
 30
0.0
 11
1344.249999999998
 21
2173.2909039410551
 31
0.0
  0
LINE
  5
2DB
100
AcDbEntity
  8
一般
370
               9
  6
Continuous
100
AcDbLine
 10
1348.999999999998
 20
2173.2909039410551
 30
0.0
 11
1348.999999999998
 21
2181.2909039410551
 31
0.0
  0
LINE
  5
2DC
100
AcDbEntity
  8
一般
370
               9
  6
Continuous
100
AcDbLine
 10
1348.999999999998
 20
2181.2909039410551
 30
0.0
 11
1354.999999999998
 21
2181.2909039410551
 31
0.0
  0
LINE
  5
2DD
100
AcDbEntity
  8
一般
370
               9
  6
Continuous
100
AcDbLine
 10
1359.749999999998
 20
2173.2909039410551
 30
0.0
 11
1360.4356666967501
 21
2181.1281101471886
 31
0.0
  0
LINE
  5
2DE
100
AcDbEntity
  8
一般
370
               9
  6
Continuous
100
AcDbLine
 10
1354.999999999998
 20
2173.2909039410551
 30
0.0
 11
1354.999999999998
 21
2181.2909039410551
 31
0.0
  0
ARC
  5
2DF
100
AcDbEntity
  8
2
370
              25
  6
Continuous
100
AcDbCircle
 10
1242.378621297092
 20
2282.9129626098033
 30
0.0
 40
89.999999999999886
100
AcDbArc
 50
199.99999999999997
 51
267.00000000000091
  0
LINE
  5
2E0
100
AcDbEntity
  8
2
370
              25
  6
Continuous
100
AcDbLine
 10
1023.5
 20
2307.7909039410551
 30
0.0
 11
1020.0
 21
2307.7909039410551
 31
0.0
  0
LINE
  5
2E1
100
AcDbEntity
  8
2
370
              25
  6
Continuous
100
AcDbLine
 10
1020.2281343756169
 20
2320.860713566804
 30
0.0
 11
1020.0
 21
2307.7909039410551
 31
0.0
  0
POINT
  5
2E2
100
AcDbEntity
  8
一般
370
               5
  6
Continuous
100
AcDbPoint
 10
1135.0
 20
2324.7909039410551
 30
0.0
  0
LINE
  5
2E3
100
AcDbEntity
  8
一般
370
              25
  6
Continuous
100
AcDbLine
 10
1104.4076396421649
 20
2322.80553012273
 30
0.0
 11
1024.0
 21
2324.7909039410551
 31
0.0
  0
POINT
  5
2E4
100
AcDbEntity
  8
一般
370
               5
  6
Continuous
100
AcDbPoint
 10
1105.0
 20
2322.7909039410551
 30
0.0
  0
ARC
  5
2E5
100
AcDbEntity
  8
一般
370
              25
  6
Continuous
100
AcDbCircle
 10
1104.2842204683709
 20
2317.8070535840693
 30
0.0
 40
4.9999999999999272
100
AcDbArc
 50
75.068582821863288
 51
88.585576788598885
  0
ARC
  5
2E6
100
AcDbEntity
  8
2
370
              25
  6
Continuous
100
AcDbCircle
 10
1024.2275251562421
 20
2320.7909039410551
 30
0.0
 40
4.0
100
AcDbArc
 50
90.0
 51
178.99999999999824
  0
LINE
  5
2E7
100
AcDbEntity
  8
2
370
               9
  6
Continuous
100
AcDbLine
 10
1023.709433119393
 20
2319.7893193152922
 30
0.0
 11
1023.5
 21
2307.7909039410551
 31
0.0
  0
LINE
  5
2E8
100
AcDbEntity
  8
一般
370
               9
  6
Continuous
100
AcDbLine
 10
1104.30890430313
 20
2318.8067488918009
 30
0.0
 11
1024.7339646493081
 21
2320.771562216587
 31
0.0
  0
ARC
  5
2E9
100
AcDbEntity
  8
2
370
               9
  6
Continuous
100
AcDbCircle
 10
1024.7092808145489
 20
2319.7718669088549
 30
0.0
 40
0.9999999999999396
100
AcDbArc
 50
88.585576788606687
 51
179.00000000001131
  0
ARC
  5
2EA
100
AcDbEntity
  8
2
370
               9
  6
Continuous
100
AcDbCircle
 10
1242.378621297092
 20
2282.9129626098033
 30
0.0
 40
94.999999999999858
100
AcDbArc
 50
200.00000000000006
 51
267.00000000000085
  0
LINE
  5
2EB
100
AcDbEntity
  8
2
370
               9
  6
Continuous
100
AcDbLine
 10
1357.4448289891061
 20
2181.7522253243433
 30
0.0
 11
1237.4067054540139
 21
2188.043156808119
 31
0.0
  0
ARC
  5
2EC
100
AcDbEntity
  8
2
370
               9
  6
Continuous
100
AcDbCircle
 10
1356.921469426677
 20
2171.7659299767975
 30
0.0
 40
10.000000000000117
100
AcDbArc
 50
29.999999999998117
 51
86.999999999999645
  0
LINE
  5
2ED
100
AcDbEntity
  8
2
370
               9
  6
Continuous
100
AcDbLine
 10
1135.0
 20
2314.7909039410551
 30
0.0
 11
1655.0
 21
2314.7909039410551
 31
0.0
  0
LINE
  5
2EE
100
AcDbEntity
  8
2
370
              25
  6
Continuous
100
AcDbLine
 10
1654.1309166432659
 20
2312.4031170428061
 30
0.0
 11
1632.193714573639
 21
2252.1311497104934
 31
0.0
  0
LINE
  5
2EF
100
AcDbEntity
  8
2
370
              25
  6
Continuous
100
AcDbLine
 10
1395.0
 20
2324.7909039410551
 30
0.0
 11
1765.7724748437572
 21
2324.7909039410551
 31
0.0
  0
LINE
  5
2F0
100
AcDbEntity
  8
2
370
              25
  6
Continuous
100
AcDbLine
 10
1444.7896060342439
 20
2187.4002666246893
 30
0.0
 11
1552.3316147647711
 21
2193.0363044818919
 31
0.0
  0
LINE
  5
2F1
100
AcDbEntity
  8
2
370
               9
  6
Continuous
100
AcDbLine
 10
1395.0000000000009
 20
2184.7909039410551
 30
0.0
 11
1422.0000000000009
 21
2184.7909039410551
 31
0.0
  0
LINE
  5
2F2
100
AcDbEntity
  8
2
370
               9
  6
Continuous
100
AcDbLine
 10
1395.0000000000009
 20
2170.7895990379939
 30
0.0
 11
1414.0396370289179
 21
2170.7895990379939
 31
0.0
  0
LWPOLYLINE
  5
2F3
100
AcDbEntity
  8
2
370
              25
  6
Continuous
100
AcDbPolyline
 90
        9
 70
             128
 10
1430.1946863579601
 20
2186.2954298188924
 10
1432.042071681617
 20
2186.4754488353301
 10
1433.890535439604
 20
2186.644034468613
 10
1435.740006871921
 20
2186.8011802652086
 10
1437.5904151799909
 20
2186.946880209508
 10
1439.4416895293739
 20
2187.0811287240526
 10
1441.2937590524789
 20
2187.2039206697509
 10
1443.146552851274
 20
2187.3152513460736
 10
1445.0000000000009
 20
2187.4151164912337
  0
POINT
  5
2F4
100
AcDbEntity
  8
2
370
               5
  6
Continuous
100
AcDbPoint
 10
1445.0000000000009
 20
2187.4151164912337
 30
0.0
  0
LINE
  5
2F5
100
AcDbEntity
  8
2
370
               9
  6
Continuous
100
AcDbLine
 10
1414.142769632819
 20
2166.7909039410551
 30
0.0
 11
1419.494750563176
 21
2166.7909039410551
 31
0.0
  0
LINE
  5
2F6
100
AcDbEntity
  8
2
370
              25
  6
Continuous
100
AcDbLine
 10
1418.705271750732
 20
2178.8707154257336
 30
0.0
 11
1414.4132645322909
 21
2171.4367408569401
 31
0.0
  0
POINT
  5
2F7
100
AcDbEntity
  8
2
370
               5
  6
Continuous
100
AcDbPoint
 10
1414.0396370289179
 20
2170.7895990379939
 30
0.0
  0
LINE
  5
2F8
100
AcDbEntity
  8
2
370
              25
  6
Continuous
100
AcDbLine
 10
1413.871541227287
 20
2170.0614961286597
 30
0.0
 11
1413.1164655250259
 21
2166.7909039410551
 31
0.0
  0
LINE
  5
2F9
100
AcDbEntity
  8
2
370
               9
  6
Continuous
100
AcDbLine
 10
1419.88340437432
 20
2168.4743485474719
 30
0.0
 11
1419.494750563176
 21
2166.7909039410551
 31
0.0
  0
ARC
  5
2FA
100
AcDbEntity
  8
2
370
              25
  6
Continuous
100
AcDbCircle
 10
1431.6956528074991
 20
2171.3707154257336
 30
0.0
 40
14.999999999999963
100
AcDbArc
 50
95.742880652080444
 51
150.00000000000085
  0
LINE
  5
2FB
100
AcDbEntity
  8
2
370
               9
  6
Continuous
100
AcDbLine
 10
1424.4182765354781
 20
2176.7659299767975
 30
0.0
 11
1420.4251276793241
 21
2169.8495932757528
 31
0.0
  0
POINT
  5
2FC
100
AcDbEntity
  8
2
370
               5
  6
Continuous
100
AcDbPoint
 10
1422.9695880634599
 20
2186.2567279389227
 30
0.0
  0
ARC
  5
2FD
100
AcDbEntity
  8
2
370
              25
  6
Continuous
100
AcDbCircle
 10
1418.7433915512131
 20
2168.9367408569406
 30
0.0
 40
5.0000000000000995
100
AcDbArc
 50
150.00000000000367
 51
167.00000000000037
  0
ARC
  5
2FE
100
AcDbEntity
  8
2
370
               9
  6
Continuous
100
AcDbCircle
 10
1424.7552546982461
 20
2167.3495932757528
 30
0.0
 40
5.000000000000016
100
AcDbArc
 50
150.00000000000011
 51
166.99999999999983
  0
LINE
  5
2FF
100
AcDbEntity
  8
一般
370
               9
  6
Continuous
100
AcDbLine
 10
1445.7500000000009
 20
2173.2909039410551
 30
0.0
 11
1446.554457640573
 21
2182.4858968481512
 31
0.0
  0
LINE
  5
300
100
AcDbEntity
  8
一般
370
               9
  6
Continuous
100
AcDbLine
 10
1430.2500000000009
 20
2173.2909039410551
 30
0.0
 11
1445.7500000000009
 21
2173.2909039410551
 31
0.0
  0
LINE
  5
301
100
AcDbEntity
  8
一般
370
               9
  6
Continuous
100
AcDbLine
 10
1441.0000000000009
 20
2173.2909039410551
 30
0.0
 11
1441.0000000000009
 21
2181.2909039410551
 31
0.0
  0
LINE
  5
302
100
AcDbEntity
  8
一般
370
               9
  6
Continuous
100
AcDbLine
 10
1441.0000000000009
 20
2181.2909039410551
 30
0.0
 11
1435.0000000000009
 21
2181.2909039410551
 31
0.0
  0
LINE
  5
303
100
AcDbEntity
  8
一般
370
               9
  6
Continuous
100
AcDbLine
 10
1430.2500000000009
 20
2173.2909039410551
 30
0.0
 11
1429.564333303249
 21
2181.1281101471886
 31
0.0
  0
LINE
  5
304
100
AcDbEntity
  8
一般
370
               9
  6
Continuous
100
AcDbLine
 10
1435.0000000000009
 20
2173.2909039410551
 30
0.0
 11
1435.0000000000009
 21
2181.2909039410551
 31
0.0
  0
ARC
  5
305
100
AcDbEntity
  8
2
370
              25
  6
Continuous
100
AcDbCircle
 10
1547.621378702908
 20
2282.9129626098033
 30
0.0
 40
89.999999999999972
100
AcDbArc
 50
272.99999999999909
 51
340.00000000000006
  0
LINE
  5
306
100
AcDbEntity
  8
2
370
              25
  6
Continuous
100
AcDbLine
 10
1766.5
 20
2307.7909039410551
 30
0.0
 11
1770.0
 21
2307.7909039410551
 31
0.0
  0
LINE
  5
307
100
AcDbEntity
  8
2
370
              25
  6
Continuous
100
AcDbLine
 10
1769.7718656243828
 20
2320.860713566804
 30
0.0
 11
1770.0
 21
2307.7909039410551
 31
0.0
  0
POINT
  5
308
100
AcDbEntity
  8
一般
370
               5
  6
Continuous
100
AcDbPoint
 10
1655.0
 20
2324.7909039410551
 30
0.0
  0
LINE
  5
309
100
AcDbEntity
  8
一般
370
              25
  6
Continuous
100
AcDbLine
 10
1685.592360357834
 20
2322.80553012273
 30
0.0
 11
1766.0
 21
2324.7909039410551
 31
0.0
  0
LINE
  5
30A
100
AcDbEntity
  8
一般
370
              25
  6
Continuous
100
AcDbLine
 10
1657.518626511325
 20
2315.4625376774084
 30
0.0
 11
1684.4274662788271
 21
2322.638228282075
 31
0.0
  0
POINT
  5
30B
100
AcDbEntity
  8
一般
370
               5
  6
Continuous
100
AcDbPoint
 10
1655.0
 20
2314.7909039410551
 30
0.0
  0
POINT
  5
30C
100
AcDbEntity
  8
一般
370
               5
  6
Continuous
100
AcDbPoint
 10
1685.0
 20
2322.7909039410551
 30
0.0
  0
ARC
  5
30D
100
AcDbEntity
  8
一般
370
              25
  6
Continuous
100
AcDbCircle
 10
1685.715779531628
 20
2317.8070535840693
 30
0.0
 40
4.9999999999997149
100
AcDbArc
 50
91.414423211401143
 51
104.93141717813673
  0
ARC
  5
30E
100
AcDbEntity
  8
一般
370
              25
  6
Continuous
100
AcDbCircle
 10
1658.806939764127
 20
2310.6313629794022
 30
0.0
 40
4.9999999999999858
100
AcDbArc
 50
104.93141717813923
 51
160.00000000000165
  0
ARC
  5
30F
100
AcDbEntity
  8
2
370
              25
  6
Continuous
100
AcDbCircle
 10
1765.7724748437572
 20
2320.7909039410551
 30
0.0
 40
4.0000000000000542
100
AcDbArc
 50
1.0000000000017617
 51
90.0
  0
LINE
  5
310
100
AcDbEntity
  8
2
370
               9
  6
Continuous
100
AcDbLine
 10
1766.290566880607
 20
2319.7893193152922
 30
0.0
 11
1766.5
 21
2307.7909039410551
 31
0.0
  0
LINE
  5
311
100
AcDbEntity
  8
一般
370
               9
  6
Continuous
100
AcDbLine
 10
1685.69109569687
 20
2318.8067488918009
 30
0.0
 11
1765.2660353506922
 21
2320.771562216587
 31
0.0
  0
LINE
  5
312
100
AcDbEntity
  8
一般
370
               9
  6
Continuous
100
AcDbLine
 10
1658.5492771135659
 20
2311.597597919003
 30
0.0
 11
1685.458116881068
 21
2318.773288523671
 31
0.0
  0
ARC
  5
313
100
AcDbEntity
  8
一般
370
               9
  6
Continuous
100
AcDbCircle
 10
1658.806939764127
 20
2310.6313629794022
 30
0.0
 40
0.9999999999997306
100
AcDbArc
 50
104.93141717813252
 51
159.99999999998965
  0
LINE
  5
314
100
AcDbEntity
  8
2
370
               9
  6
Continuous
100
AcDbLine
 10
1657.8896871264101
 20
2311.0350364695032
 30
0.0
 11
1636.892177677569
 21
2250.421048993865
 31
0.0
  0
ARC
  5
315
100
AcDbEntity
  8
一般
370
               9
  6
Continuous
100
AcDbCircle
 10
1685.715779531628
 20
2317.8070535840693
 30
0.0
 40
0.9999999999999452
100
AcDbArc
 50
91.414423211406344
 51
104.93141717813252
  0
ARC
  5
316
100
AcDbEntity
  8
2
370
               9
  6
Continuous
100
AcDbCircle
 10
1765.2907191854501
 20
2319.7718669088549
 30
0.0
 40
1.0000000000000095
100
AcDbArc
 50
0.999999999988736
 51
91.41442321140633
  0
ARC
  5
317
100
AcDbEntity
  8
2
370
               9
  6
Continuous
100
AcDbCircle
 10
1547.621378702908
 20
2282.9129626098033
 30
0.0
 40
95.0
100
AcDbArc
 50
272.99999999999898
 51
340.0
  0
LINE
  5
318
100
AcDbEntity
  8
2
370
               9
  6
Continuous
100
AcDbLine
 10
1432.555171010893
 20
2181.7522253243433
 30
0.0
 11
1552.5932945459861
 21
2188.043156808119
 31
0.0
  0
ARC
  5
319
100
AcDbEntity
  8
2
370
               9
  6
Continuous
100
AcDbCircle
 10
1433.078530573323
 20
2171.7659299767975
 30
0.0
 40
9.9999999999998579
100
AcDbArc
 50
93.000000000000426
 51
150.00000000000125
  0
LINE
  5
31A
100
AcDbEntity
  8
3
370
              20
  6
Continuous
100
AcDbLine
 10
2139.3238934521278
 20
2603.5
 30
0.0
 11
2139.3238934521278
 21
3052.2821443976291
 31
0.0
  0
LINE
  5
31B
100
AcDbEntity
  8
3
370
               9
  6
STYLE_11
100
AcDbLine
 10
2239.8238934521296
 20
2918.5
 30
0.0
 11
2311.3238934521305
 21
2918.5
 31
0.0
  0
LINE
  5
31C
100
AcDbEntity
  8
3
370
              25
  6
Continuous
100
AcDbLine
 10
2146.5760202490201
 20
2987.8655211188188
 30
0.0
 11
2231.7346077916891
 21
2980.4151101069551
 31
0.0
  0
LINE
  5
31D
100
AcDbEntity
  8
3
370
              25
  6
Continuous
100
AcDbLine
 10
2266.7223164250345
 20
2868.8589531423413
 30
0.0
 11
2262.4967684746834
 21
2788.230695121129
 31
0.0
  0
LINE
  5
31E
100
AcDbEntity
  8
3
370
               9
  6
Continuous
100
AcDbLine
 10
2269.3238934521296
 20
2918.5000000000009
 30
0.0
 11
2269.3238934521296
 21
2945.5000000000009
 31
0.0
  0
LINE
  5
31F
100
AcDbEntity
  8
3
370
               9
  6
Continuous
100
AcDbLine
 10
2283.3251983551909
 20
2918.5000000000009
 30
0.0
 11
2283.3251983551909
 21
2937.5396370289191
 31
0.0
  0
LINE
  5
320
100
AcDbEntity
  8
3
370
               9
  6
Continuous
100
AcDbLine
 10
2269.1545546879915
 20
2924.3238793597438
 30
0.0
 11
2268.0121544479589
 21
2946.122174491928
 31
0.0
  0
LINE
  5
321
100
AcDbEntity
  8
3
370
               9
  6
Continuous
100
AcDbLine
 10
2269.3238934521296
 20
2918.5
 30
0.0
 11
2269.3238934521296
 21
2891.5
 31
0.0
  0
LINE
  5
322
100
AcDbEntity
  8
3
370
               9
  6
Continuous
100
AcDbLine
 10
2283.3251983551918
 20
2918.5
 30
0.0
 11
2283.3251983551918
 21
2899.4603629710818
 31
0.0
  0
LWPOLYLINE
  5
323
100
AcDbEntity
  8
3
370
              25
  6
Continuous
100
AcDbPolyline
 90
        9
 70
             128
 10
2266.6996809019511
 20
2868.5
 10
2266.7995460471111
 20
2870.3534471487274
 10
2266.9108767234347
 20
2872.2062409475211
 10
2267.0336686691326
 20
2874.0583104706261
 10
2267.1679171836777
 20
2875.90958482001
 10
2267.3136171279766
 20
2877.7599931280802
 10
2267.4707629245731
 20
2879.6094645603962
 10
2267.6393485578546
 20
2881.4579283183839
 10
2267.8193675742932
 20
2883.3053136420413
  0
POINT
  5
324
100
AcDbEntity
  8
3
370
               5
  6
Continuous
100
AcDbPoint
 10
2266.699680901952
 20
2868.5
 30
0.0
  0
LINE
  5
325
100
AcDbEntity
  8
3
370
               9
  6
Continuous
100
AcDbLine
 10
2287.3238934521296
 20
2937.6427696328183
 30
0.0
 11
2287.3238934521296
 21
2894.0052494368238
 31
0.0
  0
LINE
  5
326
100
AcDbEntity
  8
3
370
              25
  6
Continuous
100
AcDbLine
 10
2275.2440819674521
 20
2894.7947282492678
 30
0.0
 11
2282.6780565362451
 21
2899.0867354677102
 31
0.0
  0
POINT
  5
327
100
AcDbEntity
  8
3
370
               5
  6
Continuous
100
AcDbPoint
 10
2283.3251983551918
 20
2899.4603629710818
 30
0.0
  0
LINE
  5
328
100
AcDbEntity
  8
3
370
              25
  6
Continuous
100
AcDbLine
 10
2284.0533012645255
 20
2899.6284587727141
 30
0.0
 11
2287.3238934521296
 21
2900.383534474975
 31
0.0
  0
LINE
  5
329
100
AcDbEntity
  8
3
370
               9
  6
Continuous
100
AcDbLine
 10
2285.6404488457129
 20
2893.6165956256809
 30
0.0
 11
2287.3238934521296
 21
2894.0052494368238
 31
0.0
  0
ARC
  5
32A
100
AcDbEntity
  8
3
370
              25
  6
Continuous
100
AcDbCircle
 10
2282.7440819674512
 20
2881.8043471925021
 30
0.0
 40
14.999999999999822
100
AcDbArc
 50
119.99999999999838
 51
174.25711934791948
  0
LINE
  5
32B
100
AcDbEntity
  8
3
370
               9
  6
Continuous
100
AcDbLine
 10
2277.6236290037987
 20
2889.2403571409768
 30
0.0
 11
2284.2652041174333
 21
2893.0748723206771
 31
0.0
  0
POINT
  5
32C
100
AcDbEntity
  8
3
370
               5
  6
Continuous
100
AcDbPoint
 10
2267.8580694542625
 20
2890.530411936541
 30
0.0
  0
ARC
  5
32D
100
AcDbEntity
  8
3
370
              25
  6
Continuous
100
AcDbCircle
 10
2285.1780565362451
 20
2894.7566084487871
 30
0.0
 40
5.000000000000079
100
AcDbArc
 50
102.9999999999971
 51
119.99999999999859
  0
ARC
  5
32E
100
AcDbEntity
  8
3
370
               9
  6
Continuous
100
AcDbCircle
 10
2286.7652041174333
 20
2888.7447453017548
 30
0.0
 40
4.999999999999857
100
AcDbArc
 50
102.9999999999977
 51
119.99999999999989
  0
LINE
  5
32F
100
AcDbEntity
  8
3
370
               9
  6
Continuous
100
AcDbLine
 10
2269.3238934521296
 20
2918.5
 30
0.0
 11
2269.3238934521296
 21
2945.5
 31
0.0
  0
LINE
  5
330
100
AcDbEntity
  8
3
370
               9
  6
Continuous
100
AcDbLine
 10
2283.3251983551918
 20
2918.5
 30
0.0
 11
2283.3251983551918
 21
2937.5396370289172
 31
0.0
  0
LINE
  5
331
100
AcDbEntity
  8
3
370
               9
  6
Continuous
100
AcDbLine
 10
2287.3238934521296
 20
2937.6427696328183
 30
0.0
 11
2287.3238934521296
 21
2942.9947505631753
 31
0.0
  0
LINE
  5
332
100
AcDbEntity
  8
3
370
              25
  6
Continuous
100
AcDbLine
 10
2275.1578356069313
 20
2942.255066110195
 30
0.0
 11
2282.6780565362451
 21
2937.9132645322898
 31
0.0
  0
POINT
  5
333
100
AcDbEntity
  8
3
370
               5
  6
Continuous
100
AcDbPoint
 10
2283.3251983551918
 20
2937.5396370289172
 30
0.0
  0
LINE
  5
334
100
AcDbEntity
  8
3
370
              25
  6
Continuous
100
AcDbLine
 10
2284.0533012645255
 20
2937.3715412272859
 30
0.0
 11
2287.3238934521296
 21
2936.6164655250241
 31
0.0
  0
LINE
  5
335
100
AcDbEntity
  8
3
370
               9
  6
Continuous
100
AcDbLine
 10
2285.6404488457129
 20
2943.3834043743191
 30
0.0
 11
2287.3238934521296
 21
2942.9947505631753
 31
0.0
  0
LINE
  5
336
100
AcDbEntity
  8
3
370
               9
  6
Continuous
100
AcDbLine
 10
2277.1545174877792
 20
2948.0304845190758
 30
0.0
 11
2284.2652041174333
 21
2943.9251276793229
 31
0.0
  0
ARC
  5
337
100
AcDbEntity
  8
3
370
              25
  6
Continuous
100
AcDbCircle
 10
2285.1780565362451
 20
2942.243391551212
 30
0.0
 40
5.000000000000183
100
AcDbArc
 50
240.00000000000725
 51
257.00000000000347
  0
ARC
  5
338
100
AcDbEntity
  8
3
370
               9
  6
Continuous
100
AcDbCircle
 10
2286.7652041174333
 20
2948.2552546982452
 30
0.0
 40
5.000000000000016
100
AcDbArc
 50
240.00000000000011
 51
256.99999999999727
  0
LINE
  5
339
100
AcDbEntity
  8
3
370
              25
  6
Continuous
100
AcDbLine
 10
2140.2086636005861
 20
3008.4999999999991
 30
0.0
 11
2139.3238934521278
 21
3067.2821348068801
 31
0.0
  0
LINE
  5
33A
100
AcDbEntity
  8
一般
370
              25
  6
Continuous
100
AcDbLine
 10
2129.3238934521278
 20
3076.3468937001444
 30
0.0
 11
2129.3238934521278
 21
3094.2636991980071
 31
0.0
  0
LWPOLYLINE
  5
33B
100
AcDbEntity
  8
一般
370
              25
  6
Continuous
100
AcDbPolyline
 90
        9
 70
             128
 10
2141.1279900692257
 20
2993.2531290372622
 10
2140.949411404039
 20
2995.1545387675151
 10
2140.788997019044
 20
2997.0575670192893
 10
2140.6467615410197
 20
2998.9620402721221
 10
2140.522717939175
 20
3000.8677848737952
 10
2140.4168775239568
 20
3002.7746270561661
 10
2140.3292499460249
 20
3004.6823929510151
 10
2140.2598431953697
 20
3006.5909086058964
 10
2140.2086636005861
 20
3008.4999999999991
  0
POINT
  5
33C
100
AcDbEntity
  8
3
370
               5
  6
Continuous
100
AcDbPoint
 10
2141.3238934521278
 20
2548.5
 30
0.0
  0
LINE
  5
33D
100
AcDbEntity
  8
3
370
              25
  6
Continuous
100
AcDbLine
 10
2135.2191790135048
 20
2548.6938335115351
 30
0.0
 11
2146.3238934521278
 21
2548.5
 31
0.0
  0
LINE
  5
33E
100
AcDbEntity
  8
3
370
               9
  6
Continuous
100
AcDbLine
 10
2146.3238934521278
 20
2548.5
 30
0.0
 11
2146.3238934521278
 21
2552.0
 31
0.0
  0
LINE
  5
33F
100
AcDbEntity
  8
3
370
              25
  6
Continuous
100
AcDbLine
 10
2129.3238934521278
 20
2554.5
 30
0.0
 11
2131.1744503684768
 21
2585.9594675779322
 31
0.0
  0
LINE
  5
340
100
AcDbEntity
  8
3
370
              25
  6
Continuous
100
AcDbLine
 10
2132.913694878333
 20
2590.4872517827562
 30
0.0
 11
2138.9156450688747
 21
2597.9896895209331
 31
0.0
  0
POINT
  5
341
100
AcDbEntity
  8
3
370
               5
  6
Continuous
100
AcDbPoint
 10
2131.3238934521278
 20
2548.5
 30
0.0
  0
POINT
  5
342
100
AcDbEntity
  8
一般
370
               5
  6
Continuous
100
AcDbPoint
 10
2129.3238934521278
 20
2548.5
 30
0.0
  0
LINE
  5
343
100
AcDbEntity
  8
一般
370
              25
  6
Continuous
100
AcDbLine
 10
2129.3238934521278
 20
3068.5
 30
0.0
 11
2129.3238934521278
 21
2554.6929196824731
 31
0.0
  0
LINE
  5
344
100
AcDbEntity
  8
一般
370
               9
  6
Continuous
100
AcDbLine
 10
2280.8238934521296
 20
2962.655764746873
 30
0.0
 11
2266.7337384798357
 21
2963.8884935742731
 31
0.0
  0
LINE
  5
345
100
AcDbEntity
  8
一般
370
               9
  6
Continuous
100
AcDbLine
 10
2280.8238934521296
 20
2947.155764746873
 30
0.0
 11
2280.8238934521296
 21
2962.655764746873
 31
0.0
  0
LINE
  5
346
100
AcDbEntity
  8
一般
370
               9
  6
Continuous
100
AcDbLine
 10
2272.8238934521296
 20
2957.905764746873
 30
0.0
 11
2272.8238934521296
 21
2951.905764746873
 31
0.0
  0
LINE
  5
347
100
AcDbEntity
  8
一般
370
               9
  6
Continuous
100
AcDbLine
 10
2280.8238934521296
 20
2947.155764746873
 30
0.0
 11
2278.9530712614187
 21
2946.9920890137128
 31
0.0
  0
LINE
  5
348
100
AcDbEntity
  8
一般
370
               9
  6
Continuous
100
AcDbLine
 10
2280.8238934521296
 20
2951.905764746873
 30
0.0
 11
2272.8238934521296
 21
2951.905764746873
 31
0.0
  0
LINE
  5
349
100
AcDbEntity
  8
一般
370
               9
  6
Continuous
100
AcDbLine
 10
2272.8238934521296
 20
2957.905764746873
 30
0.0
 11
2280.8238934521296
 21
2957.905764746873
 31
0.0
  0
LINE
  5
34A
100
AcDbEntity
  8
一般
370
               9
  6
Continuous
100
AcDbLine
 10
2280.8238934521296
 20
2865.750000000005
 30
0.0
 11
2271.5236021843712
 21
2864.9363299465872
 31
0.0
  0
LINE
  5
34B
100
AcDbEntity
  8
一般
370
               9
  6
Continuous
100
AcDbLine
 10
2280.8238934521296
 20
2881.250000000005
 30
0.0
 11
2280.8238934521296
 21
2865.750000000005
 31
0.0
  0
LINE
  5
34C
100
AcDbEntity
  8
一般
370
               9
  6
Continuous
100
AcDbLine
 10
2280.8238934521296
 20
2870.500000000005
 30
0.0
 11
2272.8238934521296
 21
2870.500000000005
 31
0.0
  0
LINE
  5
34D
100
AcDbEntity
  8
一般
370
               9
  6
Continuous
100
AcDbLine
 10
2272.8238934521296
 20
2870.500000000005
 30
0.0
 11
2272.8238934521296
 21
2876.500000000005
 31
0.0
  0
LINE
  5
34E
100
AcDbEntity
  8
一般
370
               9
  6
Continuous
100
AcDbLine
 10
2280.8238934521296
 20
2881.250000000005
 30
0.0
 11
2272.7191631065753
 21
2881.9590720261758
 31
0.0
  0
LINE
  5
34F
100
AcDbEntity
  8
一般
370
               9
  6
Continuous
100
AcDbLine
 10
2280.8238934521296
 20
2876.500000000005
 30
0.0
 11
2272.8238934521296
 21
2876.500000000005
 31
0.0
  0
POINT
  5
350
100
AcDbEntity
  8
一般
370
               5
  6
Continuous
100
AcDbPoint
 10
2269.3238934521296
 20
2918.5000000000009
 30
0.0
  0
POINT
  5
351
100
AcDbEntity
  8
3
370
               5
  6
Continuous
100
AcDbPoint
 10
2129.3238934521278
 20
3073.4999999999991
 30
0.0
  0
POINT
  5
352
100
AcDbEntity
  8
一般
370
               5
  6
Continuous
100
AcDbPoint
 10
2139.3238934521278
 20
3073.4999999999991
 30
0.0
  0
LINE
  5
353
100
AcDbEntity
  8
一般
370
              25
  6
Continuous
100
AcDbLine
 10
2132.0624262238848
 20
3097.2522832922823
 30
0.0
 11
2146.3238934521278
 21
3098.5
 31
0.0
  0
LINE
  5
354
100
AcDbEntity
  8
一般
370
              25
  6
Continuous
100
AcDbLine
 10
2132.1668855834
 20
3073.3510050958812
 30
0.0
 11
2133.637909189586
 21
3073.2739120154074
 31
0.0
  0
ARC
  5
355
100
AcDbEntity
  8
一般
370
              25
  6
Continuous
100
AcDbCircle
 10
2133.3238934521278
 20
3067.2821348068801
 30
0.0
 40
6.0
100
AcDbArc
 50
0.0
 51
86.99999999999882
  0
ARC
  5
356
100
AcDbEntity
  8
一般
370
              25
  6
Continuous
100
AcDbCircle
 10
2132.3238934521278
 20
3076.3468937001444
 30
0.0
 40
3.0
100
AcDbArc
 50
180.0
 51
266.99999999999432
  0
LINE
  5
357
100
AcDbEntity
  8
一般
370
               9
  6
Continuous
100
AcDbLine
 10
2121.5049712000537
 20
2988.4999999999991
 30
0.0
 11
2139.3238934521278
 21
2988.4999999999991
 31
0.0
  0
POINT
  5
358
100
AcDbEntity
  8
一般
370
               5
  6
Continuous
100
AcDbPoint
 10
2139.3238934521278
 20
2988.4999999999991
 30
0.0
  0
LINE
  5
359
100
AcDbEntity
  8
一般
370
              25
  6
Continuous
100
AcDbLine
 10
2139.8095506935479
 20
2598.937287744317
 30
0.0
 11
2196.5969827955396
 21
2650.0689212742382
 31
0.0
  0
POINT
  5
35A
100
AcDbEntity
  8
一般
370
               5
  6
Continuous
100
AcDbPoint
 10
2139.3238934521278
 20
2598.5
 30
0.0
  0
POINT
  5
35B
100
AcDbEntity
  8
一般
370
               5
  6
Continuous
100
AcDbPoint
 10
2199.3238934521287
 20
2648.5
 30
0.0
  0
POINT
  5
35C
100
AcDbEntity
  8
一般
370
               5
  6
Continuous
100
AcDbPoint
 10
2131.3238934521278
 20
2588.5
 30
0.0
  0
ARC
  5
35D
100
AcDbEntity
  8
一般
370
              25
  6
Continuous
100
AcDbCircle
 10
2062.7708615237671
 20
2798.6978863697168
 30
0.0
 40
200.00000000000037
100
AcDbArc
 50
312.00000000000011
 51
357.00000000000034
  0
LINE
  5
35E
100
AcDbEntity
  8
一般
370
               9
  6
Continuous
100
AcDbLine
 10
2134.236737709381
 20
3093.9425108982368
 30
0.0
 11
2146.3238934521278
 21
3095.0
 31
0.0
  0
LINE
  5
35F
100
AcDbEntity
  8
一般
370
               9
  6
Continuous
100
AcDbLine
 10
2146.3238934521278
 20
3095.0
 30
0.0
 11
2146.3238934521278
 21
3098.5
 31
0.0
  0
ARC
  5
360
100
AcDbEntity
  8
一般
370
              25
  6
Continuous
100
AcDbCircle
 10
2132.3238934521278
 20
3094.2636991980071
 30
0.0
 40
2.9999999999999738
100
AcDbArc
 50
94.999999999999844
 51
180.0
  0
LINE
  5
361
100
AcDbEntity
  8
一般
370
               9
  6
Continuous
100
AcDbLine
 10
2133.3238934521278
 20
3078.2365859569809
 30
0.0
 11
2133.3238934521278
 21
3092.9463162001448
 31
0.0
  0
ARC
  5
362
100
AcDbEntity
  8
一般
370
               9
  6
Continuous
100
AcDbCircle
 10
2133.3238934521278
 20
3067.2821348068801
 30
0.0
 40
10.0
100
AcDbArc
 50
0.0
 51
84.784091429542798
  0
LINE
  5
363
100
AcDbEntity
  8
3
370
               9
  6
Continuous
100
AcDbLine
 10
2144.208210571147
 20
3008.5601999192181
 30
0.0
 11
2143.3234404226901
 21
3067.3423347260991
 31
0.0
  0
ARC
  5
364
100
AcDbEntity
  8
一般
370
               9
  6
Continuous
100
AcDbCircle
 10
2134.323893452125
 20
3078.2365859569809
 30
0.0
 40
0.9999999999972715
100
AcDbArc
 50
180.0
 51
264.7840914297181
  0
ARC
  5
365
100
AcDbEntity
  8
一般
370
               9
  6
Continuous
100
AcDbCircle
 10
2134.3238934521278
 20
3092.9463162001448
 30
0.0
 40
1.0000000000002931
100
AcDbArc
 50
94.999999999998323
 51
180.0
  0
ARC
  5
366
100
AcDbEntity
  8
一般
370
              25
  6
Continuous
100
AcDbCircle
 10
2147.0989547055037
 20
2993.8426893073483
 30
0.0
 40
5.9999999999784661
100
AcDbArc
 50
185.63898492193283
 51
264.99999999999989
  0
ARC
  5
367
100
AcDbEntity
  8
3
370
              25
  6
Continuous
100
AcDbCircle
 10
2228.2483780817824
 20
2940.5673221832858
 30
0.0
 40
40.000000000000043
100
AcDbArc
 50
18.469766115795238
 51
85.000000000000057
  0
ARC
  5
368
100
AcDbEntity
  8
一般
370
              25
  6
Continuous
100
AcDbCircle
 10
2285.157835606944
 20
2959.5755741859084
 30
0.0
 40
20.00000000002759
100
AcDbArc
 50
198.46976611584924
 51
240.00000000000045
  0
ARC
  5
369
100
AcDbEntity
  8
3
370
               9
  6
Continuous
100
AcDbCircle
 10
2228.2483780817824
 20
2940.5673221832858
 30
0.0
 40
45.000000000000291
100
AcDbArc
 50
19.931252602368843
 51
84.999999999999517
  0
LINE
  5
36A
100
AcDbEntity
  8
3
370
               9
  6
Continuous
100
AcDbLine
 10
2146.9246432200098
 20
2991.8502999111861
 30
0.0
 11
2232.0832307626797
 21
2985.403623379033
 31
0.0
  0
LWPOLYLINE
  5
36B
100
AcDbEntity
  8
一般
370
               9
  6
Continuous
100
AcDbPolyline
 90
        9
 70
             128
 10
2145.1086331600909
 20
2993.6461692173352
 10
2144.933626068208
 20
2995.5095507529832
 10
2144.7764199709118
 20
2997.3745184397212
 10
2144.637029202449
 20
2999.2409022274969
 10
2144.515466472641
 20
3001.1085319371359
 10
2144.4117428657269
 20
3002.9772372758598
 10
2144.325867839354
 20
3004.8468478528121
 10
2144.2578492237117
 20
3006.717193194595
 10
2144.2076932208238
 20
3008.588102760817
  0
ARC
  5
36C
100
AcDbEntity
  8
一般
370
               9
  6
Continuous
100
AcDbCircle
 10
2147.0989547055037
 20
2993.8426893073483
 30
0.0
 40
1.999999999978795
100
AcDbArc
 50
185.63898492192882
 51
264.99999999999852
  0
ARC
  5
36D
100
AcDbEntity
  8
一般
370
               9
  6
Continuous
100
AcDbCircle
 10
2284.6545174877765
 20
2961.0208655758388
 30
0.0
 40
14.99999999999509
100
AcDbArc
 50
199.93125260235729
 51
240.00000000000085
  0
LINE
  5
36E
100
AcDbEntity
  8
3
370
               9
  6
Continuous
100
AcDbLine
 10
2135.2812688342869
 20
2552.192749729682
 30
0.0
 11
2146.3238934521278
 21
2552.0
 31
0.0
  0
ARC
  5
36F
100
AcDbEntity
  8
3
370
              25
  6
Continuous
100
AcDbCircle
 10
2135.3238934521278
 20
2554.6929196824731
 30
0.0
 40
6.0
100
AcDbArc
 50
180.0
 51
268.99999999999824
  0
ARC
  5
370
100
AcDbEntity
  8
3
370
              25
  6
Continuous
100
AcDbCircle
 10
2139.160645353877
 20
2585.4896914023202
 30
0.0
 40
8.0000000000002842
100
AcDbArc
 50
141.34019174591043
 51
176.63353933657052
  0
ARC
  5
371
100
AcDbEntity
  8
3
370
              25
  6
Continuous
100
AcDbCircle
 10
2145.1625955444188
 20
2592.992129140498
 30
0.0
 40
8.0000000000000639
100
AcDbArc
 50
131.99999999999994
 51
141.34019174590841
  0
LINE
  5
372
100
AcDbEntity
  8
3
370
               9
  6
Continuous
100
AcDbLine
 10
2133.319624900811
 20
2554.3098891638983
 30
0.0
 11
2135.1675478611769
 21
2585.7245794901264
 31
0.0
  0
LINE
  5
373
100
AcDbEntity
  8
3
370
               9
  6
Continuous
100
AcDbLine
 10
2136.0371701161048
 20
2587.9884715925382
 30
0.0
 11
2142.039120306647
 21
2595.4909093307151
 31
0.0
  0
LINE
  5
374
100
AcDbEntity
  8
一般
370
               9
  6
Continuous
100
AcDbLine
 10
2142.4860731189838
 20
2595.9647084424068
 30
0.0
 11
2199.9426358273336
 21
2646.353197146851
 31
0.0
  0
ARC
  5
375
100
AcDbEntity
  8
3
370
               9
  6
Continuous
100
AcDbCircle
 10
2139.160645353877
 20
2585.4896914023202
 30
0.0
 40
4.0000000000001421
100
AcDbArc
 50
141.34019174591043
 51
176.63353933656887
  0
ARC
  5
376
100
AcDbEntity
  8
3
370
               9
  6
Continuous
100
AcDbCircle
 10
2145.1625955444188
 20
2592.992129140498
 30
0.0
 40
3.999999999999948
100
AcDbArc
 50
132.00000000000102
 51
141.34019174591299
  0
ARC
  5
377
100
AcDbEntity
  8
3
370
               9
  6
Continuous
100
AcDbCircle
 10
2135.3161736471607
 20
2554.1924451199948
 30
0.0
 40
2.0000000000000897
100
AcDbArc
 50
176.63353933656563
 51
268.99999999999824
  0
ARC
  5
378
100
AcDbEntity
  8
一般
370
               9
  6
Continuous
100
AcDbCircle
 10
2062.7708615237671
 20
2798.6978863697168
 30
0.0
 40
205.00000000000065
100
AcDbArc
 50
312.00000000000011
 51
357.00000000000034
  0
LINE
  5
379
100
AcDbEntity
  8
3
370
               9
  6
Continuous
100
AcDbLine
 10
2271.5236021843712
 20
2864.9363299465872
 30
0.0
 11
2267.4899161484573
 21
2787.9690153399151
 31
0.0
  0
ARC
  5
37A
100
AcDbEntity
  8
一般
370
               9
  6
Continuous
100
AcDbCircle
 10
2282.6236290037987
 20
2880.5801031031333
 30
0.0
 40
9.9999999999998366
100
AcDbArc
 50
120.00000000000055
 51
172.07383330993554
  0
ARC
  5
37B
100
AcDbEntity
  8
1
370
              25
  6
Continuous
100
AcDbCircle
 10
1767.0
 20
3095.5
 30
0.0
 40
3.0
100
AcDbArc
 50
0.0
 51
90.0
  0
ARC
  5
37C
100
AcDbEntity
  8
1
370
              25
  6
Continuous
100
AcDbCircle
 10
1023.0
 20
3095.5
 30
0.0
 40
3.0
100
AcDbArc
 50
90.0
 51
180.0
  0
DIMENSION
  5
37D
100
AcDbEntity
  8
寸法
370
               9
  6
Continuous
100
AcDbDimension
  2
*D21
 10
1767.0
 20
3095.5
 30
0.0
 11
1780.4094618033187
 21
3103.0976188145369
 31
0.0
 70
               4
 71
               5
 72
               1
 41
1.0
 42
0.0
  3
Ekitchen
100
AcDbRadialDimension
 15
1769.5980762113531
 25
3097.0
 35
0.0
 40
12.19523762907364
1001
ACAD
1000
DSTYLE
1002
{
1070
             271
1070
               1
1070
             289
1070
               0
1070
             342
1005
86
1070
             340
1005
4A
1070
             140
1040
16.288411458333332
1070
               3
1000

1070
             174
1070
               0
1070
             147
1040
4.0
1002
}
  0
LINE
  5
37E
100
AcDbEntity
  8
2
370
              25
  6
Continuous
100
AcDbLine
 10
1578.821469087495
 20
2313.4465769249523
 30
0.0
 11
1655.0
 21
2314.7909039410551
 31
0.0
  0
LINE
  5
37F
100
AcDbEntity
  8
2
370
              25
  6
Continuous
100
AcDbLine
 10
1395.0
 20
2313.2909039410551
 30
0.0
 11
1561.177157434269
 21
2313.2909039410551
 31
0.0
  0
POINT
  5
380
100
AcDbEntity
  8
一般
370
               5
  6
Continuous
100
AcDbPoint
 10
1570.0
 20
2313.2909039410551
 30
0.0
  0
ARC
  5
381
100
AcDbEntity
  8
2
370
              25
  6
Continuous
100
AcDbCircle
 10
1561.1771574342761
 20
3313.2909039410533
 30
0.0
 40
999.99999999999818
100
AcDbArc
 50
269.99999999999972
 51
271.01099705233008
  0
LINE
  5
382
100
AcDbEntity
  8
2
370
              25
  6
Continuous
100
AcDbLine
 10
1135.869083356733
 20
2312.4031170428061
 30
0.0
 11
1157.8062854263601
 21
2252.1311497104934
 31
0.0
  0
LINE
  5
383
100
AcDbEntity
  8
一般
370
              25
  6
Continuous
100
AcDbLine
 10
1132.481373488675
 20
2315.4625376774084
 30
0.0
 11
1105.5725337211729
 21
2322.638228282075
 31
0.0
  0
POINT
  5
384
100
AcDbEntity
  8
一般
370
               5
  6
Continuous
100
AcDbPoint
 10
1135.0
 20
2314.7909039410551
 30
0.0
  0
ARC
  5
385
100
AcDbEntity
  8
一般
370
              25
  6
Continuous
100
AcDbCircle
 10
1131.193060235873
 20
2310.6313629794022
 30
0.0
 40
4.9999999999999014
100
AcDbArc
 50
19.999999999998373
 51
75.068582821863288
  0
LINE
  5
386
100
AcDbEntity
  8
一般
370
               9
  6
Continuous
100
AcDbLine
 10
1131.4507228864329
 20
2311.597597919003
 30
0.0
 11
1104.541883118932
 21
2318.773288523671
 31
0.0
  0
ARC
  5
387
100
AcDbEntity
  8
一般
370
               9
  6
Continuous
100
AcDbCircle
 10
1131.193060235873
 20
2310.6313629794022
 30
0.0
 40
0.9999999999998832
100
AcDbArc
 50
20.000000000005937
 51
75.068582821870834
  0
LINE
  5
388
100
AcDbEntity
  8
2
370
               9
  6
Continuous
100
AcDbLine
 10
1132.1103128735899
 20
2311.0350364695032
 30
0.0
 11
1153.107822322431
 21
2250.421048993865
 31
0.0
  0
LINE
  5
389
100
AcDbEntity
  8
2
370
              25
  6
Continuous
100
AcDbLine
 10
1211.178530912505
 20
2313.4465769249523
 30
0.0
 11
1135.0
 21
2314.7909039410551
 31
0.0
  0
LINE
  5
38A
100
AcDbEntity
  8
2
370
              25
  6
Continuous
100
AcDbLine
 10
1395.0
 20
2313.2909039410551
 30
0.0
 11
1228.8228425657301
 21
2313.2909039410551
 31
0.0
  0
POINT
  5
38B
100
AcDbEntity
  8
一般
370
               5
  6
Continuous
100
AcDbPoint
 10
1220.0
 20
2313.2909039410551
 30
0.0
  0
ARC
  5
38C
100
AcDbEntity
  8
2
370
              25
  6
Continuous
100
AcDbCircle
 10
1228.8228425657239
 20
3313.2909039410533
 30
0.0
 40
999.99999999999818
100
AcDbArc
 50
268.98900294766992
 51
270.00000000000034
  0
MTEXT
  5
38D
100
AcDbEntity
  8
一般
100
AcDbMText
 10
1019.171219453425
 20
2452.2352266123903
 30
0.0
 40
19.003146701388893
 41
0.0
 71
               1
 72
               1
  1
Sec  B - B
  7
ＭＳ ゴシック
 73
               1
 44
0.6736891036366471
  0
DIMENSION
  5
38E
100
AcDbEntity
  8
寸法
370
               9
  6
Continuous
100
AcDbDimension
  2
*D22
 10
2076.0
 20
2588.5
 30
0.0
 11
2072.0
 21
2598.0
 31
0.0
 70
             128
 71
               5
 72
               1
 41
1.0
 42
0.0
  3
Ekitchen
100
AcDbAlignedDimension
 13
2139.3238934521278
 23
2598.5
 33
0.0
 14
2131.3238934521278
 24
2588.5
 34
0.0
 50
90.0
100
AcDbRotatedDimension
1001
ACAD
1000
DSTYLE
1002
{
1070
             271
1070
               1
1070
             279
1070
               2
1070
             340
1005
4A
1070
             140
1040
16.288411458333332
1070
             147
1040
4.0
1002
}
  0
DIMENSION
  5
38F
100
AcDbEntity
  8
寸法
370
               9
  6
Continuous
100
AcDbDimension
  2
*D23
 10
1685.0
 20
2358.0
 30
0.0
 11
1670.0
 21
2358.0
 31
0.0
 71
               5
 72
               1
 41
1.0
 42
0.0
  3
Ekitchen
100
AcDbAlignedDimension
 13
1655.0
 23
2314.7909039410551
 33
0.0
 14
1685.0
 24
2323.7909039410551
 34
0.0
100
AcDbRotatedDimension
1001
ACAD
1000
DSTYLE
1002
{
1070
             271
1070
               1
1070
             279
1070
               2
1070
             340
1005
4A
1070
             140
1040
16.288411458333332
1070
             147
1040
4.0
1002
}
  0
DIMENSION
  5
390
100
AcDbEntity
  8
寸法
370
               9
  6
Continuous
100
AcDbDimension
  2
*D24
 10
1019.9706837635431
 20
2388.0
 30
0.0
 11
1062.485341881772
 21
2392.0
 31
0.0
 70
             128
 71
               5
 72
               1
 41
1.0
 42
0.0
  3
Ekitchen
100
AcDbAlignedDimension
 13
1105.0
 23
2317.969218917453
 33
0.0
 14
1019.9706837635431
 24
2316.790903952231
 34
0.0
100
AcDbRotatedDimension
1001
ACAD
1000
DSTYLE
1002
{
1070
             271
1070
               1
1070
             279
1070
               2
1070
             340
1005
4A
1070
             140
1040
16.288411458333332
1070
             147
1040
4.0
1002
}
  0
LINE
  5
391
100
AcDbEntity
  8
一般
370
               9
  6
STYLE_08
100
AcDbLine
 10
1325.0
 20
2918.5
 30
0.0
 11
973.0
 21
2918.5
 31
0.0
  0
LINE
  5
392
100
AcDbEntity
  8
一般
370
               9
  6
STYLE_08
100
AcDbLine
 10
1451.0
 20
2918.5
 30
0.0
 11
1821.0
 21
2918.5
 31
0.0
  0
LINE
  5
393
100
AcDbEntity
  8
一般
370
               9
  6
Continuous
100
AcDbLine
 10
985.0
 20
2918.5
 30
0.0
 11
985.0
 21
2939.5
 31
0.0
  0
LWPOLYLINE
  5
394
100
AcDbEntity
  8
一般
370
               9
  6
Continuous
100
AcDbPolyline
 90
        3
 70
             128
 10
981.59704525612506
 20
2926.8000000000002
 10
985.0
 20
2939.5
 10
988.40295474387494
 20
2926.8000000000002
  0
MTEXT
  5
395
100
AcDbEntity
  8
一般
100
AcDbMText
 10
980.73205080756907
 20
2913.2601429868155
 30
0.0
 40
16.288411458333332
 41
0.0
 71
               1
 72
               1
  1
B
  7
ＭＳ ゴシック
 73
               1
 44
0.7859706209094218
  0
LINE
  5
396
100
AcDbEntity
  8
一般
370
               9
  6
Continuous
100
AcDbLine
 10
1805.0
 20
2918.5
 30
0.0
 11
1805.0
 21
2939.5
 31
0.0
  0
LWPOLYLINE
  5
397
100
AcDbEntity
  8
一般
370
               9
  6
Continuous
100
AcDbPolyline
 90
        3
 70
             128
 10
1801.5970452561251
 20
2926.8000000000002
 10
1805.0
 20
2939.5
 10
1808.4029547438749
 20
2926.8000000000002
  0
MTEXT
  5
398
100
AcDbEntity
  8
一般
100
AcDbMText
 10
1800.7320508075691
 20
2913.2601429868155
 30
0.0
 40
16.288411458333332
 41
0.0
 71
               1
 72
               1
  1
B
  7
ＭＳ ゴシック
 73
               1
 44
0.7859706209094218
  0
MTEXT
  5
399
100
AcDbEntity
  8
寸法
100
AcDbMText
 10
2234.9489530721316
 20
2827.575555690129
 30
0.0
 40
16.288411458333332
 41
0.0
 71
               1
 72
               1
  1
3°
  7
ＭＳ ゴシック
 11
0.0
 21
1.0
 31
0.0
 73
               1
 44
0.7859706209094218
  0
DIMENSION
  5
39A
100
AcDbEntity
  8
寸法
370
               9
  6
Continuous
100
AcDbDimension
  2
*D25
 10
2135.3238934521278
 20
2554.6929196824731
 30
0.0
 11
2123.1671201983477
 21
2542.2861464286921
 31
0.0
 70
               4
 71
               5
 72
               1
 41
1.0
 42
0.0
  3
Ekitchen
100
AcDbRadialDimension
 15
2131.081252765006
 25
2550.4502789953513
 35
0.0
 40
11.545827000780811
1001
ACAD
1000
DSTYLE
1002
{
1070
             271
1070
               1
1070
             289
1070
               0
1070
             342
1005
86
1070
             340
1005
4A
1070
             140
1040
16.288411458333332
1070
               3
1000

1070
             174
1070
               0
1070
             147
1040
4.0
1002
}
  0
DIMENSION
  5
39B
100
AcDbEntity
  8
寸法
370
               9
  6
Continuous
100
AcDbDimension
  2
*D26
 10
2129.3238934521278
 20
2618.3188888859081
 30
0.0
 11
2123.0164947555363
 21
2622.3188888859081
 31
0.0
 70
             128
 71
               5
 72
               1
 41
1.0
 42
0.0
  3
Ekitchen
100
AcDbAlignedDimension
 13
2131.3238934521278
 23
2588.5
 33
0.0
 14
2129.3238934521278
 24
2594.5
 34
0.0
100
AcDbRotatedDimension
1001
ACAD
1000
DSTYLE
1002
{
1070
             271
1070
               1
1070
             279
1070
               2
1070
             340
1005
4A
1070
             140
1040
16.288411458333332
1070
             174
1070
               0
1070
             147
1040
4.0
1002
}
  0
DIMENSION
  5
39C
100
AcDbEntity
  8
寸法
370
               9
  6
Continuous
100
AcDbDimension
  2
*D27
 10
1633.0
 20
2324.7909039410551
 30
0.0
 11
1629.0
 21
2327.7909039410551
 31
0.0
 70
             128
 71
               5
 72
               1
 41
1.0
 42
0.0
  3
Ekitchen
100
AcDbAlignedDimension
 13
1685.0
 23
2322.7909039410551
 33
0.0
 14
1680.0
 24
2324.7909039410551
 34
0.0
 50
90.0
100
AcDbRotatedDimension
1001
ACAD
1000
DSTYLE
1002
{
1070
             271
1070
               1
1070
             279
1070
               2
1070
             340
1005
4A
1070
             140
1040
16.288411458333332
1070
             174
1070
               0
1070
             147
1040
4.0
1002
}
  0
INSERT
  5
39D
100
AcDbEntity
  8
一般
100
AcDbBlockReference
  2
*U35
 10
1658.7253569958009
 20
2673.1804991694953
 30
0.0
  0
LINE
  5
39E
100
AcDbEntity
  8
一般
370
              25
  6
Continuous
100
AcDbLine
 10
1734.1421356237311
 20
2307.7909039410551
 30
0.0
 11
1770.0
 21
2307.7909039410551
 31
0.0
  0
LINE
  5
39F
100
AcDbEntity
  8
一般
370
              25
  6
Continuous
100
AcDbLine
 10
1727.0710678118649
 20
2310.7198361291894
 30
0.0
 11
1718.18191265522
 21
2319.6089912858351
 31
0.0
  0
POINT
  5
3A0
100
AcDbEntity
  8
一般
370
               5
  6
Continuous
100
AcDbPoint
 10
1770.0
 20
2307.7909039410551
 30
0.0
  0
ARC
  5
3A1
100
AcDbEntity
  8
一般
370
              25
  6
Continuous
100
AcDbCircle
 10
1734.1421356237311
 20
2317.7909039410551
 30
0.0
 40
9.9999999999997584
100
AcDbArc
 50
225.0
 51
270.0
  0
LINE
  5
3A2
100
AcDbEntity
  8
一般
370
              25
  6
Continuous
100
AcDbLine
 10
1055.8578643762689
 20
2307.7909039410551
 30
0.0
 11
1020.0
 21
2307.7909039410551
 31
0.0
  0
LINE
  5
3A3
100
AcDbEntity
  8
一般
370
              25
  6
Continuous
100
AcDbLine
 10
1062.9289321881349
 20
2310.7198361291894
 30
0.0
 11
1071.81808734478
 21
2319.6089912858351
 31
0.0
  0
ARC
  5
3A4
100
AcDbEntity
  8
一般
370
              25
  6
Continuous
100
AcDbCircle
 10
1055.8578643762689
 20
2317.7909039410551
 30
0.0
 40
10.0
100
AcDbArc
 50
270.0
 51
315.00000000000091
  0
DIMENSION
  5
3A5
100
AcDbEntity
  8
寸法
370
               9
  6
Continuous
100
AcDbDimension
  2
*D36
 10
1803.0
 20
2307.7909039410551
 30
0.0
 11
1803.0
 21
2316.2909039410551
 31
0.0
 71
               5
 72
               1
 41
1.0
 42
0.0
  3
Ekitchen
100
AcDbAlignedDimension
 13
1766.0
 23
2324.7909039410551
 33
0.0
 14
1770.0
 24
2307.7909039410551
 34
0.0
 50
90.0
100
AcDbRotatedDimension
1001
ACAD
1000
DSTYLE
1002
{
1070
             271
1070
               1
1070
             279
1070
               2
1070
             340
1005
4A
1070
             140
1040
16.288411458333332
1070
             147
1040
4.0
1002
}
  0
MTEXT
  5
3A6
100
AcDbEntity
  8
一般
100
AcDbMText
 10
937.14888727399989
 20
2257.9647060935959
 30
0.0
 40
16.288411458333332
 41
0.0
 71
               1
 72
               1
  1
オーバーフロ用孔φ30
  7
ＭＳ ゴシック
 73
               1
 44
0.7073735588184801
  0
LINE
  5
3A7
100
AcDbEntity
  8
寸法
370
               9
  6
STYLE_06
100
AcDbLine
 10
1255.0
 20
2258.7909039410551
 30
0.0
 11
1255.0
 21
2345.7909039410551
 31
0.0
  0
LINE
  5
3A8
100
AcDbEntity
  8
寸法
370
               9
  6
STYLE_06
100
AcDbLine
 10
1288.0
 20
2284.7909039410551
 30
0.0
 11
1232.0
 21
2284.7909039410551
 31
0.0
  0
CIRCLE
  5
3A9
100
AcDbEntity
  8
一般
370
              20
  6
Continuous
100
AcDbCircle
 10
1255.0
 20
2284.7909039410551
 30
0.0
 40
15.0
  0
DIMENSION
  5
3AA
100
AcDbEntity
  8
寸法
370
               9
  6
Continuous
100
AcDbDimension
  2
*D37
 10
1395.0
 20
2345.7909039410551
 30
0.0
 11
1325.0
 21
2345.7909039410551
 31
0.0
 71
               5
 72
               1
 41
1.0
 42
0.0
  3
Ekitchen
100
AcDbAlignedDimension
 13
1255.0
 23
2345.7909039410551
 33
0.0
 14
1395.0
 24
2345.7909039410551
 34
0.0
100
AcDbRotatedDimension
1001
ACAD
1000
DSTYLE
1002
{
1070
             271
1070
               1
1070
             279
1070
               2
1070
             340
1005
4A
1070
             140
1040
16.288411458333332
1070
             147
1040
4.0
1002
}
  0
DIMENSION
  5
3AB
100
AcDbEntity
  8
寸法
370
               9
  6
Continuous
100
AcDbDimension
  2
*D38
 10
1304.0
 20
2284.7909039410551
 30
0.0
 11
1304.0
 21
2299.7909039410551
 31
0.0
 71
               5
 72
               1
 41
1.0
 42
0.0
  3
Ekitchen
100
AcDbAlignedDimension
 13
1286.0
 23
2314.7909039410551
 33
0.0
 14
1277.0
 24
2284.7909039410551
 34
0.0
 50
90.0
100
AcDbRotatedDimension
1001
ACAD
1000
DSTYLE
1002
{
1070
             271
1070
               1
1070
             279
1070
               2
1070
             340
1005
4A
1070
             140
1040
16.288411458333332
1070
             147
1040
4.0
1002
}
  0
LINE
  5
3AC
100
AcDbEntity
  8
一般
370
               9
  6
Continuous
100
AcDbLine
 10
1244.0
 20
2274.5928649138696
 30
0.0
 11
1201.543787088845
 21
2237.7390027236888
 31
0.0
  0
LWPOLYLINE
  5
3AD
102
{ACAD_REACTORS
330
3AE
102
}
100
AcDbEntity
  8
一般
370
               5
  6
Continuous
100
AcDbPolyline
 90
        3
 70
             129
 10
1240.278226903956
 20
2272.7776348876814
 10
1244.0
 20
2274.5928649138696
 10
1241.684464964799
 20
2271.1599430494562
  0
HATCH
  5
3AE
100
AcDbEntity
  8
一般
370
               0
  6
Continuous
 62
               7
100
AcDbHatch
 10
0.0
 20
0.0
 30
0.0
210
0.0
220
0.0
230
1.0
  2
SOLID
 70
               1
 71
               1
 91
        1
 92
        1
 93
        3
 72
               1
 10
1240.278226903956
 20
2272.7776348876814
 11
1244.0
 21
2274.5928649138696
 72
               1
 10
1244.0
 20
2274.5928649138696
 11
1241.684464964799
 21
2271.1599430494562
 72
               1
 10
1241.684464964799
 20
2271.1599430494562
 11
1240.278226903956
 21
2272.7776348876814
 97
        1
330
3AD
 75
               0
 76
               1
 98
        1
 10
0.0
 20
0.0
  0
LINE
  5
3AF
100
AcDbEntity
  8
一般
370
               9
  6
Continuous
100
AcDbLine
 10
937.30166407999877
 20
2237.7390027236888
 30
0.0
 11
1201.543787088845
 21
2237.7390027236888
 31
0.0
  0
POINT
  5
3B0
100
AcDbEntity
  8
一般
370
               5
  6
Continuous
100
AcDbPoint
 10
1395.0
 20
2324.7909039410551
 30
0.0
  0
POINT
  5
3B1
100
AcDbEntity
  8
一般
370
               5
  6
Continuous
100
AcDbPoint
 10
1395.0
 20
3098.5
 30
0.0
  0
POINT
  5
3B2
100
AcDbEntity
  8
一般
370
               5
  6
Continuous
100
AcDbPoint
 10
2135.2422694030029
 20
2586.9948457011601
 30
0.0
  0
POINT
  5
3B3
100
AcDbEntity
  8
一般
370
               5
  6
Continuous
100
AcDbPoint
 10
2133.3238934521278
 20
3093.662647374163
 30
0.0
  0
POINT
  5
3B4
100
AcDbEntity
  8
一般
370
               5
  6
Continuous
100
AcDbPoint
 10
2134.2329843612197
 20
3077.4407267615188
 30
0.0
  0
MTEXT
  5
3B5
100
AcDbEntity
  8
一般
100
AcDbMText
 10
2296.3324422539699
 20
2077.5741652509923
 30
0.0
 40
17.700900607638889
 41
0.0
 71
               1
 72
               1
  1
CT{\f小塚ゴシック Pr6N R|b0|i0|c0|p0;\H1.063x;\l型　}W{\f小塚ゴシック Pr6N R|b0|i0|c0|p0;\H1.063x;\l750}
  7
Arial
 73
               1
 44
1.3839975285758421
  0
ENDSEC
  0
SECTION
  2
OBJECTS
  0
DICTIONARY
  5
19
100
AcDbDictionary
280
               0
281
               1
  3
ACAD_GROUP
350
1A
  3
ACAD_MLINESTYLE
350
1B
  3
ACAD_LAYOUT
350
1E
  3
ACAD_PLOTSETTINGS
350
22
  3
ACAD_PLOTSTYLENAME
350
1F
  3
ACAD_WIPEOUT_VARS
350
23
  0
DICTIONARY
  5
1A
102
{ACAD_REACTORS
330
19
102
}
100
AcDbDictionary
280
               0
281
               1
  0
DICTIONARY
  5
1B
102
{ACAD_REACTORS
330
19
102
}
100
AcDbDictionary
280
               0
281
               1
  3
Standard
350
1C
  0
MLINESTYLE
  5
1C
102
{ACAD_REACTORS
330
1B
102
}
100
AcDbMlineStyle
  2
Standard
 70
               0
  3

 62
               0
 51
90.0
 52
90.0
 71
               2
 49
0.5
 62
             256
  6
ByLayer
 49
-0.5
 62
             256
  6
ByLayer
  0
ACDBDICTIONARYWDFLT
  5
1F
102
{ACAD_REACTORS
330
19
102
}
100
AcDbDictionary
281
               1
  3
Normal
350
1D
100
AcDbDictionaryWithDefault
340
1D
  0
ACDBPLACEHOLDER
  5
1D
102
{ACAD_REACTORS
330
1F
102
}
  0
LAYOUT
  5
20
102
{ACAD_REACTORS
330
1E
102
}
100
AcDbPlotSettings
  1

  2

  4

  6

 40
0.0
 41
0.0
 42
0.0
 43
0.0
 44
0.0
 45
0.0
 46
0.0
 47
0.0
 48
0.0
 49
0.0
140
0.0
141
0.0
142
1.0
143
1.0
 70
            1024
 72
               0
 73
               0
 74
               0
  7

 75
               0
147
1.0
148
0.0
149
0.0
100
AcDbLayout
  1
Model
 70
               0
 71
               0
 10
0.0
 20
0.0
 11
0.0
 21
0.0
 12
0.0
 22
0.0
 32
0.0
 14
0.0
 24
0.0
 34
0.0
 15
0.0
 25
0.0
 35
0.0
146
0.0
 13
0.0
 23
0.0
 33
0.0
 16
0.0
 26
0.0
 36
0.0
 17
0.0
 27
0.0
 37
0.0
 76
               0
330
A
331
0
345
0
346
0
  0
LAYOUT
  5
21
102
{ACAD_REACTORS
330
1E
102
}
100
AcDbPlotSettings
  1

  2

  4

  6

 40
0.0
 41
0.0
 42
0.0
 43
0.0
 44
0.0
 45
0.0
 46
0.0
 47
0.0
 48
0.0
 49
0.0
140
0.0
141
0.0
142
1.0
143
1.0
 70
               0
 72
               0
 73
               0
 74
               0
  7

 75
               0
147
1.0
148
0.0
149
0.0
100
AcDbLayout
  1
Layout1
 70
               0
 71
               0
 10
0.0
 20
0.0
 11
0.0
 21
0.0
 12
0.0
 22
0.0
 32
0.0
 14
0.0
 24
0.0
 34
0.0
 15
0.0
 25
0.0
 35
0.0
146
0.0
 13
0.0
 23
0.0
 33
0.0
 16
0.0
 26
0.0
 36
0.0
 17
0.0
 27
0.0
 37
0.0
 76
               0
330
B
331
0
345
0
346
0
  0
DICTIONARY
  5
1E
102
{ACAD_REACTORS
330
19
102
}
100
AcDbDictionary
280
               0
281
               1
  3
Layout1
350
21
  3
Model
350
20
  0
DICTIONARY
  5
22
102
{ACAD_REACTORS
330
19
102
}
100
AcDbDictionary
280
               0
281
               1
  0
WIPEOUTVARIABLES
  5
23
100
AcDbWipeoutVariables
 70
               0
  0
ENDSEC
  0
EOF
