  0
SECTION
  2
HEADER
  9
$ACADVER
  1
AC1015
  9
$ACADMAINTVER
 70
               6
  9
$DWGCODEPAGE
  3
ANSI_932
  9
$INSBASE
 10
0.0
 20
0.0
 30
0.0
  9
$EXTMIN
 10
695.26354358775757
 20
-820.71995589056996
 30
0.0
  9
$EXTMAX
 10
2625.2635435877573
 20
5987.641042448422
 30
0.0
  9
$LIMMIN
 10
0.0
 20
0.0
  9
$LIMMAX
 10
0.0
 20
0.0
  9
$ORTHOMODE
 70
               0
  9
$REGENMODE
 70
               1
  9
$FILLMODE
 70
               1
  9
$QTEXTMODE
 70
               0
  9
$MIRRTEXT
 70
               1
  9
$LTSCALE
 40
6.3499999999999996
  9
$ATTMODE
 70
               1
  9
$TEXTSIZE
 40
0.2
  9
$TRACEWID
 40
1.0
  9
$TEXTSTYLE
  7
Standard
  9
$CLAYER
  8
一般
  9
$CELTYPE
  6
Continuous
  9
$CECOLOR
 62
             256
  9
$CELTSCALE
 40
1.0
  9
$DISPSILH
 70
               0
  9
$DIMSCALE
 40
1.0
  9
$DIMASZ
 40
7.5034179687499991
  9
$DIMEXO
 40
4.9999999999999991
  9
$DIMDLI
 40
7.9999999999999991
  9
$DIMRND
 40
0.0
  9
$DIMDLE
 40
0.0
  9
$DIMEXE
 40
0.0
  9
$DIMTP
 40
0.0
  9
$DIMTM
 40
0.0
  9
$DIMTXT
 40
2.6735572782084409
  9
$DIMCEN
 40
0.0
  9
$DIMTSZ
 40
0.0
  9
$DIMTOL
 70
               0
  9
$DIMLIM
 70
               0
  9
$DIMTIH
 70
               0
  9
$DIMTOH
 70
               0
  9
$DIMSE1
 70
               0
  9
$DIMSE2
 70
               0
  9
$DIMTAD
 70
               1
  9
$DIMZIN
 70
              11
  9
$DIMBLK
  1
VW_FILLEDARROW
  9
$DIMASO
 70
               1
  9
$DIMSHO
 70
               1
  9
$DIMPOST
  1
<>
  9
$DIMAPOST
  1
[]
  9
$DIMALT
 70
               0
  9
$DIMALTD
 70
               2
  9
$DIMALTF
 40
1.0
  9
$DIMLFAC
 40
1.0
  9
$DIMTOFL
 70
               1
  9
$DIMTVP
 40
0.0
  9
$DIMTIX
 70
               1
  9
$DIMSOXD
 70
               0
  9
$DIMSAH
 70
               0
  9
$DIMBLK1
  1

  9
$DIMBLK2
  1

  9
$DIMSTYLE
  2
Ekitchen
  9
$DIMCLRD
 70
               0
  9
$DIMCLRE
 70
               0
  9
$DIMCLRT
 70
               0
  9
$DIMTFAC
 40
0.8
  9
$DIMGAP
 40
0.7999999999999999
  9
$DIMJUST
 70
               0
  9
$DIMSD1
 70
               0
  9
$DIMSD2
 70
               0
  9
$DIMTOLJ
 70
               1
  9
$DIMTZIN
 70
              11
  9
$DIMALTZ
 70
              11
  9
$DIMALTTZ
 70
              11
  9
$DIMUPT
 70
               0
  9
$DIMDEC
 70
               2
  9
$DIMTDEC
 70
               2
  9
$DIMALTU
 70
               2
  9
$DIMALTTD
 70
               2
  9
$DIMTXSTY
  7
ＭＳ ゴシック
  9
$DIMAUNIT
 70
               0
  9
$DIMADEC
 70
               0
  9
$DIMALTRND
 40
0.0
  9
$DIMAZIN
 70
               0
  9
$DIMDSEP
 70
              46
  9
$DIMATFIT
 70
               0
  9
$DIMFRAC
 70
               2
  9
$DIMLDRBLK
  1

  9
$DIMLUNIT
 70
               2
  9
$DIMLWD
 70
              -2
  9
$DIMLWE
 70
              -2
  9
$DIMTMOVE
 70
               0
  9
$LUNITS
 70
               2
  9
$LUPREC
 70
               4
  9
$SKETCHINC
 40
0.1
  9
$FILLETRAD
 40
0.0
  9
$AUNITS
 70
               0
  9
$AUPREC
 70
               0
  9
$MENU
  1
acad
  9
$ELEVATION
 40
0.0
  9
$PELEVATION
 40
0.0
  9
$THICKNESS
 40
0.0
  9
$LIMCHECK
 70
               0
  9
$CHAMFERA
 40
0.0
  9
$CHAMFERB
 40
0.0
  9
$CHAMFERC
 40
0.0
  9
$CHAMFERD
 40
0.0
  9
$SKPOLY
 70
               0
  9
$TDCREATE
 40
2458285.529513889
  9
$TDUCREATE
 40
0.000000000
  9
$TDUPDATE
 40
2458285.529513889
  9
$TDUUPDATE
 40
0.000000000
  9
$TDINDWG
 40
0.0000000000
  9
$TDUSRTIMER
 40
0.0000000000
  9
$USRTIMER
 70
               1
  9
$ANGBASE
 50
0.0
  9
$ANGDIR
 70
               0
  9
$PDMODE
 70
               1
  9
$PDSIZE
 40
-2.0
  9
$PLINEWID
 40
0.0
  9
$SPLFRAME
 70
               0
  9
$SPLINETYPE
 70
               6
  9
$SPLINESEGS
 70
               8
  9
$HANDSEED
  5
398
  9
$SURFTAB1
 70
               6
  9
$SURFTAB2
 70
               6
  9
$SURFTYPE
 70
               6
  9
$SURFU
 70
               6
  9
$SURFV
 70
               6
  9
$UCSBASE
  2

  9
$UCSNAME
  2

  9
$UCSORG
 10
0.0
 20
0.0
 30
0.0
  9
$UCSXDIR
 10
1.0
 20
0.0
 30
0.0
  9
$UCSYDIR
 10
0.0
 20
1.0
 30
0.0
  9
$UCSORTHOREF
  2

  9
$UCSORTHOVIEW
 70
               0
  9
$UCSORGTOP
 10
0.0
 20
0.0
 30
0.0
  9
$UCSORGBOTTOM
 10
0.0
 20
0.0
 30
0.0
  9
$UCSORGLEFT
 10
0.0
 20
0.0
 30
0.0
  9
$UCSORGRIGHT
 10
0.0
 20
0.0
 30
0.0
  9
$UCSORGFRONT
 10
0.0
 20
0.0
 30
0.0
  9
$UCSORGBACK
 10
0.0
 20
0.0
 30
0.0
  9
$PUCSBASE
  2

  9
$PUCSNAME
  2

  9
$PUCSORG
 10
0.0
 20
0.0
 30
0.0
  9
$PUCSXDIR
 10
1.0
 20
0.0
 30
0.0
  9
$PUCSYDIR
 10
0.0
 20
1.0
 30
0.0
  9
$PUCSORTHOREF
  2

  9
$PUCSORTHOVIEW
 70
               0
  9
$PUCSORGTOP
 10
0.0
 20
0.0
 30
0.0
  9
$PUCSORGBOTTOM
 10
0.0
 20
0.0
 30
0.0
  9
$PUCSORGLEFT
 10
0.0
 20
0.0
 30
0.0
  9
$PUCSORGRIGHT
 10
0.0
 20
0.0
 30
0.0
  9
$PUCSORGFRONT
 10
0.0
 20
0.0
 30
0.0
  9
$PUCSORGBACK
 10
0.0
 20
0.0
 30
0.0
  9
$USERI1
 70
               0
  9
$USERI2
 70
               0
  9
$USERI3
 70
               0
  9
$USERI4
 70
               0
  9
$USERI5
 70
               0
  9
$USERR1
 40
0.0
  9
$USERR2
 40
0.0
  9
$USERR3
 40
0.0
  9
$USERR4
 40
0.0
  9
$USERR5
 40
0.0
  9
$WORLDVIEW
 70
               1
  9
$SHADEDGE
 70
               3
  9
$SHADEDIF
 70
              70
  9
$TILEMODE
 70
               1
  9
$MAXACTVP
 70
              16
  9
$PINSBASE
 10
0.0
 20
0.0
 30
0.0
  9
$PLIMCHECK
 70
               0
  9
$PEXTMIN
 10
1.0000000000000000E+20
 20
1.0000000000000000E+20
 30
1.0000000000000000E+20
  9
$PEXTMAX
 10
-1.0000000000000000E+20
 20
-1.0000000000000000E+20
 30
-1.0000000000000000E+20
  9
$PLIMMIN
 10
0.0
 20
0.0
  9
$PLIMMAX
 10
12.0
 20
9.0
  9
$UNITMODE
 70
               0
  9
$VISRETAIN
 70
               0
  9
$PLINEGEN
 70
               1
  9
$PSLTSCALE
 70
               0
  9
$TREEDEPTH
 70
            3020
  9
$CMLSTYLE
  2
Standard
  9
$CMLJUST
 70
               0
  9
$CMLSCALE
 40
1.0
  9
$PROXYGRAPHICS
 70
               0
  9
$MEASUREMENT
 70
               1
  9
$CELWEIGHT
370
               0
  9
$ENDCAPS
280
               0
  9
$JOINSTYLE
280
               0
  9
$LWDISPLAY
290
               1
  9
$INSUNITS
 70
               4
  9
$HYPERLINKBASE
  1

  9
$STYLESHEET
  1

  9
$XEDIT
290
               1
  9
$CEPSNTYPE
380
               0
  9
$PSTYLEMODE
290
               1
  9
$FINGERPRINTGUID
  2

  9
$VERSIONGUID
  2

  9
$EXTNAMES
290
               1
  9
$PSVPSCALE
 40
0.0
  0
ENDSEC
  0
SECTION
  2
CLASSES
  0
CLASS
  1
LWPOLYLINE
  2
AcDbPolyline
  3
AutoCAD 2000
 90
        0
280
               0
281
               1
  0
CLASS
  1
IMAGE
  2
AcDbRasterImage
  3
ISM
 90
    32895
280
               0
281
               1
  0
CLASS
  1
OLE2FRAME
  2
AcDbOle2Frame
  3
AutoCAD 2000
 90
    32768
280
               0
281
               1
  0
CLASS
  1
HATCH
  2
AcDbHatch
  3
AutoCAD 2000
 90
        0
280
               0
281
               1
  0
CLASS
  1
DICTIONARYVAR
  2
AcDbDictionaryVar
  3
AutoCAD 2000
 90
    32768
280
               0
281
               0
  0
CLASS
  1
RASTERVARIABLES
  2
AcDbRasterVariables
  3
ISM
 90
    32768
280
               0
281
               0
  0
CLASS
  1
IMAGEDEF
  2
AcDbRasterImageDef
  3
ISM
 90
    32768
280
               0
281
               0
  0
CLASS
  1
IMAGEDEF_REACTOR
  2
AcDbRasterImageDefReactor
  3
ISM
 90
    32769
280
               0
281
               0
  0
CLASS
  1
IDBUFFER
  2
AcDbIdBuffer
  3
AutoCAD 2000
 90
    32768
280
               0
281
               0
  0
CLASS
  1
SPATIAL_FILTER
  2
AcDbSpatialFilter
  3
AutoCAD 2000
 90
    32768
280
               0
281
               0
  0
CLASS
  1
XRECORD
  2
AcDbXrecord
  3
AutoCAD 2000
 90
    32768
280
               0
281
               0
  0
CLASS
  1
SORTENTSTABLE
  2
AcDbSortentsTable
  3
AutoCAD 2000
 90
    32768
280
               0
281
               0
  0
CLASS
  1
LAYER_INDEX
  2
AcDbLayerIndex
  3
AutoCAD 2000
 90
    32768
280
               0
281
               0
  0
CLASS
  1
SPATIAL_INDEX
  2
AcDbSpatialIndex
  3
AutoCAD 2000
 90
    32768
280
               0
281
               0
  0
CLASS
  1
OBJECT_PTR
  2
CAseDLPNTableRecord
  3
"ASE-LPNTableRecord"
 90
    32769
280
               0
281
               0
  0
CLASS
  1
LAYOUT
  2
AcDbLayout
  3
AutoCAD 2000
 90
        0
280
               0
281
               0
  0
CLASS
  1
PLOTSETTINGS
  2
AcDbPlotSettings
  3
AutoCAD 2000
 90
    32768
280
               0
281
               0
  0
CLASS
  1
ACDBDICTIONARYWDFLT
  2
AcDbDictionaryWithDefault
  3
AutoCAD 2000
 90
        0
280
               0
281
               0
  0
CLASS
  1
ACDBPLACEHOLDER
  2
AcDbPlaceHolder
  3
AutoCAD 2000
 90
        0
280
               0
281
               0
  0
CLASS
  1
VBA_PROJECT
  2
AcDbVbaProject
  3
acadvba
 90
    32768
280
               0
281
               0
  0
CLASS
  1
WIPEOUT
  2
AcDbWipeout
  3
WipeOut|AutoCAD Express Tool|expresstools@autodesk.com
 90
      127
280
               0
281
               1
  0
CLASS
  1
WIPEOUTVARIABLES
  2
AcDbWipeoutVariables
  3
WipeOut|AutoCAD Express Tool|expresstools@autodesk.com
 90
        0
280
               0
281
               0
  0
CLASS
  1
RTEXT
  2
RText
  3
RText|AutoCAD Express Tool|expresstools@autodesk.com
 90
    32768
280
               0
281
               1
  0
CLASS
  1
ARCALIGNEDTEXT
  2
AcDbArcAlignedText
  3
ATEXT|AutoCAD Express Tool|expresstools@autodesk.com
 90
    32768
280
               0
281
               1
  0
ENDSEC
  0
SECTION
  2
TABLES
  0
TABLE
  2
VPORT
  5
7
100
AcDbSymbolTable
 70
               1
  0
VPORT
  5
15
100
AcDbSymbolTableRecord
100
AcDbViewportTableRecord
  2
*ACTIVE
 70
               0
 10
0.0
 20
0.0
 11
1.0
 21
1.0
 12
1660.2635435877573
 22
2583.4605432789263
 13
0.0
 23
0.0
 14
1.0
 24
1.0
 15
0.0
 25
0.0
 16
0.0
 26
0.0
 36
1.0
 17
0.0
 27
0.0
 37
0.0
 40
6808.3609983389924
 41
0.688564
 42
50.0
 43
0.0
 44
0.0
 50
0.0
 51
0.0
 71
               0
 72
             100
 73
               1
 74
               1
 75
               0
 76
               0
 77
               0
 78
               0
281
               0
 65
               0
110
0.0
120
0.0
130
0.0
111
1.0
121
0.0
131
0.0
112
0.0
122
1.0
132
0.0
345
0
346
0
 79
               0
146
0.0
  0
ENDTAB
  0
TABLE
  2
LTYPE
  5
4
100
AcDbSymbolTable
 70
              22
  0
LTYPE
  5
11
100
AcDbSymbolTableRecord
100
AcDbLinetypeTableRecord
  2
ByBlock
 70
              64
  3

 72
              65
 73
               0
 40
0.0
  0
LTYPE
  5
12
100
AcDbSymbolTableRecord
100
AcDbLinetypeTableRecord
  2
ByLayer
 70
              64
  3

 72
              65
 73
               0
 40
0.0
  0
LTYPE
  5
13
100
AcDbSymbolTableRecord
100
AcDbLinetypeTableRecord
  2
Continuous
 70
              64
  3
Solid line
 72
              65
 73
               0
 40
0.0
  0
LTYPE
  5
4A
100
AcDbSymbolTableRecord
100
AcDbLinetypeTableRecord
  2
STYLE_01
 70
               0
  3

 72
              65
 73
               2
 40
0.166656
 49
0.083312
 74
               0
 49
-0.083344
 74
               0
  0
LTYPE
  5
4B
100
AcDbSymbolTableRecord
100
AcDbLinetypeTableRecord
  2
STYLE_02
 70
               0
  3

 72
              65
 73
               2
 40
0.27777
 49
0.194428
 74
               0
 49
-0.083342
 74
               0
  0
LTYPE
  5
4C
100
AcDbSymbolTableRecord
100
AcDbLinetypeTableRecord
  2
STYLE_03
 70
               0
  3

 72
              65
 73
               2
 40
0.5
 49
0.416656
 74
               0
 49
-0.083344
 74
               0
  0
LTYPE
  5
4D
100
AcDbSymbolTableRecord
100
AcDbLinetypeTableRecord
  2
STYLE_04
 70
               0
  3

 72
              65
 73
               2
 40
0.611084
 49
0.52777
 74
               0
 49
-0.083314
 74
               0
  0
LTYPE
  5
4E
100
AcDbSymbolTableRecord
100
AcDbLinetypeTableRecord
  2
STYLE_05
 70
               0
  3

 72
              65
 73
               2
 40
0.083312
 49
0.02777
 74
               0
 49
-0.055542
 74
               0
  0
LTYPE
  5
4F
100
AcDbSymbolTableRecord
100
AcDbLinetypeTableRecord
  2
STYLE_06
 70
               0
  3

 72
              65
 73
               4
 40
0.416656
 49
0.25
 74
               0
 49
-0.083312
 74
               0
 49
0.027772
 74
               0
 49
-0.055572
 74
               0
  0
LTYPE
  5
50
100
AcDbSymbolTableRecord
100
AcDbLinetypeTableRecord
  2
STYLE_07
 70
               0
  3

 72
              65
 73
               6
 40
0.7500000000000002
 49
0.25
 74
               0
 49
-0.083312
 74
               0
 49
0.2500000000000001
 74
               0
 49
-0.0833440000000001
 74
               0
 49
0.0277720000000001
 74
               0
 49
-0.055572
 74
               0
  0
LTYPE
  5
51
100
AcDbSymbolTableRecord
100
AcDbLinetypeTableRecord
  2
STYLE_08
 70
               0
  3

 72
              65
 73
               6
 40
0.5
 49
0.25
 74
               0
 49
-0.083312
 74
               0
 49
0.027772
 74
               0
 49
-0.055572
 74
               0
 49
0.027772
 74
               0
 49
-0.055572
 74
               0
  0
LTYPE
  5
52
100
AcDbSymbolTableRecord
100
AcDbLinetypeTableRecord
  2
STYLE_09
 70
               0
  3

 72
              65
 73
               4
 40
2.0
 49
1.5000000000000002
 74
               0
 49
-0.1111139999999999
 74
               0
 49
0.277772
 74
               0
 49
-0.1111139999999999
 74
               0
  0
LTYPE
  5
53
100
AcDbSymbolTableRecord
100
AcDbLinetypeTableRecord
  2
STYLE_10
 70
               0
  3

 72
              65
 73
               6
 40
2.375
 49
1.5000000000000002
 74
               0
 49
-0.1111139999999999
 74
               0
 49
0.277772
 74
               0
 49
-0.1111139999999999
 74
               0
 49
0.2499999999999999
 74
               0
 49
-0.1250000000000001
 74
               0
  0
LTYPE
  5
54
100
AcDbSymbolTableRecord
100
AcDbLinetypeTableRecord
  2
STYLE_11
 70
               0
  3

 72
              65
 73
               4
 40
1.111114501953125
 49
0.9444580078125
 74
               0
 49
-0.0555419921875
 74
               0
 49
0.0555419921875
 74
               0
 49
-0.055572509765625
 74
               0
  0
LTYPE
  5
55
100
AcDbSymbolTableRecord
100
AcDbLinetypeTableRecord
  2
STYLE_12
 70
               0
  3

 72
              65
 73
               6
 40
0.9166666666666669
 49
0.611114501953125
 74
               0
 49
-0.0555521647135417
 74
               0
 49
0.0555555555555556
 74
               0
 49
-0.0833333333333335
 74
               0
 49
0.0555555555555556
 74
               0
 49
-0.0555555555555555
 74
               0
  0
LTYPE
  5
56
100
AcDbSymbolTableRecord
100
AcDbLinetypeTableRecord
  2
STYLE_13
 70
               0
  3

 72
              65
 73
               8
 40
1.02
 49
0.48
 74
               0
 49
-0.12
 74
               0
 49
0.02
 74
               0
 49
-0.12
 74
               0
 49
0.02
 74
               0
 49
-0.12
 74
               0
 49
0.02
 74
               0
 49
-0.12
 74
               0
  0
LTYPE
  5
57
100
AcDbSymbolTableRecord
100
AcDbLinetypeTableRecord
  2
STYLE_14
 70
               0
  3

 72
              65
 73
              10
 40
1.6200000000000006
 49
0.48
 74
               0
 49
-0.12
 74
               0
 49
0.48
 74
               0
 49
-0.1200000000000003
 74
               0
 49
0.02
 74
               0
 49
-0.1200000000000001
 74
               0
 49
0.02
 74
               0
 49
-0.1200000000000001
 74
               0
 49
0.02
 74
               0
 49
-0.1200000000000001
 74
               0
  0
LTYPE
  5
58
100
AcDbSymbolTableRecord
100
AcDbLinetypeTableRecord
  2
STYLE_15
 70
               0
  3

 72
              65
 73
               2
 40
0.333248
 49
0.166624
 74
               0
 49
-0.166624
 74
               0
  0
LTYPE
  5
59
100
AcDbSymbolTableRecord
100
AcDbLinetypeTableRecord
  2
STYLE_16
 70
               0
  3

 72
              65
 73
               2
 40
0.55548
 49
0.388856
 74
               0
 49
-0.166624
 74
               0
  0
LTYPE
  5
5A
100
AcDbSymbolTableRecord
100
AcDbLinetypeTableRecord
  2
STYLE_17
 70
               0
  3

 72
              65
 73
               2
 40
4.5
 49
3.0000000000000004
 74
               0
 49
-1.4999999999999996
 74
               0
  0
LTYPE
  5
5B
100
AcDbSymbolTableRecord
100
AcDbLinetypeTableRecord
  2
STYLE_18
 70
               0
  3

 72
              65
 73
               2
 40
16.0
 49
15.0
 74
               0
 49
-1.0000000000000009
 74
               0
  0
LTYPE
  5
5C
100
AcDbSymbolTableRecord
100
AcDbLinetypeTableRecord
  2
STYLE_19
 70
               0
  3

 72
              65
 73
               2
 40
16.0
 49
15.0
 74
               0
 49
-1.0000000000000009
 74
               0
  0
ENDTAB
  0
TABLE
  2
LAYER
  5
2
100
AcDbSymbolTable
 70
              33
  0
LAYER
  5
14
100
AcDbSymbolTableRecord
100
AcDbLayerTableRecord
  2
0
 70
               0
 62
               7
  6
Continuous
290
               1
370
              20
390
1D
  0
LAYER
  5
5D
100
AcDbSymbolTableRecord
100
AcDbLayerTableRecord
  2
Defpoints
 70
               0
 62
               7
  6
Continuous
290
               0
370
              -3
390
1D
  0
LAYER
  5
5E
100
AcDbSymbolTableRecord
100
AcDbLayerTableRecord
  2
一般
 70
               0
 62
               7
  6
Continuous
290
               1
370
               9
390
1D
  0
LAYER
  5
5F
100
AcDbSymbolTableRecord
100
AcDbLayerTableRecord
  2
寸法
 70
               0
 62
               7
  6
Continuous
290
               1
370
               9
390
1D
  0
LAYER
  5
60
100
AcDbSymbolTableRecord
100
AcDbLayerTableRecord
  2
文字-室名
 70
               1
 62
               7
  6
Continuous
290
               1
370
               5
390
1D
  0
LAYER
  5
61
100
AcDbSymbolTableRecord
100
AcDbLayerTableRecord
  2
文字-メモ
 70
               1
 62
               7
  6
Continuous
290
               1
370
               5
390
1D
  0
LAYER
  5
62
100
AcDbSymbolTableRecord
100
AcDbLayerTableRecord
  2
線-通り芯
 70
               1
 62
               7
  6
STYLE_06
290
               1
370
               5
390
1D
  0
LAYER
  5
63
100
AcDbSymbolTableRecord
100
AcDbLayerTableRecord
  2
線-詳細
 70
               1
 62
               7
  6
Continuous
290
               1
370
               5
390
1D
  0
LAYER
  5
64
100
AcDbSymbolTableRecord
100
AcDbLayerTableRecord
  2
床
 70
               1
 62
               7
  6
Continuous
290
               1
370
               5
390
1D
  0
LAYER
  5
65
100
AcDbSymbolTableRecord
100
AcDbLayerTableRecord
  2
線-仕上線
 70
               1
 62
               7
  6
Continuous
290
               1
370
              30
390
1D
  0
LAYER
  5
66
100
AcDbSymbolTableRecord
100
AcDbLayerTableRecord
  2
線-躯体
 70
               1
 62
               7
  6
Continuous
290
               1
370
               5
390
1D
  0
LAYER
  5
67
100
AcDbSymbolTableRecord
100
AcDbLayerTableRecord
  2
工事区分-計画
 70
               1
 62
               7
  6
Continuous
290
               1
370
               5
390
1D
  0
LAYER
  5
68
100
AcDbSymbolTableRecord
100
AcDbLayerTableRecord
  2
工事区分-既存
 70
               1
 62
               7
  6
Continuous
290
               1
370
               5
390
1D
  0
LAYER
  5
69
100
AcDbSymbolTableRecord
100
AcDbLayerTableRecord
  2
家具
 70
               1
 62
               7
  6
Continuous
290
               1
370
               5
390
1D
  0
LAYER
  5
6A
100
AcDbSymbolTableRecord
100
AcDbLayerTableRecord
  2
sunpo
 70
               0
 62
               7
  6
Continuous
290
               1
370
              15
390
1D
  0
LAYER
  5
6B
100
AcDbSymbolTableRecord
100
AcDbLayerTableRecord
  2
ﾀｲﾄﾙ枠
 70
               0
 62
               7
  6
Continuous
290
               1
370
              30
390
1D
  0
LAYER
  5
6C
100
AcDbSymbolTableRecord
100
AcDbLayerTableRecord
  2
view
 70
               1
 62
               7
  6
Continuous
290
               1
370
              15
390
1D
  0
LAYER
  5
6D
100
AcDbSymbolTableRecord
100
AcDbLayerTableRecord
  2
Defpoints
 70
               0
 62
               7
  6
Continuous
290
               0
370
              15
390
1D
  0
LAYER
  5
6E
100
AcDbSymbolTableRecord
100
AcDbLayerTableRecord
  2
sen-h
 70
               0
 62
               7
  6
STYLE_17
290
               1
370
              15
390
1D
  0
LAYER
  5
6F
100
AcDbSymbolTableRecord
100
AcDbLayerTableRecord
  2
sen-c
 70
               0
 62
               7
  6
STYLE_18
290
               1
370
              15
390
1D
  0
LAYER
  5
70
100
AcDbSymbolTableRecord
100
AcDbLayerTableRecord
  2
sen2
 70
               0
 62
               7
  6
Continuous
290
               1
370
              15
390
1D
  0
LAYER
  5
71
100
AcDbSymbolTableRecord
100
AcDbLayerTableRecord
  2
sen-p
 70
               0
 62
               7
  6
STYLE_03
290
               1
370
               9
390
1D
  0
LAYER
  5
72
100
AcDbSymbolTableRecord
100
AcDbLayerTableRecord
  2
1_2
 70
               0
 62
               7
  6
STYLE_03
290
               1
370
              15
390
1D
  0
LAYER
  5
73
100
AcDbSymbolTableRecord
100
AcDbLayerTableRecord
  2
レイヤー_1
 70
               0
 62
               7
  6
Continuous
290
               1
370
              20
390
1D
  0
LAYER
  5
74
100
AcDbSymbolTableRecord
100
AcDbLayerTableRecord
  2
sunpo2
 70
               0
 62
               7
  6
Continuous
290
               1
370
               9
390
1D
  0
LAYER
  5
75
100
AcDbSymbolTableRecord
100
AcDbLayerTableRecord
  2
補強
 70
               0
 62
               7
  6
STYLE_03
290
               1
370
               9
390
1D
  0
LAYER
  5
76
100
AcDbSymbolTableRecord
100
AcDbLayerTableRecord
  2
水栓
 70
               0
 62
               7
  6
Continuous
290
               1
370
               9
390
1D
  0
LAYER
  5
77
100
AcDbSymbolTableRecord
100
AcDbLayerTableRecord
  2
1
 70
               0
 62
               7
  6
Continuous
290
               1
370
               9
390
1D
  0
LAYER
  5
78
100
AcDbSymbolTableRecord
100
AcDbLayerTableRecord
  2
3
 70
               0
 62
               7
  6
Continuous
290
               1
370
               9
390
1D
  0
LAYER
  5
79
100
AcDbSymbolTableRecord
100
AcDbLayerTableRecord
  2
2
 70
               0
 62
               7
  6
Continuous
290
               1
370
               9
390
1D
  0
LAYER
  5
7A
100
AcDbSymbolTableRecord
100
AcDbLayerTableRecord
  2
補助グリッド-1
 70
               0
 62
               7
  6
Continuous
290
               1
370
              13
390
1D
  0
LAYER
  5
7B
100
AcDbSymbolTableRecord
100
AcDbLayerTableRecord
  2
カットライン
 70
               0
 62
               7
  6
STYLE_19
290
               1
370
              15
390
1D
  0
LAYER
  5
7C
100
AcDbSymbolTableRecord
100
AcDbLayerTableRecord
  2
_Viewport_Crop
 70
               1
 62
               7
  6
Continuous
290
               1
370
              15
390
1D
  0
ENDTAB
  0
TABLE
  2
STYLE
  5
3
100
AcDbSymbolTable
 70
               4
  0
STYLE
  5
17
100
AcDbSymbolTableRecord
100
AcDbTextStyleTableRecord
  2
Standard
 70
               0
 40
0.0
 41
1.0
 50
0.0
 71
               0
 42
0.0
  3
txt
  4
BIGFONT.SHX
  0
STYLE
  5
47
100
AcDbSymbolTableRecord
100
AcDbTextStyleTableRecord
  2
Arial
 70
               0
 40
0.0
 41
1.0
 50
0.0
 71
               0
 42
0.0
  3
Arial
  4

1001
ACAD
1000
Arial
1071
        0
  0
STYLE
  5
48
100
AcDbSymbolTableRecord
100
AcDbTextStyleTableRecord
  2
ＭＳ ゴシック
 70
               0
 40
0.0
 41
1.0
 50
0.0
 71
               0
 42
0.0
  3
ＭＳ ゴシック
  4

1001
ACAD
1000
ＭＳ ゴシック
1071
        0
  0
STYLE
  5
49
100
AcDbSymbolTableRecord
100
AcDbTextStyleTableRecord
  2
メイリオ
 70
               0
 40
0.0
 41
1.0
 50
0.0
 71
               0
 42
0.0
  3
メイリオ
  4

1001
ACAD
1000
メイリオ
1071
        0
  0
ENDTAB
  0
TABLE
  2
VIEW
  5
5
100
AcDbSymbolTable
 70
               0
  0
ENDTAB
  0
TABLE
  2
UCS
  5
6
100
AcDbSymbolTable
 70
               0
  0
ENDTAB
  0
TABLE
  2
APPID
  5
8
100
AcDbSymbolTable
 70
               1
  0
APPID
  5
16
100
AcDbSymbolTableRecord
100
AcDbRegAppTableRecord
  2
ACAD
 70
               0
  0
ENDTAB
  0
TABLE
  2
DIMSTYLE
  5
9
100
AcDbSymbolTable
 70
               2
100
AcDbDimStyleTable
 71
               0
  0
DIMSTYLE
105
18
100
AcDbSymbolTableRecord
100
AcDbDimStyleTableRecord
  2
Standard
 70
               0
  3

  4

 40
1.0
 41
0.18
 42
0.0625
 43
0.38
 44
0.18
 45
0.0
 46
0.0
 47
0.0
 48
0.0
 71
               0
 72
               0
 73
               1
 74
               1
 75
               0
 76
               0
 77
               0
 78
               0
 79
               0
140
0.18
141
0.09
142
0.0
143
25.399999999999999
144
1.0
145
0.0
146
1.0
147
0.09
148
0.0
170
               0
171
               2
172
               0
173
               0
174
               0
175
               0
176
               0
177
               0
178
               0
179
               0
271
               4
272
               4
273
               2
274
               2
275
               0
276
               0
277
               2
278
              46
279
               0
280
               0
281
               0
282
               0
283
               1
284
               0
285
               0
286
               0
288
               0
340
17
341
0
342
0
343
0
344
0
371
              -2
372
              -2
  0
DIMSTYLE
105
85
100
AcDbSymbolTableRecord
100
AcDbDimStyleTableRecord
  2
Ekitchen
 70
               0
  3
<>
  4
[]
 40
1.0
 41
7.5034179687499991
 42
4.9999999999999991
 43
7.9999999999999991
 44
0.0
 45
0.0
 46
0.0
 47
0.0
 48
0.0
 71
               0
 72
               0
 73
               0
 74
               0
 75
               0
 76
               0
 77
               1
 78
              11
 79
               0
140
2.6735572782084409
141
0.0
142
0.0
143
1.0
144
1.0
145
0.0
146
0.8
147
0.7999999999999999
148
0.0
170
               0
171
               2
172
               1
173
               0
174
               1
175
               0
176
               0
177
               0
178
               0
179
               0
271
               2
272
               2
273
               2
274
               2
275
               0
276
               2
277
               2
278
              46
279
               0
280
               0
281
               0
282
               0
283
               1
284
              11
285
              11
286
              11
288
               0
340
48
341
81
342
7D
343
0
344
0
371
              -2
372
              -2
  0
ENDTAB
  0
TABLE
  2
BLOCK_RECORD
  5
1
100
AcDbSymbolTable
 70
              37
  0
BLOCK_RECORD
  5
A
100
AcDbSymbolTableRecord
100
AcDbBlockTableRecord
  2
*MODEL_SPACE
340
20
  0
BLOCK_RECORD
  5
B
100
AcDbSymbolTableRecord
100
AcDbBlockTableRecord
  2
*PAPER_SPACE
340
21
  0
BLOCK_RECORD
  5
7D
100
AcDbSymbolTableRecord
100
AcDbBlockTableRecord
  2
VW_FILLEDARROW
340
0
  0
BLOCK_RECORD
  5
81
100
AcDbSymbolTableRecord
100
AcDbBlockTableRecord
  2
VW_FILLEDARROW-1
340
0
  0
BLOCK_RECORD
  5
24
100
AcDbSymbolTableRecord
100
AcDbBlockTableRecord
  2
*D2
340
0
  0
BLOCK_RECORD
  5
25
100
AcDbSymbolTableRecord
100
AcDbBlockTableRecord
  2
*D3
340
0
  0
BLOCK_RECORD
  5
26
100
AcDbSymbolTableRecord
100
AcDbBlockTableRecord
  2
*D4
340
0
  0
BLOCK_RECORD
  5
27
100
AcDbSymbolTableRecord
100
AcDbBlockTableRecord
  2
*D5
340
0
  0
BLOCK_RECORD
  5
28
100
AcDbSymbolTableRecord
100
AcDbBlockTableRecord
  2
グループ-2-2
340
0
102
{BLKREFS
331
289
102
}
  0
BLOCK_RECORD
  5
29
100
AcDbSymbolTableRecord
100
AcDbBlockTableRecord
  2
*D7
340
0
  0
BLOCK_RECORD
  5
2A
100
AcDbSymbolTableRecord
100
AcDbBlockTableRecord
  2
*D8
340
0
  0
BLOCK_RECORD
  5
2B
100
AcDbSymbolTableRecord
100
AcDbBlockTableRecord
  2
*D9
340
0
  0
BLOCK_RECORD
  5
2C
100
AcDbSymbolTableRecord
100
AcDbBlockTableRecord
  2
*D10
340
0
  0
BLOCK_RECORD
  5
2D
100
AcDbSymbolTableRecord
100
AcDbBlockTableRecord
  2
*D11
340
0
  0
BLOCK_RECORD
  5
2E
100
AcDbSymbolTableRecord
100
AcDbBlockTableRecord
  2
*D12
340
0
  0
BLOCK_RECORD
  5
2F
100
AcDbSymbolTableRecord
100
AcDbBlockTableRecord
  2
*D13
340
0
  0
BLOCK_RECORD
  5
30
100
AcDbSymbolTableRecord
100
AcDbBlockTableRecord
  2
*D14
340
0
  0
BLOCK_RECORD
  5
31
100
AcDbSymbolTableRecord
100
AcDbBlockTableRecord
  2
*D15
340
0
  0
BLOCK_RECORD
  5
32
100
AcDbSymbolTableRecord
100
AcDbBlockTableRecord
  2
*D16
340
0
  0
BLOCK_RECORD
  5
33
100
AcDbSymbolTableRecord
100
AcDbBlockTableRecord
  2
*D17
340
0
  0
BLOCK_RECORD
  5
34
100
AcDbSymbolTableRecord
100
AcDbBlockTableRecord
  2
*D18
340
0
  0
BLOCK_RECORD
  5
35
100
AcDbSymbolTableRecord
100
AcDbBlockTableRecord
  2
*D19
340
0
  0
BLOCK_RECORD
  5
36
100
AcDbSymbolTableRecord
100
AcDbBlockTableRecord
  2
*D20
340
0
  0
BLOCK_RECORD
  5
37
100
AcDbSymbolTableRecord
100
AcDbBlockTableRecord
  2
*D21
340
0
  0
BLOCK_RECORD
  5
38
100
AcDbSymbolTableRecord
100
AcDbBlockTableRecord
  2
*D22
340
0
  0
BLOCK_RECORD
  5
39
100
AcDbSymbolTableRecord
100
AcDbBlockTableRecord
  2
*D23
340
0
  0
BLOCK_RECORD
  5
3A
100
AcDbSymbolTableRecord
100
AcDbBlockTableRecord
  2
*D24
340
0
  0
BLOCK_RECORD
  5
3B
100
AcDbSymbolTableRecord
100
AcDbBlockTableRecord
  2
*D25
340
0
  0
BLOCK_RECORD
  5
3C
100
AcDbSymbolTableRecord
100
AcDbBlockTableRecord
  2
*U26
340
0
102
{BLKREFS
331
228
102
}
  0
BLOCK_RECORD
  5
3D
100
AcDbSymbolTableRecord
100
AcDbBlockTableRecord
  2
*U27
340
0
102
{BLKREFS
331
22B
102
}
  0
BLOCK_RECORD
  5
3E
100
AcDbSymbolTableRecord
100
AcDbBlockTableRecord
  2
*D28
340
0
  0
BLOCK_RECORD
  5
3F
100
AcDbSymbolTableRecord
100
AcDbBlockTableRecord
  2
*D29
340
0
  0
BLOCK_RECORD
  5
40
100
AcDbSymbolTableRecord
100
AcDbBlockTableRecord
  2
*D30
340
0
  0
BLOCK_RECORD
  5
41
100
AcDbSymbolTableRecord
100
AcDbBlockTableRecord
  2
*U31
340
0
102
{BLKREFS
331
232
102
}
  0
BLOCK_RECORD
  5
42
100
AcDbSymbolTableRecord
100
AcDbBlockTableRecord
  2
*U32
340
0
102
{BLKREFS
331
234
102
}
  0
BLOCK_RECORD
  5
43
100
AcDbSymbolTableRecord
100
AcDbBlockTableRecord
  2
*U33
340
0
102
{BLKREFS
331
382
102
}
  0
BLOCK_RECORD
  5
44
100
AcDbSymbolTableRecord
100
AcDbBlockTableRecord
  2
*D34
340
0
  0
BLOCK_RECORD
  5
45
100
AcDbSymbolTableRecord
100
AcDbBlockTableRecord
  2
*D35
340
0
  0
BLOCK_RECORD
  5
46
100
AcDbSymbolTableRecord
100
AcDbBlockTableRecord
  2
*D36
340
0
  0
ENDTAB
  0
ENDSEC
  0
SECTION
  2
BLOCKS
  0
BLOCK
  5
D
100
AcDbEntity
  8
0
100
AcDbBlockBegin
  2
*MODEL_SPACE
 70
               0
 10
0.0
 20
0.0
 30
0.0
  3
*MODEL_SPACE
  1

  0
ENDBLK
  5
E
100
AcDbEntity
  8
0
100
AcDbBlockEnd
  0
BLOCK
  5
F
100
AcDbEntity
 67
               1
  8
0
100
AcDbBlockBegin
  2
*PAPER_SPACE
 70
               0
 10
0.0
 20
0.0
 30
0.0
  3
*PAPER_SPACE
  1

  0
ENDBLK
  5
10
100
AcDbEntity
 67
               1
  8
0
100
AcDbBlockEnd
  0
BLOCK
  5
7E
100
AcDbEntity
  8
0
370
              -2
  6
ByBlock
 62
               0
100
AcDbBlockBegin
  2
VW_FILLEDARROW
 70
               0
 10
0.0
 20
0.0
 30
0.0
  3
VW_FILLEDARROW
  1

  0
SOLID
  5
7F
100
AcDbEntity
  8
0
370
              -2
 62
               0
100
AcDbTrace
 10
0.0
 20
0.0
 30
0.0
 11
-0.9999389648437499
 21
-0.2679328381102956
 31
0.0
 12
-0.9999389648437499
 22
0.2679328381102958
 32
0.0
 13
-0.9999389648437499
 23
0.2679328381102958
 33
0.0
  0
ENDBLK
  5
80
100
AcDbEntity
  8
0
100
AcDbBlockEnd
  0
BLOCK
  5
82
100
AcDbEntity
  8
0
370
              -2
  6
ByBlock
 62
               0
100
AcDbBlockBegin
  2
VW_FILLEDARROW-1
 70
               0
 10
0.0
 20
0.0
 30
0.0
  3
VW_FILLEDARROW
  1

  0
SOLID
  5
83
100
AcDbEntity
  8
0
370
              -2
 62
               0
100
AcDbTrace
 10
0.0
 20
0.0
 30
0.0
 11
-2.1083984375
 21
-0.5649436586511659
 31
0.0
 12
-2.1083984374999996
 22
0.5649436586511665
 32
0.0
 13
-2.1083984374999996
 23
0.5649436586511665
 33
0.0
  0
ENDBLK
  5
84
100
AcDbEntity
  8
0
100
AcDbBlockEnd
  0
BLOCK
  5
86
100
AcDbEntity
  8
寸法
100
AcDbBlockBegin
  2
*D2
 70
               1
 10
0.0
 20
0.0
 30
0.0
  3
*D2
  1

  0
ARC
  5
87
100
AcDbEntity
  8
寸法
370
              -2
  6
Continuous
 62
               0
100
AcDbCircle
 10
814.77917634292282
 20
5961.6256316557683
 30
0.0
 40
26.015410792654166
100
AcDbArc
 50
270.0
 51
269.00000000000148
  0
SOLID
  5
88
100
AcDbEntity
  8
寸法
370
              -2
 62
               0
100
AcDbTrace
 10
814.32514482013721
 20
5935.6141831361865
 30
0.0
 11
798.37832547293226
 21
5931.6381945166468
 31
0.0
 12
798.52679984612678
 22
5940.1442856601097
 32
0.0
 13
798.52679984612678
 23
5940.1442856601097
 33
0.0
  0
SOLID
  5
89
100
AcDbEntity
  8
寸法
370
              -2
 62
               0
100
AcDbTrace
 10
814.77917634292282
 20
5935.6102208631146
 30
0.0
 11
830.65417634292282
 21
5939.8639142929587
 31
0.0
 12
830.65417634292282
 22
5931.3565274332705
 32
0.0
 13
830.65417634292282
 23
5931.3565274332705
 33
0.0
  0
WIPEOUT
  5
8A
100
AcDbEntity
  8
寸法
370
              -2
  6
Continuous
 62
               0
 92
        0
100
AcDbWipeout
 90
        0
 10
806.85074438766731
 20
5002.0433657526328
 30
0.0
 11
9.0506433678067424
 21
0.0
 31
0.0
 12
0.0
 22
9.0506433678067424
 32
0.0
 13
1.0
 23
1.0
340
0
 70
               7
280
               1
281
              50
282
              50
283
               0
360
0
 71
               2
 91
        5
 14
-0.5
 24
-102.39637442318347
 14
0.4522071978905865
 24
-102.27689241406765
 14
0.5
 24
-102.65777528097534
 14
-0.4522071978905866
 24
-102.77725729009117
 14
-0.5
 24
-102.39637442318347
  0
MTEXT
  5
8B
100
AcDbEntity
  8
寸法
 62
               0
100
AcDbMText
 10
807.24416722999717
 20
5936.4571224496685
 30
0.0
 40
2.6735572782084409
 41
0.0
 71
               1
 72
               1
  1
359° 
  7
ＭＳ ゴシック
 11
0.9922192709510687
 21
-0.1245026841209852
 31
0.0
 73
               1
 44
0.7828267384257843
  0
POINT
  5
8C
100
AcDbEntity
  8
Defpoints
370
               0
 62
               0
100
AcDbPoint
 10
700.09336751163119
 20
-608.71995589056996
 30
0.0
  0
POINT
  5
8D
100
AcDbEntity
  8
Defpoints
370
               0
 62
               0
100
AcDbPoint
 10
814.77917634292282
 20
-820.71995589056996
 30
0.0
  0
POINT
  5
8E
100
AcDbEntity
  8
Defpoints
370
               0
 62
               0
100
AcDbPoint
 10
814.77917634292282
 20
5961.6256316557683
 30
0.0
  0
ENDBLK
  5
8F
100
AcDbEntity
  8
寸法
100
AcDbBlockEnd
  0
BLOCK
  5
90
100
AcDbEntity
  8
寸法
100
AcDbBlockBegin
  2
*D3
 70
               1
 10
0.0
 20
0.0
 30
0.0
  3
*D3
  1

  0
LINE
  5
91
100
AcDbEntity
  8
寸法
370
              -2
  6
Continuous
 62
               0
100
AcDbLine
 10
1595.0
 20
2273.7208912983169
 30
0.0
 11
1595.0
 21
2303.2208912983174
 31
0.0
  0
LINE
  5
92
100
AcDbEntity
  8
寸法
370
              -2
  6
Continuous
 62
               0
100
AcDbLine
 10
1155.0
 20
2282.7208912983169
 30
0.0
 11
1155.0
 21
2303.2208912983174
 31
0.0
  0
LINE
  5
93
100
AcDbEntity
  8
寸法
370
              -2
  6
Continuous
 62
               0
100
AcDbLine
 10
1595.0
 20
2303.2208912983174
 30
0.0
 11
1155.0
 21
2303.2208912983174
 31
0.0
  0
SOLID
  5
94
100
AcDbEntity
  8
寸法
370
              -2
 62
               0
100
AcDbTrace
 10
1595.0
 20
2303.2208912983174
 30
0.0
 11
1587.49658203125
 21
2301.2103565131179
 31
0.0
 12
1587.49658203125
 22
2305.2314260835174
 32
0.0
 13
1587.49658203125
 23
2305.2314260835174
 33
0.0
  0
SOLID
  5
95
100
AcDbEntity
  8
寸法
370
              -2
 62
               0
100
AcDbTrace
 10
1155.0
 20
2303.2208912983174
 30
0.0
 11
1162.50341796875
 21
2305.2314260835174
 31
0.0
 12
1162.50341796875
 22
2301.2103565131179
 32
0.0
 13
1162.50341796875
 23
2301.2103565131179
 33
0.0
  0
WIPEOUT
  5
96
100
AcDbEntity
  8
寸法
370
              -2
  6
Continuous
 62
               0
 92
        0
100
AcDbWipeout
 90
        0
 10
1353.413911182698
 20
1384.6072249367576
 30
0.0
 11
31.75
 21
0.0
 31
0.0
 12
0.0
 22
31.75
 32
0.0
 13
1.0
 23
1.0
340
0
 70
               7
280
               1
281
              50
282
              50
283
               0
360
0
 71
               2
 91
        5
 14
-0.5
 24
-28.797543297359621
 14
0.5
 24
-28.797543297359621
 14
0.5
 24
-29.464209964026299
 14
-0.5
 24
-29.464209964026299
 14
-0.5
 24
-28.797543297359621
  0
MTEXT
  5
97
100
AcDbEntity
  8
寸法
 62
               0
100
AcDbMText
 10
1353.413911182698
 20
2334.0559694195927
 30
0.0
 40
16.288411458333332
 41
0.0
 71
               1
 72
               1
  1
440
  7
ＭＳ ゴシック
 73
               1
 44
0.7828267384257843
  0
POINT
  5
98
100
AcDbEntity
  8
Defpoints
370
               0
 62
               0
100
AcDbPoint
 10
1155.0
 20
2277.7208912983169
 30
0.0
  0
POINT
  5
99
100
AcDbEntity
  8
Defpoints
370
               0
 62
               0
100
AcDbPoint
 10
1595.0
 20
2268.7208912983169
 30
0.0
  0
POINT
  5
9A
100
AcDbEntity
  8
Defpoints
370
               0
 62
               0
100
AcDbPoint
 10
1595.0
 20
2303.2208912983169
 30
0.0
  0
ENDBLK
  5
9B
100
AcDbEntity
  8
寸法
100
AcDbBlockEnd
  0
BLOCK
  5
9C
100
AcDbEntity
  8
寸法
100
AcDbBlockBegin
  2
*D4
 70
               1
 10
0.0
 20
0.0
 30
0.0
  3
*D4
  1

  0
LINE
  5
9D
100
AcDbEntity
  8
寸法
370
              -2
  6
Continuous
 62
               0
100
AcDbLine
 10
1675.0
 20
3035.0
 30
0.0
 11
1675.0
 21
3116.0
 31
0.0
  0
LINE
  5
9E
100
AcDbEntity
  8
寸法
370
              -2
  6
Continuous
 62
               0
100
AcDbLine
 10
1075.0
 20
3035.0
 30
0.0
 11
1075.0
 21
3116.0
 31
0.0
  0
LINE
  5
9F
100
AcDbEntity
  8
寸法
370
              -2
  6
Continuous
 62
               0
100
AcDbLine
 10
1675.0
 20
3116.0
 30
0.0
 11
1075.0
 21
3116.0
 31
0.0
  0
SOLID
  5
A0
100
AcDbEntity
  8
寸法
370
              -2
 62
               0
100
AcDbTrace
 10
1675.0
 20
3116.0
 30
0.0
 11
1667.49658203125
 21
3113.9894652148005
 31
0.0
 12
1667.49658203125
 22
3118.0105347851995
 32
0.0
 13
1667.49658203125
 23
3118.0105347851995
 33
0.0
  0
SOLID
  5
A1
100
AcDbEntity
  8
寸法
370
              -2
 62
               0
100
AcDbTrace
 10
1075.0
 20
3116.0
 30
0.0
 11
1082.50341796875
 21
3118.0105347851995
 31
0.0
 12
1082.50341796875
 22
3113.9894652148005
 32
0.0
 13
1082.50341796875
 23
3113.9894652148005
 33
0.0
  0
WIPEOUT
  5
A2
100
AcDbEntity
  8
寸法
370
              -2
  6
Continuous
 62
               0
 92
        0
100
AcDbWipeout
 90
        0
 10
1359.125
 20
2186.6030003058513
 30
0.0
 11
31.75
 21
0.0
 31
0.0
 12
0.0
 22
31.75
 32
0.0
 13
1.0
 23
1.0
340
0
 70
               7
280
               1
281
              50
282
              50
283
               0
360
0
 71
               2
 91
        5
 14
-0.5
 24
-28.797543297359635
 14
0.5
 24
-28.797543297359635
 14
0.5
 24
-29.464209964026299
 14
-0.5
 24
-29.464209964026299
 14
-0.5
 24
-28.797543297359635
  0
MTEXT
  5
A3
100
AcDbEntity
  8
寸法
 62
               0
100
AcDbMText
 10
1359.125
 20
3136.0517447886864
 30
0.0
 40
16.288411458333332
 41
0.0
 71
               1
 72
               1
  1
600
  7
ＭＳ ゴシック
 73
               1
 44
0.7828267384257843
  0
POINT
  5
A4
100
AcDbEntity
  8
Defpoints
370
               0
 62
               0
100
AcDbPoint
 10
1075.0
 20
3030.0
 30
0.0
  0
POINT
  5
A5
100
AcDbEntity
  8
Defpoints
370
               0
 62
               0
100
AcDbPoint
 10
1675.0
 20
3030.0
 30
0.0
  0
POINT
  5
A6
100
AcDbEntity
  8
Defpoints
370
               0
 62
               0
100
AcDbPoint
 10
1675.0
 20
3116.0
 30
0.0
  0
ENDBLK
  5
A7
100
AcDbEntity
  8
寸法
100
AcDbBlockEnd
  0
BLOCK
  5
A8
100
AcDbEntity
  8
寸法
100
AcDbBlockBegin
  2
*D5
 70
               1
 10
0.0
 20
0.0
 30
0.0
  3
*D5
  1

  0
LINE
  5
A9
100
AcDbEntity
  8
寸法
370
              -2
  6
Continuous
 62
               0
100
AcDbLine
 10
1414.0
 20
2253.2208912871406
 30
0.0
 11
1400.0
 21
2253.2208912871406
 31
0.0
  0
LINE
  5
AA
100
AcDbEntity
  8
寸法
370
              -2
  6
Continuous
 62
               0
100
AcDbLine
 10
1379.999999999998
 20
2113.2208912871406
 30
0.0
 11
1400.0
 21
2113.2208912871406
 31
0.0
  0
LINE
  5
AB
100
AcDbEntity
  8
寸法
370
              -2
  6
Continuous
 62
               0
100
AcDbLine
 10
1400.0
 20
2253.2208912871406
 30
0.0
 11
1400.0
 21
2113.2208912871406
 31
0.0
  0
SOLID
  5
AC
100
AcDbEntity
  8
寸法
370
              -2
 62
               0
100
AcDbTrace
 10
1400.0
 20
2253.2208912871406
 30
0.0
 11
1402.0105347851998
 21
2245.7174733183906
 31
0.0
 12
1397.9894652148002
 22
2245.7174733183906
 32
0.0
 13
1397.9894652148002
 23
2245.7174733183906
 33
0.0
  0
SOLID
  5
AD
100
AcDbEntity
  8
寸法
370
              -2
 62
               0
100
AcDbTrace
 10
1400.0
 20
2113.2208912871406
 30
0.0
 11
1397.9894652148002
 21
2120.7243092558906
 31
0.0
 12
1402.0105347851998
 22
2120.7243092558906
 32
0.0
 13
1402.0105347851998
 23
2120.7243092558906
 33
0.0
  0
WIPEOUT
  5
AE
100
AcDbEntity
  8
寸法
370
              -2
  6
Continuous
 62
               0
 92
        0
100
AcDbWipeout
 90
        0
 10
1390.4166666666665
 20
1240.0083915959726
 30
0.0
 11
31.75
 21
0.0
 31
0.0
 12
0.0
 22
31.75
 32
0.0
 13
1.0
 23
1.0
340
0
 70
               7
280
               1
281
              50
282
              50
283
               0
360
0
 71
               2
 91
        5
 14
0.1666666666666619
 24
-28.797543297359621
 14
0.1666666666666619
 24
-29.797543297359621
 14
-0.5
 24
-29.797543297359621
 14
-0.5
 24
-28.797543297359621
 14
0.1666666666666619
 24
-28.797543297359621
  0
MTEXT
  5
AF
100
AcDbEntity
  8
寸法
 62
               0
100
AcDbMText
 10
1392.3315885416664
 20
2170.2053912871406
 30
0.0
 40
16.288411458333332
 41
0.0
 71
               1
 72
               1
  1
140
  7
ＭＳ ゴシック
 11
0.0
 21
1.0
 31
0.0
 73
               1
 44
0.7828267384257843
  0
POINT
  5
B0
100
AcDbEntity
  8
Defpoints
370
               0
 62
               0
100
AcDbPoint
 10
1374.999999999998
 20
2113.2208912871406
 30
0.0
  0
POINT
  5
B1
100
AcDbEntity
  8
Defpoints
370
               0
 62
               0
100
AcDbPoint
 10
1419.0
 20
2253.2208912871406
 30
0.0
  0
POINT
  5
B2
100
AcDbEntity
  8
Defpoints
370
               0
 62
               0
100
AcDbPoint
 10
1400.0
 20
2253.2208912871406
 30
0.0
  0
ENDBLK
  5
B3
100
AcDbEntity
  8
寸法
100
AcDbBlockEnd
  0
BLOCK
  5
B4
100
AcDbEntity
  8
一般
100
AcDbBlockBegin
  2
グループ-2-2
 70
               0
 10
0.0
 20
0.0
 30
0.0
  3
グループ-2-2
  1

  0
CIRCLE
  5
B5
100
AcDbEntity
  8
一般
370
               9
  6
STYLE_01
 62
               0
100
AcDbCircle
 10
623.11541607852178
 20
2062.3113203098778
 30
0.0
 40
3.0
  0
CIRCLE
  5
B6
100
AcDbEntity
  8
一般
370
               9
  6
STYLE_01
 62
               0
100
AcDbCircle
 10
623.11541607852178
 20
2062.3113203098778
 30
0.0
 40
7.75
  0
POINT
  5
B7
100
AcDbEntity
  8
一般
370
               5
  6
Continuous
 62
               0
100
AcDbPoint
 10
623.115416078522
 20
2062.3113203098778
 30
0.0
  0
CIRCLE
  5
B8
100
AcDbEntity
  8
一般
370
               9
  6
STYLE_01
 62
               0
100
AcDbCircle
 10
623.11541607852178
 20
2062.3113203098778
 30
0.0
 40
9.3000000000001819
  0
CIRCLE
  5
B9
100
AcDbEntity
  8
一般
370
               9
  6
STYLE_01
 62
               0
100
AcDbCircle
 10
606.76820919840179
 20
2011.9997908161331
 30
0.0
 40
3.0
  0
CIRCLE
  5
BA
100
AcDbEntity
  8
一般
370
               9
  6
STYLE_01
 62
               0
100
AcDbCircle
 10
606.76820919840179
 20
2011.9997908161331
 30
0.0
 40
7.75
  0
POINT
  5
BB
100
AcDbEntity
  8
一般
370
               5
  6
Continuous
 62
               0
100
AcDbPoint
 10
606.76820919840179
 20
2011.9997908161331
 30
0.0
  0
CIRCLE
  5
BC
100
AcDbEntity
  8
一般
370
               9
  6
STYLE_01
 62
               0
100
AcDbCircle
 10
606.76820919840179
 20
2011.9997908161331
 30
0.0
 40
9.2999999999997272
  0
CIRCLE
  5
BD
100
AcDbEntity
  8
一般
370
               9
  6
STYLE_01
 62
               0
100
AcDbCircle
 10
649.56575243168345
 20
1980.9055555630059
 30
0.0
 40
3.0
  0
CIRCLE
  5
BE
100
AcDbEntity
  8
一般
370
               9
  6
STYLE_01
 62
               0
100
AcDbCircle
 10
649.56575243168345
 20
1980.9055555630059
 30
0.0
 40
7.75
  0
POINT
  5
BF
100
AcDbEntity
  8
一般
370
               5
  6
Continuous
 62
               0
100
AcDbPoint
 10
649.56575243168345
 20
1980.9055555630059
 30
0.0
  0
CIRCLE
  5
C0
100
AcDbEntity
  8
一般
370
               9
  6
STYLE_01
 62
               0
100
AcDbCircle
 10
649.56575243168345
 20
1980.9055555630059
 30
0.0
 40
9.2999999999999545
  0
CIRCLE
  5
C1
100
AcDbEntity
  8
一般
370
               9
  6
STYLE_01
 62
               0
100
AcDbCircle
 10
676.0160887848449
 20
2062.3113203098778
 30
0.0
 40
3.0
  0
CIRCLE
  5
C2
100
AcDbEntity
  8
一般
370
               9
  6
STYLE_01
 62
               0
100
AcDbCircle
 10
676.0160887848449
 20
2062.3113203098778
 30
0.0
 40
7.75
  0
POINT
  5
C3
100
AcDbEntity
  8
一般
370
               5
  6
Continuous
 62
               0
100
AcDbPoint
 10
676.0160887848449
 20
2062.3113203098778
 30
0.0
  0
CIRCLE
  5
C4
100
AcDbEntity
  8
一般
370
               9
  6
STYLE_01
 62
               0
100
AcDbCircle
 10
676.0160887848449
 20
2062.3113203098778
 30
0.0
 40
9.3000000000001819
  0
CIRCLE
  5
C5
100
AcDbEntity
  8
一般
370
               9
  6
STYLE_01
 62
               0
100
AcDbCircle
 10
699.02069127903133
 20
2009.836671855508
 30
0.0
 40
3.0
  0
CIRCLE
  5
C6
100
AcDbEntity
  8
一般
370
               9
  6
STYLE_01
 62
               0
100
AcDbCircle
 10
699.02069127903133
 20
2009.836671855508
 30
0.0
 40
7.75
  0
POINT
  5
C7
100
AcDbEntity
  8
一般
370
               5
  6
Continuous
 62
               0
100
AcDbPoint
 10
699.02069127903133
 20
2009.836671855508
 30
0.0
  0
CIRCLE
  5
C8
100
AcDbEntity
  8
一般
370
               9
  6
STYLE_01
 62
               0
100
AcDbCircle
 10
699.02069127903133
 20
2009.836671855508
 30
0.0
 40
9.3000000000001819
  0
POINT
  5
C9
100
AcDbEntity
  8
一般
370
               5
  6
Continuous
 62
               0
100
AcDbPoint
 10
650.06575243168345
 20
2025.9055555630059
 30
0.0
  0
ENDBLK
  5
CA
100
AcDbEntity
  8
一般
100
AcDbBlockEnd
  0
BLOCK
  5
CB
100
AcDbEntity
  8
寸法
100
AcDbBlockBegin
  2
*D7
 70
               1
 10
0.0
 20
0.0
 30
0.0
  3
*D7
  1

  0
LINE
  5
CC
100
AcDbEntity
  8
寸法
370
              -2
  6
Continuous
 62
               0
100
AcDbLine
 10
1675.0293162364569
 20
2250.2208912983165
 30
0.0
 11
1675.0293162364569
 21
2303.2208912983174
 31
0.0
  0
LINE
  5
CD
100
AcDbEntity
  8
寸法
370
              -2
  6
Continuous
 62
               0
100
AcDbLine
 10
1595.0
 20
2258.2208912983165
 30
0.0
 11
1595.0
 21
2303.2208912983174
 31
0.0
  0
LINE
  5
CE
100
AcDbEntity
  8
寸法
370
              -2
  6
Continuous
 62
               0
100
AcDbLine
 10
1675.0293162364569
 20
2303.2208912983174
 30
0.0
 11
1595.0
 21
2303.2208912983174
 31
0.0
  0
SOLID
  5
CF
100
AcDbEntity
  8
寸法
370
              -2
 62
               0
100
AcDbTrace
 10
1675.0293162364569
 20
2303.2208912983174
 30
0.0
 11
1667.5258982677069
 21
2301.2103565131174
 31
0.0
 12
1667.5258982677069
 22
2305.2314260835174
 32
0.0
 13
1667.5258982677069
 23
2305.2314260835174
 33
0.0
  0
SOLID
  5
D0
100
AcDbEntity
  8
寸法
370
              -2
 62
               0
100
AcDbTrace
 10
1595.0
 20
2303.2208912983174
 30
0.0
 11
1602.50341796875
 21
2305.2314260835174
 31
0.0
 12
1602.50341796875
 22
2301.2103565131174
 32
0.0
 13
1602.50341796875
 23
2301.2103565131174
 33
0.0
  0
WIPEOUT
  5
D1
100
AcDbEntity
  8
寸法
370
              -2
  6
Continuous
 62
               0
 92
        0
100
AcDbWipeout
 90
        0
 10
1624.4313247848947
 20
1384.6072249367576
 30
0.0
 11
21.166666666666664
 21
0.0
 31
0.0
 12
0.0
 22
21.166666666666664
 32
0.0
 13
1.0
 23
1.0
340
0
 70
               7
280
               1
281
              50
282
              50
283
               0
360
0
 71
               2
 91
        5
 14
-0.5
 24
-43.446314946039436
 14
0.499999999999993
 24
-43.446314946039436
 14
0.499999999999993
 24
-44.44631494603945
 14
-0.5
 24
-44.44631494603945
 14
-0.5
 24
-43.446314946039436
  0
MTEXT
  5
D2
100
AcDbEntity
  8
寸法
 62
               0
100
AcDbMText
 10
1624.4313247848947
 20
2334.0559694195922
 30
0.0
 40
16.288411458333332
 41
0.0
 71
               1
 72
               1
  1
80
  7
ＭＳ ゴシック
 73
               1
 44
0.7828267384257843
  0
POINT
  5
D3
100
AcDbEntity
  8
Defpoints
370
               0
 62
               0
100
AcDbPoint
 10
1595.0
 20
2253.2208912983165
 30
0.0
  0
POINT
  5
D4
100
AcDbEntity
  8
Defpoints
370
               0
 62
               0
100
AcDbPoint
 10
1675.0293162364569
 20
2245.2208912983165
 30
0.0
  0
POINT
  5
D5
100
AcDbEntity
  8
Defpoints
370
               0
 62
               0
100
AcDbPoint
 10
1675.0293162364569
 20
2303.2208912983169
 30
0.0
  0
ENDBLK
  5
D6
100
AcDbEntity
  8
寸法
100
AcDbBlockEnd
  0
BLOCK
  5
D7
100
AcDbEntity
  8
寸法
100
AcDbBlockBegin
  2
*D8
 70
               1
 10
0.0
 20
0.0
 30
0.0
  3
*D8
  1

  0
LINE
  5
D8
100
AcDbEntity
  8
寸法
370
              -2
  6
Continuous
 62
               0
100
AcDbLine
 10
2042.6147973931829
 20
2920.0
 30
0.0
 11
1949.4337196638839
 21
2920.0
 31
0.0
  0
LINE
  5
D9
100
AcDbEntity
  8
寸法
370
              -2
  6
Continuous
 62
               0
100
AcDbLine
 10
2038.614797408085
 20
3005.0
 30
0.0
 11
1949.4337196638839
 21
3005.0
 31
0.0
  0
LINE
  5
DA
100
AcDbEntity
  8
寸法
370
              -2
  6
Continuous
 62
               0
100
AcDbLine
 10
1949.4337196638839
 20
2920.0
 30
0.0
 11
1949.4337196638839
 21
3005.0
 31
0.0
  0
SOLID
  5
DB
100
AcDbEntity
  8
寸法
370
              -2
 62
               0
100
AcDbTrace
 10
1949.4337196638839
 20
2920.0
 30
0.0
 11
1947.4231848786842
 21
2927.50341796875
 31
0.0
 12
1951.4442544490837
 22
2927.50341796875
 32
0.0
 13
1951.4442544490837
 23
2927.50341796875
 33
0.0
  0
SOLID
  5
DC
100
AcDbEntity
  8
寸法
370
              -2
 62
               0
100
AcDbTrace
 10
1949.4337196638839
 20
3005.0
 30
0.0
 11
1951.4442544490837
 21
2997.49658203125
 31
0.0
 12
1947.4231848786842
 22
2997.49658203125
 32
0.0
 13
1947.4231848786842
 23
2997.49658203125
 33
0.0
  0
WIPEOUT
  5
DD
100
AcDbEntity
  8
寸法
370
              -2
  6
Continuous
 62
               0
 92
        0
100
AcDbWipeout
 90
        0
 10
1927.2670529972174
 20
2025.9696669754985
 30
0.0
 11
21.166666666666686
 21
0.0
 31
0.0
 12
0.0
 22
21.166666666666686
 32
0.0
 13
1.0
 23
1.0
340
0
 70
               7
280
               1
281
              50
282
              50
283
               0
360
0
 71
               2
 91
        5
 14
0.4999999999999919
 24
-43.446314946039394
 14
0.4999999999999919
 24
-44.446314946039408
 14
-0.5
 24
-44.446314946039408
 14
-0.5
 24
-43.446314946039394
 14
0.4999999999999919
 24
-43.446314946039394
  0
MTEXT
  5
DE
100
AcDbEntity
  8
寸法
 62
               0
100
AcDbMText
 10
1929.1819748722173
 20
2956.1666666666665
 30
0.0
 40
16.288411458333332
 41
0.0
 71
               1
 72
               1
  1
85
  7
ＭＳ ゴシック
 11
0.0
 21
1.0
 31
0.0
 73
               1
 44
0.7828267384257843
  0
POINT
  5
DF
100
AcDbEntity
  8
Defpoints
370
               0
 62
               0
100
AcDbPoint
 10
2043.614797408085
 20
3005.0
 30
0.0
  0
POINT
  5
E0
100
AcDbEntity
  8
Defpoints
370
               0
 62
               0
100
AcDbPoint
 10
2047.6147973931829
 20
2920.0
 30
0.0
  0
POINT
  5
E1
100
AcDbEntity
  8
Defpoints
370
               0
 62
               0
100
AcDbPoint
 10
1949.4337196638839
 20
2920.0
 30
0.0
  0
ENDBLK
  5
E2
100
AcDbEntity
  8
寸法
100
AcDbBlockEnd
  0
BLOCK
  5
E3
100
AcDbEntity
  8
寸法
100
AcDbBlockBegin
  2
*D9
 70
               1
 10
0.0
 20
0.0
 30
0.0
  3
*D9
  1

  0
LINE
  5
E4
100
AcDbEntity
  8
寸法
370
              -2
  6
Continuous
 62
               0
100
AcDbLine
 10
2047.6147973931829
 20
2787.837628370999
 30
0.0
 11
2047.6147973931829
 21
2829.4058154649783
 31
0.0
  0
LINE
  5
E5
100
AcDbEntity
  8
寸法
370
              -2
  6
Continuous
 62
               0
100
AcDbLine
 10
2187.6147973931829
 20
2838.0
 30
0.0
 11
2187.6147973931829
 21
2829.4058154649783
 31
0.0
  0
LINE
  5
E6
100
AcDbEntity
  8
寸法
370
              -2
  6
Continuous
 62
               0
100
AcDbLine
 10
2047.6147973931829
 20
2829.4058154649783
 30
0.0
 11
2187.6147973931829
 21
2829.4058154649783
 31
0.0
  0
SOLID
  5
E7
100
AcDbEntity
  8
寸法
370
              -2
 62
               0
100
AcDbTrace
 10
2047.6147973931829
 20
2829.4058154649783
 30
0.0
 11
2055.1182153619329
 21
2831.4163502501779
 31
0.0
 12
2055.1182153619329
 22
2827.3952806797784
 32
0.0
 13
2055.1182153619329
 23
2827.3952806797784
 33
0.0
  0
SOLID
  5
E8
100
AcDbEntity
  8
寸法
370
              -2
 62
               0
100
AcDbTrace
 10
2187.6147973931829
 20
2829.4058154649783
 30
0.0
 11
2180.1113794244329
 21
2827.3952806797784
 31
0.0
 12
2180.1113794244329
 22
2831.4163502501779
 32
0.0
 13
2180.1113794244329
 23
2831.4163502501779
 33
0.0
  0
WIPEOUT
  5
E9
100
AcDbEntity
  8
寸法
370
              -2
  6
Continuous
 62
               0
 92
        0
100
AcDbWipeout
 90
        0
 10
2101.570791512504
 20
1910.7921491071427
 30
0.0
 11
31.75
 21
0.0
 31
0.0
 12
0.0
 22
31.75
 32
0.0
 13
1.0
 23
1.0
340
0
 70
               7
280
               1
281
              50
282
              50
283
               0
360
0
 71
               2
 91
        5
 14
-0.5
 24
-28.797543297359628
 14
0.5
 24
-28.797543297359628
 14
0.5
 24
-29.464209964026292
 14
-0.5
 24
-29.464209964026292
 14
-0.5
 24
-28.797543297359628
  0
MTEXT
  5
EA
100
AcDbEntity
  8
寸法
 62
               0
100
AcDbMText
 10
2101.570791512504
 20
2860.2408935899775
 30
0.0
 40
16.288411458333332
 41
0.0
 71
               1
 72
               1
  1
140
  7
ＭＳ ゴシック
 73
               1
 44
0.7828267384257843
  0
POINT
  5
EB
100
AcDbEntity
  8
Defpoints
370
               0
 62
               0
100
AcDbPoint
 10
2187.6147973931829
 20
2843.0
 30
0.0
  0
POINT
  5
EC
100
AcDbEntity
  8
Defpoints
370
               0
 62
               0
100
AcDbPoint
 10
2047.6147973931829
 20
2782.837628370999
 30
0.0
  0
POINT
  5
ED
100
AcDbEntity
  8
Defpoints
370
               0
 62
               0
100
AcDbPoint
 10
2047.6147973931829
 20
2829.4058154649783
 30
0.0
  0
ENDBLK
  5
EE
100
AcDbEntity
  8
寸法
100
AcDbBlockEnd
  0
BLOCK
  5
EF
100
AcDbEntity
  8
寸法
100
AcDbBlockBegin
  2
*D10
 70
               1
 10
0.0
 20
0.0
 30
0.0
  3
*D10
  1

  0
LINE
  5
F0
100
AcDbEntity
  8
寸法
370
              -2
  6
Continuous
 62
               0
100
AcDbLine
 10
2044.6147973931829
 20
2520.0
 30
0.0
 11
1949.6147973931838
 21
2520.0
 31
0.0
  0
LINE
  5
F1
100
AcDbEntity
  8
寸法
370
              -2
  6
Continuous
 62
               0
100
AcDbLine
 10
2042.6147973931829
 20
2480.0
 30
0.0
 11
1949.6147973931838
 21
2480.0
 31
0.0
  0
LINE
  5
F2
100
AcDbEntity
  8
寸法
370
              -2
  6
Continuous
 62
               0
100
AcDbLine
 10
1949.6147973931838
 20
2520.0
 30
0.0
 11
1949.6147973931838
 21
2480.0
 31
0.0
  0
SOLID
  5
F3
100
AcDbEntity
  8
寸法
370
              -2
 62
               0
100
AcDbTrace
 10
1949.6147973931838
 20
2520.0
 30
0.0
 11
1951.6253321783836
 21
2512.49658203125
 31
0.0
 12
1947.6042626079841
 22
2512.49658203125
 32
0.0
 13
1947.6042626079841
 23
2512.49658203125
 33
0.0
  0
SOLID
  5
F4
100
AcDbEntity
  8
寸法
370
              -2
 62
               0
100
AcDbTrace
 10
1949.6147973931838
 20
2480.0
 30
0.0
 11
1947.6042626079841
 21
2487.50341796875
 31
0.0
 12
1951.6253321783836
 22
2487.50341796875
 32
0.0
 13
1951.6253321783836
 23
2487.50341796875
 33
0.0
  0
WIPEOUT
  5
F5
100
AcDbEntity
  8
寸法
370
              -2
  6
Continuous
 62
               0
 92
        0
100
AcDbWipeout
 90
        0
 10
1927.4481307302426
 20
1559.2196669754985
 30
0.0
 11
21.166666666666686
 21
0.0
 31
0.0
 12
0.0
 22
21.166666666666686
 32
0.0
 13
1.0
 23
1.0
340
0
 70
               7
280
               1
281
              50
282
              50
283
               0
360
0
 71
               2
 91
        5
 14
0.4999999999999919
 24
-43.446314946039394
 14
0.4999999999999919
 24
-44.446314946039408
 14
-0.5
 24
-44.446314946039408
 14
-0.5
 24
-43.446314946039394
 14
0.4999999999999919
 24
-43.446314946039394
  0
MTEXT
  5
F6
100
AcDbEntity
  8
寸法
 62
               0
100
AcDbMText
 10
1929.3630526052425
 20
2489.4166666666665
 30
0.0
 40
16.288411458333332
 41
0.0
 71
               1
 72
               1
  1
40
  7
ＭＳ ゴシック
 11
0.0
 21
1.0
 31
0.0
 73
               1
 44
0.7828267384257843
  0
POINT
  5
F7
100
AcDbEntity
  8
Defpoints
370
               0
 62
               0
100
AcDbPoint
 10
2047.6147973931829
 20
2480.0
 30
0.0
  0
POINT
  5
F8
100
AcDbEntity
  8
Defpoints
370
               0
 62
               0
100
AcDbPoint
 10
2049.6147973931829
 20
2520.0
 30
0.0
  0
POINT
  5
F9
100
AcDbEntity
  8
Defpoints
370
               0
 62
               0
100
AcDbPoint
 10
1949.6147973931838
 20
2520.0
 30
0.0
  0
ENDBLK
  5
FA
100
AcDbEntity
  8
寸法
100
AcDbBlockEnd
  0
BLOCK
  5
FB
100
AcDbEntity
  8
寸法
100
AcDbBlockBegin
  2
*D11
 70
               1
 10
0.0
 20
0.0
 30
0.0
  3
*D11
  1

  0
LINE
  5
FC
100
AcDbEntity
  8
寸法
370
              -2
  6
Continuous
 62
               0
100
AcDbLine
 10
2244.6147973931838
 20
2850.0
 30
0.0
 11
2261.4337196638839
 21
2850.0
 31
0.0
  0
LINE
  5
FD
100
AcDbEntity
  8
寸法
370
              -2
  6
Continuous
 62
               0
100
AcDbLine
 10
2069.6147973931829
 20
3030.0
 30
0.0
 11
2261.4337196638839
 21
3030.0
 31
0.0
  0
LINE
  5
FE
100
AcDbEntity
  8
寸法
370
              -2
  6
Continuous
 62
               0
100
AcDbLine
 10
2261.4337196638839
 20
2850.0
 30
0.0
 11
2261.4337196638839
 21
3030.0
 31
0.0
  0
SOLID
  5
FF
100
AcDbEntity
  8
寸法
370
              -2
 62
               0
100
AcDbTrace
 10
2261.4337196638839
 20
2850.0
 30
0.0
 11
2259.423184878684
 21
2857.50341796875
 31
0.0
 12
2263.4442544490839
 22
2857.50341796875
 32
0.0
 13
2263.4442544490839
 23
2857.50341796875
 33
0.0
  0
SOLID
  5
100
100
AcDbEntity
  8
寸法
370
              -2
 62
               0
100
AcDbTrace
 10
2261.4337196638839
 20
3030.0
 30
0.0
 11
2263.4442544490839
 21
3022.49658203125
 31
0.0
 12
2259.423184878684
 22
3022.49658203125
 32
0.0
 13
2259.423184878684
 23
3022.49658203125
 33
0.0
  0
WIPEOUT
  5
101
100
AcDbEntity
  8
寸法
370
              -2
  6
Continuous
 62
               0
 92
        0
100
AcDbWipeout
 90
        0
 10
2228.6837196676088
 20
1972.9729990976648
 30
0.0
 11
31.75
 21
0.0
 31
0.0
 12
0.0
 22
31.75
 32
0.0
 13
1.0
 23
1.0
340
0
 70
               7
280
               1
281
              50
282
              50
283
               0
360
0
 71
               2
 91
        5
 14
0.1666666666666762
 24
-28.797543297359635
 14
0.1666666666666762
 24
-29.797543297359635
 14
-0.5
 24
-29.797543297359635
 14
-0.5
 24
-28.797543297359635
 14
0.1666666666666762
 24
-28.797543297359635
  0
MTEXT
  5
102
100
AcDbEntity
  8
寸法
 62
               0
100
AcDbMText
 10
2230.5986415426091
 20
2903.1699987888333
 30
0.0
 40
16.288411458333332
 41
0.0
 71
               1
 72
               1
  1
180
  7
ＭＳ ゴシック
 11
0.0
 21
1.0
 31
0.0
 73
               1
 44
0.7828267384257843
  0
POINT
  5
103
100
AcDbEntity
  8
Defpoints
370
               0
 62
               0
100
AcDbPoint
 10
2064.6147973931829
 20
3030.0
 30
0.0
  0
POINT
  5
104
100
AcDbEntity
  8
Defpoints
370
               0
 62
               0
100
AcDbPoint
 10
2239.6147973931838
 20
2850.0
 30
0.0
  0
POINT
  5
105
100
AcDbEntity
  8
Defpoints
370
               0
 62
               0
100
AcDbPoint
 10
2261.4337196638839
 20
2850.0
 30
0.0
  0
ENDBLK
  5
106
100
AcDbEntity
  8
寸法
100
AcDbBlockEnd
  0
BLOCK
  5
107
100
AcDbEntity
  8
寸法
100
AcDbBlockBegin
  2
*D12
 70
               1
 10
0.0
 20
0.0
 30
0.0
  3
*D12
  1

  0
LINE
  5
108
100
AcDbEntity
  8
寸法
370
              -2
  6
Continuous
 62
               0
100
AcDbLine
 10
2044.6147973931829
 20
2520.0
 30
0.0
 11
1949.6147973931838
 21
2520.0
 31
0.0
  0
LINE
  5
109
100
AcDbEntity
  8
寸法
370
              -2
  6
Continuous
 62
               0
100
AcDbLine
 10
2029.0
 20
2920.0
 30
0.0
 11
1949.6147973931838
 21
2920.0
 31
0.0
  0
LINE
  5
10A
100
AcDbEntity
  8
寸法
370
              -2
  6
Continuous
 62
               0
100
AcDbLine
 10
1949.6147973931838
 20
2520.0
 30
0.0
 11
1949.6147973931838
 21
2920.0
 31
0.0
  0
SOLID
  5
10B
100
AcDbEntity
  8
寸法
370
              -2
 62
               0
100
AcDbTrace
 10
1949.6147973931838
 20
2520.0
 30
0.0
 11
1947.6042626079841
 21
2527.50341796875
 31
0.0
 12
1951.6253321783836
 22
2527.50341796875
 32
0.0
 13
1951.6253321783836
 23
2527.50341796875
 33
0.0
  0
SOLID
  5
10C
100
AcDbEntity
  8
寸法
370
              -2
 62
               0
100
AcDbTrace
 10
1949.6147973931838
 20
2920.0
 30
0.0
 11
1951.6253321783836
 21
2912.49658203125
 31
0.0
 12
1947.6042626079841
 22
2912.49658203125
 32
0.0
 13
1947.6042626079841
 23
2912.49658203125
 33
0.0
  0
WIPEOUT
  5
10D
100
AcDbEntity
  8
寸法
370
              -2
  6
Continuous
 62
               0
 92
        0
100
AcDbWipeout
 90
        0
 10
1927.4481307265173
 20
1775.9391518696489
 30
0.0
 11
31.75
 21
0.0
 31
0.0
 12
0.0
 22
31.75
 32
0.0
 13
1.0
 23
1.0
340
0
 70
               7
280
               1
281
              50
282
              50
283
               0
360
0
 71
               2
 91
        5
 14
0.1666666666666619
 24
-28.797543297359635
 14
0.1666666666666619
 24
-29.797543297359635
 14
-0.5
 24
-29.797543297359635
 14
-0.5
 24
-28.797543297359635
 14
0.1666666666666619
 24
-28.797543297359635
  0
MTEXT
  5
10E
100
AcDbEntity
  8
寸法
 62
               0
100
AcDbMText
 10
1929.3630526015172
 20
2706.1361515608173
 30
0.0
 40
16.288411458333332
 41
0.0
 71
               1
 72
               1
  1
400
  7
ＭＳ ゴシック
 11
0.0
 21
1.0
 31
0.0
 73
               1
 44
0.7828267384257843
  0
POINT
  5
10F
100
AcDbEntity
  8
Defpoints
370
               0
 62
               0
100
AcDbPoint
 10
2034.0
 20
2920.0
 30
0.0
  0
POINT
  5
110
100
AcDbEntity
  8
Defpoints
370
               0
 62
               0
100
AcDbPoint
 10
2049.6147973931829
 20
2520.0
 30
0.0
  0
POINT
  5
111
100
AcDbEntity
  8
Defpoints
370
               0
 62
               0
100
AcDbPoint
 10
1949.6147973931838
 20
2520.0
 30
0.0
  0
ENDBLK
  5
112
100
AcDbEntity
  8
寸法
100
AcDbBlockEnd
  0
BLOCK
  5
113
100
AcDbEntity
  8
寸法
100
AcDbBlockBegin
  2
*D13
 70
               1
 10
0.0
 20
0.0
 30
0.0
  3
*D13
  1

  0
LINE
  5
114
100
AcDbEntity
  8
寸法
370
              -2
  6
Continuous
 62
               0
100
AcDbLine
 10
1078.1810777218491
 20
2480.0
 30
0.0
 11
963.09222173040621
 21
2480.0
 31
0.0
  0
LINE
  5
115
100
AcDbEntity
  8
寸法
370
              -2
  6
Continuous
 62
               0
100
AcDbLine
 10
1071.566280328665
 20
3030.0
 30
0.0
 11
963.09222173040621
 21
3030.0
 31
0.0
  0
LINE
  5
116
100
AcDbEntity
  8
寸法
370
              -2
  6
Continuous
 62
               0
100
AcDbLine
 10
963.09222173040621
 20
2480.0
 30
0.0
 11
963.09222173040621
 21
3030.0
 31
0.0
  0
SOLID
  5
117
100
AcDbEntity
  8
寸法
370
              -2
 62
               0
100
AcDbTrace
 10
963.09222173040621
 20
2480.0
 30
0.0
 11
961.08168694520646
 21
2487.50341796875
 31
0.0
 12
965.10275651560596
 22
2487.50341796875
 32
0.0
 13
965.10275651560596
 23
2487.50341796875
 33
0.0
  0
SOLID
  5
118
100
AcDbEntity
  8
寸法
370
              -2
 62
               0
100
AcDbTrace
 10
963.09222173040621
 20
3030.0
 30
0.0
 11
965.10275651560596
 21
3022.49658203125
 31
0.0
 12
961.08168694520646
 22
3022.49658203125
 32
0.0
 13
961.08168694520646
 23
3022.49658203125
 33
0.0
  0
WIPEOUT
  5
119
100
AcDbEntity
  8
寸法
370
              -2
  6
Continuous
 62
               0
 92
        0
100
AcDbWipeout
 90
        0
 10
940.92555506746476
 20
1808.9280003088318
 30
0.0
 11
31.75
 21
0.0
 31
0.0
 12
0.0
 22
31.75
 32
0.0
 13
1.0
 23
1.0
340
0
 70
               7
280
               1
281
              50
282
              50
283
               0
360
0
 71
               2
 91
        5
 14
0.1666666666666655
 24
-28.797543297359628
 14
0.1666666666666655
 24
-29.797543297359628
 14
-0.5
 24
-29.797543297359628
 14
-0.5
 24
-28.797543297359628
 14
0.1666666666666655
 24
-28.797543297359628
  0
MTEXT
  5
11A
100
AcDbEntity
  8
寸法
 62
               0
100
AcDbMText
 10
942.84047694246476
 20
2739.125
 30
0.0
 40
16.288411458333332
 41
0.0
 71
               1
 72
               1
  1
550
  7
ＭＳ ゴシック
 11
0.0
 21
1.0
 31
0.0
 73
               1
 44
0.7828267384257843
  0
POINT
  5
11B
100
AcDbEntity
  8
Defpoints
370
               0
 62
               0
100
AcDbPoint
 10
1076.566280328665
 20
3030.0
 30
0.0
  0
POINT
  5
11C
100
AcDbEntity
  8
Defpoints
370
               0
 62
               0
100
AcDbPoint
 10
1083.1810777218491
 20
2480.0
 30
0.0
  0
POINT
  5
11D
100
AcDbEntity
  8
Defpoints
370
               0
 62
               0
100
AcDbPoint
 10
963.09222173040621
 20
2480.0
 30
0.0
  0
ENDBLK
  5
11E
100
AcDbEntity
  8
寸法
100
AcDbBlockEnd
  0
BLOCK
  5
11F
100
AcDbEntity
  8
寸法
100
AcDbBlockBegin
  2
*D14
 70
               1
 10
0.0
 20
0.0
 30
0.0
  3
*D14
  1

  0
LINE
  5
120
100
AcDbEntity
  8
寸法
370
              -2
  6
Continuous
 62
               0
100
AcDbLine
 10
2042.6147973931829
 20
3030.0
 30
0.0
 11
1949.4337196638839
 21
3030.0
 31
0.0
  0
LINE
  5
121
100
AcDbEntity
  8
寸法
370
              -2
  6
Continuous
 62
               0
100
AcDbLine
 10
2042.6147973931829
 20
3005.0
 30
0.0
 11
1949.4337196638839
 21
3005.0
 31
0.0
  0
LINE
  5
122
100
AcDbEntity
  8
寸法
370
              -2
  6
Continuous
 62
               0
100
AcDbLine
 10
1949.4337196638839
 20
3030.0
 30
0.0
 11
1949.4337196638839
 21
3005.0
 31
0.0
  0
SOLID
  5
123
100
AcDbEntity
  8
寸法
370
              -2
 62
               0
100
AcDbTrace
 10
1949.4337196638839
 20
3030.0
 30
0.0
 11
1951.4442544490837
 21
3022.49658203125
 31
0.0
 12
1947.4231848786842
 22
3022.49658203125
 32
0.0
 13
1947.4231848786842
 23
3022.49658203125
 33
0.0
  0
SOLID
  5
124
100
AcDbEntity
  8
寸法
370
              -2
 62
               0
100
AcDbTrace
 10
1949.4337196638839
 20
3005.0
 30
0.0
 11
1947.4231848786842
 21
3012.50341796875
 31
0.0
 12
1951.4442544490837
 22
3012.50341796875
 32
0.0
 13
1951.4442544490837
 23
3012.50341796875
 33
0.0
  0
MTEXT
  5
125
100
AcDbEntity
  8
寸法
 62
               0
100
AcDbMText
 10
1929.1819748722173
 20
3005.4166666666665
 30
0.0
 40
16.288411458333332
 41
0.0
 71
               1
 72
               1
  1
25
  7
ＭＳ ゴシック
 11
0.0
 21
1.0
 31
0.0
 73
               1
 44
0.7828267384257843
  0
POINT
  5
126
100
AcDbEntity
  8
Defpoints
370
               0
 62
               0
100
AcDbPoint
 10
2047.6147973931829
 20
3005.0
 30
0.0
  0
POINT
  5
127
100
AcDbEntity
  8
Defpoints
370
               0
 62
               0
100
AcDbPoint
 10
2047.6147973931829
 20
3030.0
 30
0.0
  0
POINT
  5
128
100
AcDbEntity
  8
Defpoints
370
               0
 62
               0
100
AcDbPoint
 10
1949.4337196638839
 20
3030.0
 30
0.0
  0
ENDBLK
  5
129
100
AcDbEntity
  8
寸法
100
AcDbBlockEnd
  0
BLOCK
  5
12A
100
AcDbEntity
  8
寸法
100
AcDbBlockBegin
  2
*D15
 70
               1
 10
0.0
 20
0.0
 30
0.0
  3
*D15
  1

  0
LINE
  5
12B
100
AcDbEntity
  8
寸法
370
              -2
  6
Continuous
 62
               0
100
AcDbLine
 10
2047.6147973931829
 20
2957.0794900168089
 30
0.0
 11
2047.6147973931829
 21
2947.0
 31
0.0
  0
LINE
  5
12C
100
AcDbEntity
  8
寸法
370
              -2
  6
Continuous
 62
               0
100
AcDbLine
 10
2057.6147973931829
 20
2985.0
 30
0.0
 11
2057.6147973931829
 21
2947.0
 31
0.0
  0
LINE
  5
12D
100
AcDbEntity
  8
寸法
370
              -2
  6
Continuous
 62
               0
100
AcDbLine
 10
2057.6147973931829
 20
2947.0
 30
0.0
 11
2047.6147973931829
 21
2947.0
 31
0.0
  0
LINE
  5
12E
100
AcDbEntity
  8
寸法
370
              -2
  6
Continuous
 62
               0
100
AcDbLine
 10
2047.6147973931829
 20
2947.0
 30
0.0
 11
2025.2300229535863
 21
2947.0
 31
0.0
  0
SOLID
  5
12F
100
AcDbEntity
  8
寸法
370
              -2
 62
               0
100
AcDbTrace
 10
2047.6147973931829
 20
2947.0
 30
0.0
 11
2040.1113794244329
 21
2944.9894652148005
 31
0.0
 12
2040.1113794244329
 22
2949.0105347851995
 32
0.0
 13
2040.1113794244329
 23
2949.0105347851995
 33
0.0
  0
LINE
  5
130
100
AcDbEntity
  8
寸法
370
              -2
  6
Continuous
 62
               0
100
AcDbLine
 10
2057.6147973931829
 20
2947.0
 30
0.0
 11
2097.6147973931829
 21
2947.0
 31
0.0
  0
SOLID
  5
131
100
AcDbEntity
  8
寸法
370
              -2
 62
               0
100
AcDbTrace
 10
2057.6147973931829
 20
2947.0
 30
0.0
 11
2065.1182153619329
 21
2949.0105347851995
 31
0.0
 12
2065.1182153619329
 22
2944.9894652148005
 32
0.0
 13
2065.1182153619329
 23
2944.9894652148005
 33
0.0
  0
MTEXT
  5
132
100
AcDbEntity
  8
寸法
 62
               0
100
AcDbMText
 10
2025.2300229535863
 20
2967.2517447916666
 30
0.0
 40
16.288411458333332
 41
0.0
 71
               1
 72
               1
  1
10
  7
ＭＳ ゴシック
 73
               1
 44
0.7828267384257843
  0
POINT
  5
133
100
AcDbEntity
  8
Defpoints
370
               0
 62
               0
100
AcDbPoint
 10
2057.6147973931829
 20
2990.0
 30
0.0
  0
POINT
  5
134
100
AcDbEntity
  8
Defpoints
370
               0
 62
               0
100
AcDbPoint
 10
2047.6147973931829
 20
2962.0794900168089
 30
0.0
  0
POINT
  5
135
100
AcDbEntity
  8
Defpoints
370
               0
 62
               0
100
AcDbPoint
 10
2047.6147973931829
 20
2947.0
 30
0.0
  0
ENDBLK
  5
136
100
AcDbEntity
  8
寸法
100
AcDbBlockEnd
  0
BLOCK
  5
137
100
AcDbEntity
  8
寸法
100
AcDbBlockBegin
  2
*D16
 70
               1
 10
0.0
 20
0.0
 30
0.0
  3
*D16
  1

  0
LINE
  5
138
100
AcDbEntity
  8
寸法
370
              -2
  6
Continuous
 62
               0
100
AcDbLine
 10
2047.6147973931829
 20
2477.0
 30
0.0
 11
2047.6147973931829
 21
2438.0
 31
0.0
  0
LINE
  5
139
100
AcDbEntity
  8
寸法
370
              -2
  6
Continuous
 62
               0
100
AcDbLine
 10
2064.6147973931829
 20
2475.0
 30
0.0
 11
2064.6147973931829
 21
2438.0
 31
0.0
  0
LINE
  5
13A
100
AcDbEntity
  8
寸法
370
              -2
  6
Continuous
 62
               0
100
AcDbLine
 10
2064.6147973931829
 20
2438.0
 30
0.0
 11
2090.7207742890555
 21
2438.0
 31
0.0
  0
LINE
  5
13B
100
AcDbEntity
  8
寸法
370
              -2
  6
Continuous
 62
               0
100
AcDbLine
 10
2047.6147973931829
 20
2438.0
 30
0.0
 11
2064.6147973931829
 21
2438.0
 31
0.0
  0
SOLID
  5
13C
100
AcDbEntity
  8
寸法
370
              -2
 62
               0
100
AcDbTrace
 10
2047.6147973931829
 20
2438.0
 30
0.0
 11
2055.1182153619329
 21
2440.0105347851995
 31
0.0
 12
2055.1182153619329
 22
2435.9894652148005
 32
0.0
 13
2055.1182153619329
 23
2435.9894652148005
 33
0.0
  0
SOLID
  5
13D
100
AcDbEntity
  8
寸法
370
              -2
 62
               0
100
AcDbTrace
 10
2064.6147973931829
 20
2438.0
 30
0.0
 11
2057.1113794244329
 21
2435.9894652148005
 31
0.0
 12
2057.1113794244329
 22
2440.0105347851995
 32
0.0
 13
2057.1113794244329
 23
2440.0105347851995
 33
0.0
  0
MTEXT
  5
13E
100
AcDbEntity
  8
寸法
 62
               0
100
AcDbMText
 10
2069.554107622389
 20
2458.2517447916666
 30
0.0
 40
16.288411458333332
 41
0.0
 71
               1
 72
               1
  1
17
  7
ＭＳ ゴシック
 73
               1
 44
0.7828267384257843
  0
POINT
  5
13F
100
AcDbEntity
  8
Defpoints
370
               0
 62
               0
100
AcDbPoint
 10
2064.6147973931829
 20
2480.0
 30
0.0
  0
POINT
  5
140
100
AcDbEntity
  8
Defpoints
370
               0
 62
               0
100
AcDbPoint
 10
2047.6147973931829
 20
2482.0
 30
0.0
  0
POINT
  5
141
100
AcDbEntity
  8
Defpoints
370
               0
 62
               0
100
AcDbPoint
 10
2047.6147973931829
 20
2438.0
 30
0.0
  0
ENDBLK
  5
142
100
AcDbEntity
  8
寸法
100
AcDbBlockEnd
  0
BLOCK
  5
143
100
AcDbEntity
  8
寸法
100
AcDbBlockBegin
  2
*D17
 70
               1
 10
0.0
 20
0.0
 30
0.0
  3
*D17
  1

  0
LINE
  5
144
100
AcDbEntity
  8
寸法
370
              -2
  6
Continuous
 62
               0
100
AcDbLine
 10
2042.6147973931829
 20
2920.0
 30
0.0
 11
1911.4337196638839
 21
2920.0
 31
0.0
  0
LINE
  5
145
100
AcDbEntity
  8
寸法
370
              -2
  6
Continuous
 62
               0
100
AcDbLine
 10
2036.5242585378469
 20
3030.0
 30
0.0
 11
1911.4337196638839
 21
3030.0
 31
0.0
  0
LINE
  5
146
100
AcDbEntity
  8
寸法
370
              -2
  6
Continuous
 62
               0
100
AcDbLine
 10
1911.4337196638839
 20
2920.0
 30
0.0
 11
1911.4337196638839
 21
3030.0
 31
0.0
  0
SOLID
  5
147
100
AcDbEntity
  8
寸法
370
              -2
 62
               0
100
AcDbTrace
 10
1911.4337196638839
 20
2920.0
 30
0.0
 11
1909.4231848786842
 21
2927.50341796875
 31
0.0
 12
1913.4442544490837
 22
2927.50341796875
 32
0.0
 13
1913.4442544490837
 23
2927.50341796875
 33
0.0
  0
SOLID
  5
148
100
AcDbEntity
  8
寸法
370
              -2
 62
               0
100
AcDbTrace
 10
1911.4337196638839
 20
3030.0
 30
0.0
 11
1913.4442544490837
 21
3022.49658203125
 31
0.0
 12
1909.4231848786842
 22
3022.49658203125
 32
0.0
 13
1909.4231848786842
 23
3022.49658203125
 33
0.0
  0
WIPEOUT
  5
149
100
AcDbEntity
  8
寸法
370
              -2
  6
Continuous
 62
               0
 92
        0
100
AcDbWipeout
 90
        0
 10
1889.2670529972172
 20
2030.0673500282899
 30
0.0
 11
31.75
 21
0.0
 31
0.0
 12
0.0
 22
31.75
 32
0.0
 13
1.0
 23
1.0
340
0
 70
               7
280
               1
281
              50
282
              50
283
               0
360
0
 71
               2
 91
        5
 14
0.1666666666666691
 24
-28.797543297359628
 14
0.1666666666666691
 24
-29.797543297359628
 14
-0.5
 24
-29.797543297359628
 14
-0.5
 24
-28.797543297359628
 14
0.1666666666666691
 24
-28.797543297359628
  0
MTEXT
  5
14A
100
AcDbEntity
  8
寸法
 62
               0
100
AcDbMText
 10
1891.1819748722173
 20
2960.2643497194581
 30
0.0
 40
16.288411458333332
 41
0.0
 71
               1
 72
               1
  1
110
  7
ＭＳ ゴシック
 11
0.0
 21
1.0
 31
0.0
 73
               1
 44
0.7828267384257843
  0
POINT
  5
14B
100
AcDbEntity
  8
Defpoints
370
               0
 62
               0
100
AcDbPoint
 10
2041.5242585378469
 20
3030.0
 30
0.0
  0
POINT
  5
14C
100
AcDbEntity
  8
Defpoints
370
               0
 62
               0
100
AcDbPoint
 10
2047.6147973931829
 20
2920.0
 30
0.0
  0
POINT
  5
14D
100
AcDbEntity
  8
Defpoints
370
               0
 62
               0
100
AcDbPoint
 10
1911.4337196638839
 20
2920.0
 30
0.0
  0
ENDBLK
  5
14E
100
AcDbEntity
  8
寸法
100
AcDbBlockEnd
  0
BLOCK
  5
14F
100
AcDbEntity
  8
寸法
100
AcDbBlockBegin
  2
*D18
 70
               1
 10
0.0
 20
0.0
 30
0.0
  3
*D18
  1

  0
LINE
  5
150
100
AcDbEntity
  8
寸法
370
              -2
  6
Continuous
 62
               0
100
AcDbLine
 10
2042.6147973931829
 20
2920.0
 30
0.0
 11
1911.4337196638839
 21
2920.0
 31
0.0
  0
LINE
  5
151
100
AcDbEntity
  8
寸法
370
              -2
  6
Continuous
 62
               0
100
AcDbLine
 10
2042.6147973931829
 20
2480.0
 30
0.0
 11
1911.4337196638839
 21
2480.0
 31
0.0
  0
LINE
  5
152
100
AcDbEntity
  8
寸法
370
              -2
  6
Continuous
 62
               0
100
AcDbLine
 10
1911.4337196638839
 20
2920.0
 30
0.0
 11
1911.4337196638839
 21
2480.0
 31
0.0
  0
SOLID
  5
153
100
AcDbEntity
  8
寸法
370
              -2
 62
               0
100
AcDbTrace
 10
1911.4337196638839
 20
2920.0
 30
0.0
 11
1913.4442544490837
 21
2912.49658203125
 31
0.0
 12
1909.4231848786842
 22
2912.49658203125
 32
0.0
 13
1909.4231848786842
 23
2912.49658203125
 33
0.0
  0
SOLID
  5
154
100
AcDbEntity
  8
寸法
370
              -2
 62
               0
100
AcDbTrace
 10
1911.4337196638839
 20
2480.0
 30
0.0
 11
1909.4231848786842
 21
2487.50341796875
 31
0.0
 12
1913.4442544490837
 22
2487.50341796875
 32
0.0
 13
1913.4442544490837
 23
2487.50341796875
 33
0.0
  0
WIPEOUT
  5
155
100
AcDbEntity
  8
寸法
370
              -2
  6
Continuous
 62
               0
 92
        0
100
AcDbWipeout
 90
        0
 10
1878.6837196676095
 20
1769.9280003088318
 30
0.0
 11
31.75
 21
0.0
 31
0.0
 12
0.0
 22
31.75
 32
0.0
 13
1.0
 23
1.0
340
0
 70
               7
280
               1
281
              50
282
              50
283
               0
360
0
 71
               2
 91
        5
 14
0.1666666666666691
 24
-28.797543297359628
 14
0.1666666666666691
 24
-29.797543297359628
 14
-0.5
 24
-29.797543297359628
 14
-0.5
 24
-28.797543297359628
 14
0.1666666666666691
 24
-28.797543297359628
  0
MTEXT
  5
156
100
AcDbEntity
  8
寸法
 62
               0
100
AcDbMText
 10
1880.5986415426094
 20
2700.125
 30
0.0
 40
16.288411458333332
 41
0.0
 71
               1
 72
               1
  1
440
  7
ＭＳ ゴシック
 11
0.0
 21
1.0
 31
0.0
 73
               1
 44
0.7828267384257843
  0
POINT
  5
157
100
AcDbEntity
  8
Defpoints
370
               0
 62
               0
100
AcDbPoint
 10
2047.6147973931829
 20
2480.0
 30
0.0
  0
POINT
  5
158
100
AcDbEntity
  8
Defpoints
370
               0
 62
               0
100
AcDbPoint
 10
2047.6147973931829
 20
2920.0
 30
0.0
  0
POINT
  5
159
100
AcDbEntity
  8
Defpoints
370
               0
 62
               0
100
AcDbPoint
 10
1911.4337196638839
 20
2920.0
 30
0.0
  0
ENDBLK
  5
15A
100
AcDbEntity
  8
寸法
100
AcDbBlockEnd
  0
BLOCK
  5
15B
100
AcDbEntity
  8
寸法
100
AcDbBlockBegin
  2
*D19
 70
               1
 10
0.0
 20
0.0
 30
0.0
  3
*D19
  1

  0
LINE
  5
15C
100
AcDbEntity
  8
寸法
370
              -2
  6
Continuous
 62
               0
100
AcDbLine
 10
2249.6147973745569
 20
2850.0
 30
0.0
 11
2261.4337196638839
 21
2850.0
 31
0.0
  0
LINE
  5
15D
100
AcDbEntity
  8
寸法
370
              -2
  6
Continuous
 62
               0
100
AcDbLine
 10
2069.6147973931829
 20
2480.0
 30
0.0
 11
2261.4337196638839
 21
2480.0
 31
0.0
  0
LINE
  5
15E
100
AcDbEntity
  8
寸法
370
              -2
  6
Continuous
 62
               0
100
AcDbLine
 10
2261.4337196638839
 20
2850.0
 30
0.0
 11
2261.4337196638839
 21
2480.0
 31
0.0
  0
SOLID
  5
15F
100
AcDbEntity
  8
寸法
370
              -2
 62
               0
100
AcDbTrace
 10
2261.4337196638839
 20
2850.0
 30
0.0
 11
2263.4442544490839
 21
2842.49658203125
 31
0.0
 12
2259.423184878684
 22
2842.49658203125
 32
0.0
 13
2259.423184878684
 23
2842.49658203125
 33
0.0
  0
SOLID
  5
160
100
AcDbEntity
  8
寸法
370
              -2
 62
               0
100
AcDbTrace
 10
2261.4337196638839
 20
2480.0
 30
0.0
 11
2259.423184878684
 21
2487.50341796875
 31
0.0
 12
2263.4442544490839
 22
2487.50341796875
 32
0.0
 13
2263.4442544490839
 23
2487.50341796875
 33
0.0
  0
WIPEOUT
  5
161
100
AcDbEntity
  8
寸法
370
              -2
  6
Continuous
 62
               0
 92
        0
100
AcDbWipeout
 90
        0
 10
2239.2670530009427
 20
1718.9280003088318
 30
0.0
 11
31.75
 21
0.0
 31
0.0
 12
0.0
 22
31.75
 32
0.0
 13
1.0
 23
1.0
340
0
 70
               7
280
               1
281
              50
282
              50
283
               0
360
0
 71
               2
 91
        5
 14
0.1666666666666619
 24
-28.797543297359628
 14
0.1666666666666619
 24
-29.797543297359628
 14
-0.5
 24
-29.797543297359628
 14
-0.5
 24
-28.797543297359628
 14
0.1666666666666619
 24
-28.797543297359628
  0
MTEXT
  5
162
100
AcDbEntity
  8
寸法
 62
               0
100
AcDbMText
 10
2241.1819748759426
 20
2649.125
 30
0.0
 40
16.288411458333332
 41
0.0
 71
               1
 72
               1
  1
370
  7
ＭＳ ゴシック
 11
0.0
 21
1.0
 31
0.0
 73
               1
 44
0.7828267384257843
  0
POINT
  5
163
100
AcDbEntity
  8
Defpoints
370
               0
 62
               0
100
AcDbPoint
 10
2064.6147973931829
 20
2480.0
 30
0.0
  0
POINT
  5
164
100
AcDbEntity
  8
Defpoints
370
               0
 62
               0
100
AcDbPoint
 10
2244.6147973745569
 20
2850.0
 30
0.0
  0
POINT
  5
165
100
AcDbEntity
  8
Defpoints
370
               0
 62
               0
100
AcDbPoint
 10
2261.4337196638839
 20
2850.0
 30
0.0
  0
ENDBLK
  5
166
100
AcDbEntity
  8
寸法
100
AcDbBlockEnd
  0
BLOCK
  5
167
100
AcDbEntity
  8
寸法
100
AcDbBlockBegin
  2
*D20
 70
               1
 10
0.0
 20
0.0
 30
0.0
  3
*D20
  1

  0
LINE
  5
168
100
AcDbEntity
  8
寸法
370
              -2
  6
Continuous
 62
               0
100
AcDbLine
 10
1074.9706837635431
 20
2250.2208912983165
 30
0.0
 11
1074.9706837635431
 21
2303.2208912983174
 31
0.0
  0
LINE
  5
169
100
AcDbEntity
  8
寸法
370
              -2
  6
Continuous
 62
               0
100
AcDbLine
 10
1155.0
 20
2258.2208912983165
 30
0.0
 11
1155.0
 21
2303.2208912983174
 31
0.0
  0
LINE
  5
16A
100
AcDbEntity
  8
寸法
370
              -2
  6
Continuous
 62
               0
100
AcDbLine
 10
1074.9706837635431
 20
2303.2208912983174
 30
0.0
 11
1155.0
 21
2303.2208912983174
 31
0.0
  0
SOLID
  5
16B
100
AcDbEntity
  8
寸法
370
              -2
 62
               0
100
AcDbTrace
 10
1074.9706837635431
 20
2303.2208912983174
 30
0.0
 11
1082.4741017322931
 21
2305.2314260835174
 31
0.0
 12
1082.4741017322931
 22
2301.2103565131174
 32
0.0
 13
1082.4741017322931
 23
2301.2103565131174
 33
0.0
  0
SOLID
  5
16C
100
AcDbEntity
  8
寸法
370
              -2
 62
               0
100
AcDbTrace
 10
1155.0
 20
2303.2208912983174
 30
0.0
 11
1147.49658203125
 21
2301.2103565131174
 31
0.0
 12
1147.49658203125
 22
2305.2314260835174
 32
0.0
 13
1147.49658203125
 23
2305.2314260835174
 33
0.0
  0
WIPEOUT
  5
16D
100
AcDbEntity
  8
寸法
370
              -2
  6
Continuous
 62
               0
 92
        0
100
AcDbWipeout
 90
        0
 10
1104.4020085484376
 20
1384.6072249367576
 30
0.0
 11
21.166666666666686
 21
0.0
 31
0.0
 12
0.0
 22
21.166666666666686
 32
0.0
 13
1.0
 23
1.0
340
0
 70
               7
280
               1
281
              50
282
              50
283
               0
360
0
 71
               2
 91
        5
 14
-0.5
 24
-43.446314946039394
 14
0.5000000000000027
 24
-43.446314946039394
 14
0.5000000000000027
 24
-44.446314946039408
 14
-0.5
 24
-44.446314946039408
 14
-0.5
 24
-43.446314946039394
  0
MTEXT
  5
16E
100
AcDbEntity
  8
寸法
 62
               0
100
AcDbMText
 10
1104.4020085484376
 20
2334.0559694195927
 30
0.0
 40
16.288411458333332
 41
0.0
 71
               1
 72
               1
  1
80
  7
ＭＳ ゴシック
 73
               1
 44
0.7828267384257843
  0
POINT
  5
16F
100
AcDbEntity
  8
Defpoints
370
               0
 62
               0
100
AcDbPoint
 10
1155.0
 20
2253.2208912983165
 30
0.0
  0
POINT
  5
170
100
AcDbEntity
  8
Defpoints
370
               0
 62
               0
100
AcDbPoint
 10
1074.9706837635431
 20
2245.2208912983165
 30
0.0
  0
POINT
  5
171
100
AcDbEntity
  8
Defpoints
370
               0
 62
               0
100
AcDbPoint
 10
1074.9706837635431
 20
2303.2208912983169
 30
0.0
  0
ENDBLK
  5
172
100
AcDbEntity
  8
寸法
100
AcDbBlockEnd
  0
BLOCK
  5
173
100
AcDbEntity
  8
寸法
100
AcDbBlockBegin
  2
*D21
 70
               1
 10
0.0
 20
0.0
 30
0.0
  3
*D21
  1

  0
LINE
  5
174
100
AcDbEntity
  8
寸法
370
              -2
  6
Continuous
 62
               0
100
AcDbLine
 10
1575.0
 20
2248.2208912871406
 30
0.0
 11
1575.0
 21
2281.2208912871411
 31
0.0
  0
LINE
  5
175
100
AcDbEntity
  8
寸法
370
              -2
  6
Continuous
 62
               0
100
AcDbLine
 10
1595.0
 20
2256.2208912871406
 30
0.0
 11
1595.0
 21
2281.2208912871411
 31
0.0
  0
LINE
  5
176
100
AcDbEntity
  8
寸法
370
              -2
  6
Continuous
 62
               0
100
AcDbLine
 10
1575.0
 20
2281.2208912871411
 30
0.0
 11
1595.0
 21
2281.2208912871411
 31
0.0
  0
SOLID
  5
177
100
AcDbEntity
  8
寸法
370
              -2
 62
               0
100
AcDbTrace
 10
1575.0
 20
2281.2208912871411
 30
0.0
 11
1582.50341796875
 21
2283.2314260723406
 31
0.0
 12
1582.50341796875
 22
2279.2103565019415
 32
0.0
 13
1582.50341796875
 23
2279.2103565019415
 33
0.0
  0
SOLID
  5
178
100
AcDbEntity
  8
寸法
370
              -2
 62
               0
100
AcDbTrace
 10
1595.0
 20
2281.2208912871411
 30
0.0
 11
1587.49658203125
 21
2279.2103565019415
 31
0.0
 12
1587.49658203125
 22
2283.2314260723406
 32
0.0
 13
1587.49658203125
 23
2283.2314260723406
 33
0.0
  0
WIPEOUT
  5
179
100
AcDbEntity
  8
寸法
370
              -2
  6
Continuous
 62
               0
 92
        0
100
AcDbWipeout
 90
        0
 10
1574.4166666666667
 20
1351.8238915929928
 30
0.0
 11
21.166666666666686
 21
0.0
 31
0.0
 12
0.0
 22
21.166666666666686
 32
0.0
 13
1.0
 23
1.0
340
0
 70
               7
280
               1
281
              50
282
              50
283
               0
360
0
 71
               2
 91
        5
 14
-0.5
 24
-43.446314946039415
 14
0.4999999999999919
 24
-43.446314946039415
 14
0.4999999999999919
 24
-44.446314946039408
 14
-0.5
 24
-44.446314946039408
 14
-0.5
 24
-43.446314946039415
  0
MTEXT
  5
17A
100
AcDbEntity
  8
寸法
 62
               0
100
AcDbMText
 10
1574.4166666666667
 20
2301.2726360758279
 30
0.0
 40
16.288411458333332
 41
0.0
 71
               1
 72
               1
  1
20
  7
ＭＳ ゴシック
 73
               1
 44
0.7828267384257843
  0
POINT
  5
17B
100
AcDbEntity
  8
Defpoints
370
               0
 62
               0
100
AcDbPoint
 10
1595.0
 20
2251.2208912871406
 30
0.0
  0
POINT
  5
17C
100
AcDbEntity
  8
Defpoints
370
               0
 62
               0
100
AcDbPoint
 10
1575.0
 20
2243.2208912871406
 30
0.0
  0
POINT
  5
17D
100
AcDbEntity
  8
Defpoints
370
               0
 62
               0
100
AcDbPoint
 10
1575.0
 20
2281.2208912871406
 30
0.0
  0
ENDBLK
  5
17E
100
AcDbEntity
  8
寸法
100
AcDbBlockEnd
  0
BLOCK
  5
17F
100
AcDbEntity
  8
寸法
100
AcDbBlockBegin
  2
*D22
 70
               1
 10
0.0
 20
0.0
 30
0.0
  3
*D22
  1

  0
LINE
  5
180
100
AcDbEntity
  8
寸法
370
              -2
  6
Continuous
 62
               0
100
AcDbLine
 10
2044.6147973931829
 20
2520.0
 30
0.0
 11
1984.0
 21
2520.0
 31
0.0
  0
LINE
  5
181
100
AcDbEntity
  8
寸法
370
              -2
  6
Continuous
 62
               0
100
AcDbLine
 10
2052.6147973931829
 20
2530.0
 30
0.0
 11
1984.0
 21
2530.0
 31
0.0
  0
LINE
  5
182
100
AcDbEntity
  8
寸法
370
              -2
  6
Continuous
 62
               0
100
AcDbLine
 10
1984.0
 20
2520.0
 30
0.0
 11
1984.0
 21
2530.0
 31
0.0
  0
SOLID
  5
183
100
AcDbEntity
  8
寸法
370
              -2
 62
               0
100
AcDbTrace
 10
1984.0
 20
2520.0
 30
0.0
 11
1981.9894652148002
 21
2527.50341796875
 31
0.0
 12
1986.0105347851998
 22
2527.50341796875
 32
0.0
 13
1986.0105347851998
 23
2527.50341796875
 33
0.0
  0
SOLID
  5
184
100
AcDbEntity
  8
寸法
370
              -2
 62
               0
100
AcDbTrace
 10
1984.0
 20
2530.0
 30
0.0
 11
1986.0105347851998
 21
2522.49658203125
 31
0.0
 12
1981.9894652148002
 22
2522.49658203125
 32
0.0
 13
1981.9894652148002
 23
2522.49658203125
 33
0.0
  0
WIPEOUT
  5
185
100
AcDbEntity
  8
寸法
370
              -2
  6
Continuous
 62
               0
 92
        0
100
AcDbWipeout
 90
        0
 10
1962.0333333363137
 20
1584.2196669754985
 30
0.0
 11
21.166666666666686
 21
0.0
 31
0.0
 12
0.0
 22
21.166666666666686
 32
0.0
 13
1.0
 23
1.0
340
0
 70
               7
280
               1
281
              50
282
              50
283
               0
360
0
 71
               2
 91
        5
 14
0.4999999999999919
 24
-43.446314946039394
 14
0.4999999999999919
 24
-44.446314946039408
 14
-0.5
 24
-44.446314946039408
 14
-0.5
 24
-43.446314946039394
 14
0.4999999999999919
 24
-43.446314946039394
  0
MTEXT
  5
186
100
AcDbEntity
  8
寸法
 62
               0
100
AcDbMText
 10
1963.9482552113136
 20
2514.4166666666665
 30
0.0
 40
16.288411458333332
 41
0.0
 71
               1
 72
               1
  1
10
  7
ＭＳ ゴシック
 11
0.0
 21
1.0
 31
0.0
 73
               1
 44
0.7828267384257843
  0
POINT
  5
187
100
AcDbEntity
  8
Defpoints
370
               0
 62
               0
100
AcDbPoint
 10
2057.6147973931829
 20
2530.0
 30
0.0
  0
POINT
  5
188
100
AcDbEntity
  8
Defpoints
370
               0
 62
               0
100
AcDbPoint
 10
2049.6147973931829
 20
2520.0
 30
0.0
  0
POINT
  5
189
100
AcDbEntity
  8
Defpoints
370
               0
 62
               0
100
AcDbPoint
 10
1984.0
 20
2520.0
 30
0.0
  0
ENDBLK
  5
18A
100
AcDbEntity
  8
寸法
100
AcDbBlockEnd
  0
BLOCK
  5
18B
100
AcDbEntity
  8
寸法
100
AcDbBlockBegin
  2
*D23
 70
               1
 10
0.0
 20
0.0
 30
0.0
  3
*D23
  1

  0
LINE
  5
18C
100
AcDbEntity
  8
寸法
370
              -2
  6
Continuous
 62
               0
100
AcDbLine
 10
1673.600901968503
 20
2252.0493184118868
 30
0.0
 11
1705.1247065801249
 21
2283.5731230235092
 31
0.0
  0
LINE
  5
18D
100
AcDbEntity
  8
寸法
370
              -2
  6
Continuous
 62
               0
100
AcDbLine
 10
1670.772474843757
 20
2249.2208912871406
 30
0.0
 11
1673.600901968503
 21
2252.0493184118868
 31
0.0
  0
SOLID
  5
18E
100
AcDbEntity
  8
寸法
370
              -2
 62
               0
100
AcDbTrace
 10
1673.600901968503
 20
2252.0493184118868
 30
0.0
 11
1665.3833972864979
 21
2237.816182791219
 31
0.0
 12
1659.3677663478352
 22
2243.8318137298816
 32
0.0
 13
1659.3677663478352
 23
2243.8318137298816
 33
0.0
  0
WIPEOUT
  5
18F
100
AcDbEntity
  8
寸法
370
              -2
  6
Continuous
 62
               0
 92
        0
100
AcDbWipeout
 90
        0
 10
1667.1412873194949
 20
1331.4911684525098
 30
0.0
 11
37.417733837788148
 21
0.0
 31
0.0
 12
0.0
 22
37.417733837788148
 32
0.0
 13
1.0
 23
1.0
340
0
 70
               7
280
               1
281
              50
282
              50
283
               0
360
0
 71
               2
 91
        5
 14
-0.0999999999999994
 24
-24.359789845203366
 14
0.4999999999999985
 24
-24.959789845203371
 14
0.0999999999999979
 24
-25.359789845203366
 14
-0.5
 24
-24.759789845203361
 14
-0.0999999999999994
 24
-24.359789845203366
  0
MTEXT
  5
190
100
AcDbEntity
  8
寸法
 62
               0
100
AcDbMText
 10
1668.4953415627499
 20
2275.3012074355383
 30
0.0
 40
16.288411458333332
 41
0.0
 71
               1
 72
               1
  1
R 4
  7
ＭＳ ゴシック
 11
0.7071067811865476
 21
0.7071067811865475
 31
0.0
 73
               1
 44
0.7828267384257843
  0
POINT
  5
191
100
AcDbEntity
  8
Defpoints
370
               0
 62
               0
100
AcDbPoint
 10
1670.772474843757
 20
2249.2208912871406
 30
0.0
  0
POINT
  5
192
100
AcDbEntity
  8
Defpoints
370
               0
 62
               0
100
AcDbPoint
 10
1673.600901968503
 20
2252.0493184118868
 30
0.0
  0
ENDBLK
  5
193
100
AcDbEntity
  8
寸法
100
AcDbBlockEnd
  0
BLOCK
  5
194
100
AcDbEntity
  8
寸法
100
AcDbBlockBegin
  2
*D24
 70
               1
 10
0.0
 20
0.0
 30
0.0
  3
*D24
  1

  0
LINE
  5
195
100
AcDbEntity
  8
寸法
370
              -2
  6
Continuous
 62
               0
100
AcDbLine
 10
2047.6147973931829
 20
2531.0
 30
0.0
 11
2047.6147973931829
 21
2548.0
 31
0.0
  0
LINE
  5
196
100
AcDbEntity
  8
寸法
370
              -2
  6
Continuous
 62
               0
100
AcDbLine
 10
2049.6147973931829
 20
2525.0
 30
0.0
 11
2049.6147973931829
 21
2548.0
 31
0.0
  0
LINE
  5
197
100
AcDbEntity
  8
寸法
370
              -2
  6
Continuous
 62
               0
100
AcDbLine
 10
2047.6147973931829
 20
2548.0
 30
0.0
 11
2030.7240653632582
 21
2548.0
 31
0.0
  0
LINE
  5
198
100
AcDbEntity
  8
寸法
370
              -2
  6
Continuous
 62
               0
100
AcDbLine
 10
2047.6147973931829
 20
2548.0
 30
0.0
 11
2049.6147973931829
 21
2548.0
 31
0.0
  0
SOLID
  5
199
100
AcDbEntity
  8
寸法
370
              -2
 62
               0
100
AcDbTrace
 10
2047.6147973931829
 20
2548.0
 30
0.0
 11
2055.1182153619329
 21
2550.0105347851995
 31
0.0
 12
2055.1182153619329
 22
2545.9894652148005
 32
0.0
 13
2055.1182153619329
 23
2545.9894652148005
 33
0.0
  0
SOLID
  5
19A
100
AcDbEntity
  8
寸法
370
              -2
 62
               0
100
AcDbTrace
 10
2049.6147973931829
 20
2548.0
 30
0.0
 11
2042.1113794244329
 21
2545.9894652148005
 31
0.0
 12
2042.1113794244329
 22
2550.0105347851995
 32
0.0
 13
2042.1113794244329
 23
2550.0105347851995
 33
0.0
  0
WIPEOUT
  5
19B
100
AcDbEntity
  8
寸法
370
              -2
  6
Continuous
 62
               0
 92
        0
100
AcDbWipeout
 90
        0
 10
2030.724065363258
 20
1629.1863336391848
 30
0.0
 11
21.166666666666664
 21
0.0
 31
0.0
 12
0.0
 22
21.166666666666664
 32
0.0
 13
1.0
 23
1.0
340
0
 70
               7
280
               1
281
              50
282
              50
283
               0
360
0
 71
               2
 91
        5
 14
-0.5
 24
-43.446314946039436
 14
0.0000000000000072
 24
-43.446314946039436
 14
0.0000000000000072
 24
-44.44631494603945
 14
-0.5
 24
-44.44631494603945
 14
-0.5
 24
-43.446314946039436
  0
MTEXT
  5
19C
100
AcDbEntity
  8
寸法
 62
               0
100
AcDbMText
 10
2030.724065363258
 20
2578.6350781220199
 30
0.0
 40
16.288411458333332
 41
0.0
 71
               1
 72
               1
  1
2
  7
ＭＳ ゴシック
 73
               1
 44
0.7828267384257843
  0
POINT
  5
19D
100
AcDbEntity
  8
Defpoints
370
               0
 62
               0
100
AcDbPoint
 10
2049.6147973931829
 20
2520.0
 30
0.0
  0
POINT
  5
19E
100
AcDbEntity
  8
Defpoints
370
               0
 62
               0
100
AcDbPoint
 10
2047.6147973931829
 20
2526.0
 30
0.0
  0
POINT
  5
19F
100
AcDbEntity
  8
Defpoints
370
               0
 62
               0
100
AcDbPoint
 10
2047.6147973931829
 20
2548.0
 30
0.0
  0
ENDBLK
  5
1A0
100
AcDbEntity
  8
寸法
100
AcDbBlockEnd
  0
BLOCK
  5
1A1
100
AcDbEntity
  8
寸法
100
AcDbBlockBegin
  2
*D25
 70
               1
 10
0.0
 20
0.0
 30
0.0
  3
*D25
  1

  0
LINE
  5
1A2
100
AcDbEntity
  8
寸法
370
              -2
  6
Continuous
 62
               0
100
AcDbLine
 10
1587.0
 20
2253.2208912871406
 30
0.0
 11
1564.20000000298
 21
2253.2208912871406
 31
0.0
  0
LINE
  5
1A3
100
AcDbEntity
  8
寸法
370
              -2
  6
Continuous
 62
               0
100
AcDbLine
 10
1590.8945570531939
 20
2251.2444322622246
 30
0.0
 11
1564.20000000298
 21
2251.2444322622246
 31
0.0
  0
LINE
  5
1A4
100
AcDbEntity
  8
寸法
370
              -2
  6
Continuous
 62
               0
100
AcDbLine
 10
1564.20000000298
 20
2253.2208912871406
 30
0.0
 11
1564.20000000298
 21
2265.6602899578661
 31
0.0
  0
LINE
  5
1A5
100
AcDbEntity
  8
寸法
370
              -2
  6
Continuous
 62
               0
100
AcDbLine
 10
1564.20000000298
 20
2253.2208912871406
 30
0.0
 11
1564.20000000298
 21
2251.2444322622246
 31
0.0
  0
SOLID
  5
1A6
100
AcDbEntity
  8
寸法
370
              -2
 62
               0
100
AcDbTrace
 10
1564.20000000298
 20
2253.2208912871406
 30
0.0
 11
1566.2105347881798
 21
2245.7174733183906
 31
0.0
 12
1562.1894652177803
 22
2245.7174733183906
 32
0.0
 13
1562.1894652177803
 23
2245.7174733183906
 33
0.0
  0
SOLID
  5
1A7
100
AcDbEntity
  8
寸法
370
              -2
 62
               0
100
AcDbTrace
 10
1564.20000000298
 20
2251.2444322622246
 30
0.0
 11
1562.1894652177803
 21
2258.7478502309746
 31
0.0
 12
1566.2105347881798
 22
2258.7478502309746
 32
0.0
 13
1566.2105347881798
 23
2258.7478502309746
 33
0.0
  0
WIPEOUT
  5
1A8
100
AcDbEntity
  8
寸法
370
              -2
  6
Continuous
 62
               0
 92
        0
100
AcDbWipeout
 90
        0
 10
1531.6500000059602
 20
1324.8799569333646
 30
0.0
 11
21.166666666666671
 21
0.0
 31
0.0
 12
0.0
 22
21.166666666666671
 32
0.0
 13
1.0
 23
1.0
340
0
 70
               7
280
               1
281
              50
282
              50
283
               0
360
0
 71
               2
 91
        5
 14
0.5000000000000033
 24
-43.446314946039422
 14
0.5000000000000033
 24
-43.946314946039429
 14
-0.5
 24
-43.946314946039429
 14
-0.5
 24
-43.446314946039422
 14
0.5000000000000033
 24
-43.446314946039422
  0
MTEXT
  5
1A9
100
AcDbEntity
  8
寸法
 62
               0
100
AcDbMText
 10
1533.5649218809604
 20
2255.0769566245326
 30
0.0
 40
16.288411458333332
 41
0.0
 71
               1
 72
               1
  1
2
  7
ＭＳ ゴシック
 11
0.0
 21
1.0
 31
0.0
 73
               1
 44
0.7828267384257843
  0
POINT
  5
1AA
100
AcDbEntity
  8
Defpoints
370
               0
 62
               0
100
AcDbPoint
 10
1595.8945570531939
 20
2251.2444322622246
 30
0.0
  0
POINT
  5
1AB
100
AcDbEntity
  8
Defpoints
370
               0
 62
               0
100
AcDbPoint
 10
1592.0
 20
2253.2208912871406
 30
0.0
  0
POINT
  5
1AC
100
AcDbEntity
  8
Defpoints
370
               0
 62
               0
100
AcDbPoint
 10
1564.20000000298
 20
2253.2208912871406
 30
0.0
  0
ENDBLK
  5
1AD
100
AcDbEntity
  8
寸法
100
AcDbBlockEnd
  0
BLOCK
  5
1AE
100
AcDbEntity
  8
一般
100
AcDbBlockBegin
  2
*U26
 70
               1
 10
0.0
 20
0.0
 30
0.0
  3
*U26
  1

  0
LINE
  5
1AF
100
AcDbEntity
  8
一般
370
               9
  6
STYLE_02
 62
               0
100
AcDbLine
 10
-574.26354358775757
 20
-4.5605432789259339
 30
0.0
 11
-538.26354358775757
 21
-4.5605432789259339
 31
0.0
  0
LINE
  5
1B0
100
AcDbEntity
  8
一般
370
               9
  6
STYLE_02
 62
               0
100
AcDbLine
 10
-574.26354358775757
 20
-1.5605432789259339
 30
0.0
 11
-538.26354358775757
 21
-1.5605432789259339
 31
0.0
  0
LINE
  5
1B1
100
AcDbEntity
  8
一般
370
               9
  6
STYLE_02
 62
               0
100
AcDbLine
 10
-538.26354358775757
 20
-1.5605432789259339
 30
0.0
 11
-538.26354358775757
 21
-4.5605432789259339
 31
0.0
  0
ARC
  5
1B2
100
AcDbEntity
  8
一般
370
               9
  6
STYLE_02
 62
               0
100
AcDbCircle
 10
-574.26354358775757
 20
-1.0605432789259339
 30
0.0
 40
0.5
100
AcDbArc
 50
180.0
 51
270.0
  0
ARC
  5
1B3
100
AcDbEntity
  8
一般
370
               9
  6
STYLE_02
 62
               0
100
AcDbCircle
 10
-574.26354358775757
 20
-5.0605432789259339
 30
0.0
 40
0.5
100
AcDbArc
 50
90.0
 51
180.0
  0
LINE
  5
1B4
100
AcDbEntity
  8
一般
370
               9
  6
STYLE_02
 62
               0
100
AcDbLine
 10
-530.75799008829244
 20
-4.5605432789259339
 30
0.0
 11
-530.75799008829244
 21
-1.5605432789259339
 31
0.0
  0
LINE
  5
1B5
100
AcDbEntity
  8
一般
370
               9
  6
STYLE_02
 62
               0
100
AcDbLine
 10
-538.26354358775757
 20
-4.5605432789259339
 30
0.0
 11
-530.75799008829244
 21
-4.5605432789259339
 31
0.0
  0
LINE
  5
1B6
100
AcDbEntity
  8
一般
370
               9
  6
STYLE_02
 62
               0
100
AcDbLine
 10
-538.26354358775757
 20
-1.5605432789259339
 30
0.0
 11
-530.75799008829244
 21
-1.5605432789259339
 31
0.0
  0
LINE
  5
1B7
100
AcDbEntity
  8
一般
370
               9
  6
STYLE_02
 62
               0
100
AcDbLine
 10
-574.26354358775757
 20
-12.360543278925888
 30
0.0
 11
-538.26354358775757
 21
-12.360543278925888
 31
0.0
  0
LINE
  5
1B8
100
AcDbEntity
  8
一般
370
               9
  6
STYLE_02
 62
               0
100
AcDbLine
 10
-574.26354358775757
 20
-15.360543278925888
 30
0.0
 11
-538.26354358775757
 21
-15.360543278925888
 31
0.0
  0
LINE
  5
1B9
100
AcDbEntity
  8
一般
370
               9
  6
STYLE_02
 62
               0
100
AcDbLine
 10
-538.26354358775757
 20
-15.360543278925888
 30
0.0
 11
-538.26354358775757
 21
-12.360543278925888
 31
0.0
  0
ARC
  5
1BA
100
AcDbEntity
  8
一般
370
               9
  6
STYLE_02
 62
               0
100
AcDbCircle
 10
-574.26354358775757
 20
-15.860543278925888
 30
0.0
 40
0.5
100
AcDbArc
 50
90.0
 51
180.0
  0
ARC
  5
1BB
100
AcDbEntity
  8
一般
370
               9
  6
STYLE_02
 62
               0
100
AcDbCircle
 10
-574.26354358775757
 20
-11.860543278925888
 30
0.0
 40
0.5
100
AcDbArc
 50
180.0
 51
270.0
  0
LINE
  5
1BC
100
AcDbEntity
  8
一般
370
               9
  6
STYLE_02
 62
               0
100
AcDbLine
 10
-530.75799008829244
 20
-12.360543278925888
 30
0.0
 11
-530.75799008829244
 21
-15.360543278925888
 31
0.0
  0
LINE
  5
1BD
100
AcDbEntity
  8
一般
370
               9
  6
STYLE_02
 62
               0
100
AcDbLine
 10
-538.26354358775757
 20
-12.360543278925888
 30
0.0
 11
-530.75799008829244
 21
-12.360543278925888
 31
0.0
  0
LINE
  5
1BE
100
AcDbEntity
  8
一般
370
               9
  6
STYLE_02
 62
               0
100
AcDbLine
 10
-538.26354358775757
 20
-15.360543278925888
 30
0.0
 11
-530.75799008829244
 21
-15.360543278925888
 31
0.0
  0
LINE
  5
1BF
100
AcDbEntity
  8
一般
370
               9
  6
STYLE_02
 62
               0
100
AcDbLine
 10
-574.76354358775757
 20
-5.0605432789259339
 30
0.0
 11
-574.76354358775757
 21
-11.860543278925888
 31
0.0
  0
POINT
  5
1C0
100
AcDbEntity
  8
一般
370
               5
  6
Continuous
 62
               0
100
AcDbPoint
 10
-578.26354358775757
 20
-8.4605432789260249
 30
0.0
  0
ENDBLK
  5
1C1
100
AcDbEntity
  8
一般
100
AcDbBlockEnd
  0
BLOCK
  5
1C2
100
AcDbEntity
  8
一般
100
AcDbBlockBegin
  2
*U27
 70
               1
 10
0.0
 20
0.0
 30
0.0
  3
*U27
  1

  0
LINE
  5
1C3
100
AcDbEntity
  8
一般
370
               9
  6
STYLE_02
 62
               0
100
AcDbLine
 10
-574.26354358775757
 20
390.43945672107384
 30
0.0
 11
-538.26354358775757
 21
390.43945672107384
 31
0.0
  0
LINE
  5
1C4
100
AcDbEntity
  8
一般
370
               9
  6
STYLE_02
 62
               0
100
AcDbLine
 10
-574.26354358775757
 20
393.43945672107384
 30
0.0
 11
-538.26354358775757
 21
393.43945672107384
 31
0.0
  0
LINE
  5
1C5
100
AcDbEntity
  8
一般
370
               9
  6
STYLE_02
 62
               0
100
AcDbLine
 10
-538.26354358775757
 20
393.43945672107384
 30
0.0
 11
-538.26354358775757
 21
390.43945672107384
 31
0.0
  0
ARC
  5
1C6
100
AcDbEntity
  8
一般
370
               9
  6
STYLE_02
 62
               0
100
AcDbCircle
 10
-574.26354358775757
 20
393.93945672107384
 30
0.0
 40
0.5
100
AcDbArc
 50
180.0
 51
270.0
  0
ARC
  5
1C7
100
AcDbEntity
  8
一般
370
               9
  6
STYLE_02
 62
               0
100
AcDbCircle
 10
-574.26354358775757
 20
389.93945672107384
 30
0.0
 40
0.5
100
AcDbArc
 50
90.0
 51
180.0
  0
LINE
  5
1C8
100
AcDbEntity
  8
一般
370
               9
  6
STYLE_02
 62
               0
100
AcDbLine
 10
-530.75799008829244
 20
390.43945672107384
 30
0.0
 11
-530.75799008829244
 21
393.43945672107384
 31
0.0
  0
LINE
  5
1C9
100
AcDbEntity
  8
一般
370
               9
  6
STYLE_02
 62
               0
100
AcDbLine
 10
-538.26354358775757
 20
390.43945672107384
 30
0.0
 11
-530.75799008829244
 21
390.43945672107384
 31
0.0
  0
LINE
  5
1CA
100
AcDbEntity
  8
一般
370
               9
  6
STYLE_02
 62
               0
100
AcDbLine
 10
-538.26354358775757
 20
393.43945672107384
 30
0.0
 11
-530.75799008829244
 21
393.43945672107384
 31
0.0
  0
LINE
  5
1CB
100
AcDbEntity
  8
一般
370
               9
  6
STYLE_02
 62
               0
100
AcDbLine
 10
-574.26354358775757
 20
382.63945672107411
 30
0.0
 11
-538.26354358775757
 21
382.63945672107411
 31
0.0
  0
LINE
  5
1CC
100
AcDbEntity
  8
一般
370
               9
  6
STYLE_02
 62
               0
100
AcDbLine
 10
-574.26354358775757
 20
379.63945672107411
 30
0.0
 11
-538.26354358775757
 21
379.63945672107411
 31
0.0
  0
LINE
  5
1CD
100
AcDbEntity
  8
一般
370
               9
  6
STYLE_02
 62
               0
100
AcDbLine
 10
-538.26354358775757
 20
379.63945672107411
 30
0.0
 11
-538.26354358775757
 21
382.63945672107411
 31
0.0
  0
ARC
  5
1CE
100
AcDbEntity
  8
一般
370
               9
  6
STYLE_02
 62
               0
100
AcDbCircle
 10
-574.26354358775757
 20
379.13945672107411
 30
0.0
 40
0.5
100
AcDbArc
 50
90.0
 51
180.0
  0
ARC
  5
1CF
100
AcDbEntity
  8
一般
370
               9
  6
STYLE_02
 62
               0
100
AcDbCircle
 10
-574.26354358775757
 20
383.13945672107411
 30
0.0
 40
0.5
100
AcDbArc
 50
180.0
 51
270.0
  0
LINE
  5
1D0
100
AcDbEntity
  8
一般
370
               9
  6
STYLE_02
 62
               0
100
AcDbLine
 10
-530.75799008829244
 20
382.63945672107411
 30
0.0
 11
-530.75799008829244
 21
379.63945672107411
 31
0.0
  0
LINE
  5
1D1
100
AcDbEntity
  8
一般
370
               9
  6
STYLE_02
 62
               0
100
AcDbLine
 10
-538.26354358775757
 20
382.63945672107411
 30
0.0
 11
-530.75799008829244
 21
382.63945672107411
 31
0.0
  0
LINE
  5
1D2
100
AcDbEntity
  8
一般
370
               9
  6
STYLE_02
 62
               0
100
AcDbLine
 10
-538.26354358775757
 20
379.63945672107411
 30
0.0
 11
-530.75799008829244
 21
379.63945672107411
 31
0.0
  0
LINE
  5
1D3
100
AcDbEntity
  8
一般
370
               9
  6
STYLE_02
 62
               0
100
AcDbLine
 10
-574.76354358775757
 20
389.93945672107384
 30
0.0
 11
-574.76354358775757
 21
383.13945672107411
 31
0.0
  0
POINT
  5
1D4
100
AcDbEntity
  8
一般
370
               5
  6
Continuous
 62
               0
100
AcDbPoint
 10
-578.26354358775757
 20
386.5394567210742
 30
0.0
  0
ENDBLK
  5
1D5
100
AcDbEntity
  8
一般
100
AcDbBlockEnd
  0
BLOCK
  5
1D6
100
AcDbEntity
  8
寸法
100
AcDbBlockBegin
  2
*D28
 70
               1
 10
0.0
 20
0.0
 30
0.0
  3
*D28
  1

  0
LINE
  5
1D7
100
AcDbEntity
  8
寸法
370
              -2
  6
Continuous
 62
               0
100
AcDbLine
 10
-646.26354358775768
 20
386.5394567210742
 30
0.0
 11
-647.2635435877587
 21
386.5394567210742
 31
0.0
  0
LINE
  5
1D8
100
AcDbEntity
  8
寸法
370
              -2
  6
Continuous
 62
               0
100
AcDbLine
 10
-579.26354358775757
 20
446.5394567210742
 30
0.0
 11
-647.2635435877587
 21
446.5394567210742
 31
0.0
  0
LINE
  5
1D9
100
AcDbEntity
  8
寸法
370
              -2
  6
Continuous
 62
               0
100
AcDbLine
 10
-647.2635435877587
 20
386.5394567210742
 30
0.0
 11
-647.2635435877587
 21
446.5394567210742
 31
0.0
  0
SOLID
  5
1DA
100
AcDbEntity
  8
寸法
370
              -2
 62
               0
100
AcDbTrace
 10
-647.2635435877587
 20
386.5394567210742
 30
0.0
 11
-649.27407837295846
 21
394.0428746898242
 31
0.0
 12
-645.25300880255895
 22
394.0428746898242
 32
0.0
 13
-645.25300880255895
 23
394.0428746898242
 33
0.0
  0
SOLID
  5
1DB
100
AcDbEntity
  8
寸法
370
              -2
 62
               0
100
AcDbTrace
 10
-647.2635435877587
 20
446.5394567210742
 30
0.0
 11
-645.25300880255895
 21
439.0360387523242
 31
0.0
 12
-649.27407837295846
 22
439.0360387523242
 32
0.0
 13
-649.27407837295846
 23
439.0360387523242
 33
0.0
  0
WIPEOUT
  5
1DC
100
AcDbEntity
  8
寸法
370
              -2
  6
Continuous
 62
               0
 92
        0
100
AcDbWipeout
 90
        0
 10
-669.23021025144521
 20
405.95612338774089
 30
0.0
 11
21.166666666666686
 21
0.0
 31
0.0
 12
0.0
 22
21.166666666666686
 32
0.0
 13
1.0
 23
1.0
340
0
 70
               7
280
               1
281
              50
282
              50
283
               0
360
0
 71
               2
 91
        5
 14
0.4999999999999973
 24
0.5
 14
0.4999999999999973
 24
-0.5
 14
-0.5
 24
-0.5
 14
-0.5
 24
0.5
 14
0.4999999999999973
 24
0.5
  0
MTEXT
  5
1DD
100
AcDbEntity
  8
寸法
 62
               0
100
AcDbMText
 10
-667.31528837644521
 20
405.95612338774089
 30
0.0
 40
16.288411458333332
 41
0.0
 71
               1
 72
               1
  1
60
  7
ＭＳ ゴシック
 11
0.0
 21
1.0
 31
0.0
 73
               1
 44
0.7828267384257843
  0
POINT
  5
1DE
100
AcDbEntity
  8
Defpoints
370
               0
 62
               0
100
AcDbPoint
 10
-574.26354358775757
 20
446.5394567210742
 30
0.0
  0
POINT
  5
1DF
100
AcDbEntity
  8
Defpoints
370
               0
 62
               0
100
AcDbPoint
 10
-641.26354358775768
 20
386.5394567210742
 30
0.0
  0
POINT
  5
1E0
100
AcDbEntity
  8
Defpoints
370
               0
 62
               0
100
AcDbPoint
 10
-647.2635435877587
 20
386.5394567210742
 30
0.0
  0
ENDBLK
  5
1E1
100
AcDbEntity
  8
寸法
100
AcDbBlockEnd
  0
BLOCK
  5
1E2
100
AcDbEntity
  8
寸法
100
AcDbBlockBegin
  2
*D29
 70
               1
 10
0.0
 20
0.0
 30
0.0
  3
*D29
  1

  0
LINE
  5
1E3
100
AcDbEntity
  8
寸法
370
              -2
  6
Continuous
 62
               0
100
AcDbLine
 10
-646.26354358775768
 20
-8.4605432789260249
 30
0.0
 11
-647.2635435877587
 21
-8.4605432789260249
 31
0.0
  0
LINE
  5
1E4
100
AcDbEntity
  8
寸法
370
              -2
  6
Continuous
 62
               0
100
AcDbLine
 10
-646.26354358775768
 20
386.5394567210742
 30
0.0
 11
-647.2635435877587
 21
386.5394567210742
 31
0.0
  0
LINE
  5
1E5
100
AcDbEntity
  8
寸法
370
              -2
  6
Continuous
 62
               0
100
AcDbLine
 10
-647.2635435877587
 20
-8.4605432789260249
 30
0.0
 11
-647.2635435877587
 21
386.5394567210742
 31
0.0
  0
SOLID
  5
1E6
100
AcDbEntity
  8
寸法
370
              -2
 62
               0
100
AcDbTrace
 10
-647.2635435877587
 20
-8.4605432789260249
 30
0.0
 11
-649.27407837295846
 21
-0.9571253101760249
 31
0.0
 12
-645.25300880255895
 22
-0.9571253101760249
 32
0.0
 13
-645.25300880255895
 23
-0.9571253101760249
 33
0.0
  0
SOLID
  5
1E7
100
AcDbEntity
  8
寸法
370
              -2
 62
               0
100
AcDbTrace
 10
-647.2635435877587
 20
386.5394567210742
 30
0.0
 11
-645.25300880255895
 21
379.0360387523242
 31
0.0
 12
-649.27407837295846
 22
379.0360387523242
 32
0.0
 13
-649.27407837295846
 23
379.0360387523242
 33
0.0
  0
WIPEOUT
  5
1E8
100
AcDbEntity
  8
寸法
370
              -2
  6
Continuous
 62
               0
 92
        0
100
AcDbWipeout
 90
        0
 10
-669.23021025144521
 20
173.16445672107409
 30
0.0
 11
31.75
 21
0.0
 31
0.0
 12
0.0
 22
31.75
 32
0.0
 13
1.0
 23
1.0
340
0
 70
               7
280
               1
281
              50
282
              50
283
               0
360
0
 71
               2
 91
        5
 14
0.1666666666666655
 24
0.5
 14
0.1666666666666655
 24
-0.5
 14
-0.5
 24
-0.5
 14
-0.5
 24
0.5
 14
0.1666666666666655
 24
0.5
  0
MTEXT
  5
1E9
100
AcDbEntity
  8
寸法
 62
               0
100
AcDbMText
 10
-667.31528837644521
 20
173.16445672107409
 30
0.0
 40
16.288411458333332
 41
0.0
 71
               1
 72
               1
  1
395
  7
ＭＳ ゴシック
 11
0.0
 21
1.0
 31
0.0
 73
               1
 44
0.7828267384257843
  0
POINT
  5
1EA
100
AcDbEntity
  8
Defpoints
370
               0
 62
               0
100
AcDbPoint
 10
-641.26354358775768
 20
386.5394567210742
 30
0.0
  0
POINT
  5
1EB
100
AcDbEntity
  8
Defpoints
370
               0
 62
               0
100
AcDbPoint
 10
-641.26354358775768
 20
-8.4605432789260249
 30
0.0
  0
POINT
  5
1EC
100
AcDbEntity
  8
Defpoints
370
               0
 62
               0
100
AcDbPoint
 10
-647.2635435877587
 20
-8.4605432789260249
 30
0.0
  0
ENDBLK
  5
1ED
100
AcDbEntity
  8
寸法
100
AcDbBlockEnd
  0
BLOCK
  5
1EE
100
AcDbEntity
  8
寸法
100
AcDbBlockBegin
  2
*D30
 70
               1
 10
0.0
 20
0.0
 30
0.0
  3
*D30
  1

  0
LINE
  5
1EF
100
AcDbEntity
  8
寸法
370
              -2
  6
Continuous
 62
               0
100
AcDbLine
 10
-578.26354358775757
 20
-103.46054327892602
 30
0.0
 11
-647.26354358775768
 21
-103.46054327892602
 31
0.0
  0
LINE
  5
1F0
100
AcDbEntity
  8
寸法
370
              -2
  6
Continuous
 62
               0
100
AcDbLine
 10
-642.26354358775768
 20
-8.4605432789260249
 30
0.0
 11
-647.26354358775768
 21
-8.4605432789260249
 31
0.0
  0
LINE
  5
1F1
100
AcDbEntity
  8
寸法
370
              -2
  6
Continuous
 62
               0
100
AcDbLine
 10
-647.26354358775768
 20
-103.46054327892602
 30
0.0
 11
-647.26354358775768
 21
-8.4605432789260249
 31
0.0
  0
SOLID
  5
1F2
100
AcDbEntity
  8
寸法
370
              -2
 62
               0
100
AcDbTrace
 10
-647.26354358775768
 20
-103.46054327892602
 30
0.0
 11
-649.27407837295743
 21
-95.957125310176025
 31
0.0
 12
-645.25300880255793
 22
-95.957125310176025
 32
0.0
 13
-645.25300880255793
 23
-95.957125310176025
 33
0.0
  0
SOLID
  5
1F3
100
AcDbEntity
  8
寸法
370
              -2
 62
               0
100
AcDbTrace
 10
-647.26354358775768
 20
-8.4605432789260249
 30
0.0
 11
-645.25300880255793
 21
-15.963961247676025
 31
0.0
 12
-649.27407837295743
 22
-15.963961247676025
 32
0.0
 13
-649.27407837295743
 23
-15.963961247676025
 33
0.0
  0
WIPEOUT
  5
1F4
100
AcDbEntity
  8
寸法
370
              -2
  6
Continuous
 62
               0
 92
        0
100
AcDbWipeout
 90
        0
 10
-669.23021025144419
 20
-66.543876612259353
 30
0.0
 11
21.166666666666664
 21
0.0
 31
0.0
 12
0.0
 22
21.166666666666664
 32
0.0
 13
1.0
 23
1.0
340
0
 70
               7
280
               1
281
              50
282
              50
283
               0
360
0
 71
               2
 91
        5
 14
0.4999999999999983
 24
0.5
 14
0.4999999999999983
 24
-0.5
 14
-0.5
 24
-0.5
 14
-0.5
 24
0.5
 14
0.4999999999999983
 24
0.5
  0
MTEXT
  5
1F5
100
AcDbEntity
  8
寸法
 62
               0
100
AcDbMText
 10
-667.31528837644419
 20
-66.543876612259353
 30
0.0
 40
16.288411458333332
 41
0.0
 71
               1
 72
               1
  1
95
  7
ＭＳ ゴシック
 11
0.0
 21
1.0
 31
0.0
 73
               1
 44
0.7828267384257843
  0
POINT
  5
1F6
100
AcDbEntity
  8
Defpoints
370
               0
 62
               0
100
AcDbPoint
 10
-637.26354358775768
 20
-8.4605432789260249
 30
0.0
  0
POINT
  5
1F7
100
AcDbEntity
  8
Defpoints
370
               0
 62
               0
100
AcDbPoint
 10
-573.26354358775757
 20
-103.46054327892602
 30
0.0
  0
POINT
  5
1F8
100
AcDbEntity
  8
Defpoints
370
               0
 62
               0
100
AcDbPoint
 10
-647.26354358775768
 20
-103.46054327892602
 30
0.0
  0
ENDBLK
  5
1F9
100
AcDbEntity
  8
寸法
100
AcDbBlockEnd
  0
BLOCK
  5
1FA
100
AcDbEntity
  8
一般
100
AcDbBlockBegin
  2
*U31
 70
               1
 10
0.0
 20
0.0
 30
0.0
  3
*U31
  1

  0
LINE
  5
1FB
100
AcDbEntity
  8
一般
370
               9
  6
STYLE_02
 62
               0
100
AcDbLine
 10
17.736456412242433
 20
-4.5605432789259339
 30
0.0
 11
-18.263543587757567
 21
-4.5605432789259339
 31
0.0
  0
LINE
  5
1FC
100
AcDbEntity
  8
一般
370
               9
  6
STYLE_02
 62
               0
100
AcDbLine
 10
17.736456412242433
 20
-1.5605432789259339
 30
0.0
 11
-18.263543587757567
 21
-1.5605432789259339
 31
0.0
  0
LINE
  5
1FD
100
AcDbEntity
  8
一般
370
               9
  6
STYLE_02
 62
               0
100
AcDbLine
 10
-18.263543587757567
 20
-1.5605432789259339
 30
0.0
 11
-18.263543587757567
 21
-4.5605432789259339
 31
0.0
  0
ARC
  5
1FE
100
AcDbEntity
  8
一般
370
               9
  6
STYLE_02
 62
               0
100
AcDbCircle
 10
17.736456412242433
 20
-1.0605432789259339
 30
0.0
 40
0.5
100
AcDbArc
 50
270.0
 51
0.0
  0
ARC
  5
1FF
100
AcDbEntity
  8
一般
370
               9
  6
STYLE_02
 62
               0
100
AcDbCircle
 10
17.736456412242433
 20
-5.0605432789259339
 30
0.0
 40
0.5
100
AcDbArc
 50
0.0
 51
90.0
  0
LINE
  5
200
100
AcDbEntity
  8
一般
370
               9
  6
STYLE_02
 62
               0
100
AcDbLine
 10
-25.769097087222917
 20
-4.5605432789259339
 30
0.0
 11
-25.769097087222917
 21
-1.5605432789259339
 31
0.0
  0
LINE
  5
201
100
AcDbEntity
  8
一般
370
               9
  6
STYLE_02
 62
               0
100
AcDbLine
 10
-18.263543587757567
 20
-4.5605432789259339
 30
0.0
 11
-25.769097087222917
 21
-4.5605432789259339
 31
0.0
  0
LINE
  5
202
100
AcDbEntity
  8
一般
370
               9
  6
STYLE_02
 62
               0
100
AcDbLine
 10
-18.263543587757567
 20
-1.5605432789259339
 30
0.0
 11
-25.769097087222917
 21
-1.5605432789259339
 31
0.0
  0
LINE
  5
203
100
AcDbEntity
  8
一般
370
               9
  6
STYLE_02
 62
               0
100
AcDbLine
 10
17.736456412242433
 20
-12.360543278925888
 30
0.0
 11
-18.263543587757567
 21
-12.360543278925888
 31
0.0
  0
LINE
  5
204
100
AcDbEntity
  8
一般
370
               9
  6
STYLE_02
 62
               0
100
AcDbLine
 10
17.736456412242433
 20
-15.360543278925888
 30
0.0
 11
-18.263543587757567
 21
-15.360543278925888
 31
0.0
  0
LINE
  5
205
100
AcDbEntity
  8
一般
370
               9
  6
STYLE_02
 62
               0
100
AcDbLine
 10
-18.263543587757567
 20
-15.360543278925888
 30
0.0
 11
-18.263543587757567
 21
-12.360543278925888
 31
0.0
  0
ARC
  5
206
100
AcDbEntity
  8
一般
370
               9
  6
STYLE_02
 62
               0
100
AcDbCircle
 10
17.736456412242433
 20
-15.860543278925888
 30
0.0
 40
0.5
100
AcDbArc
 50
0.0
 51
90.0
  0
ARC
  5
207
100
AcDbEntity
  8
一般
370
               9
  6
STYLE_02
 62
               0
100
AcDbCircle
 10
17.736456412242433
 20
-11.860543278925888
 30
0.0
 40
0.5
100
AcDbArc
 50
270.0
 51
0.0
  0
LINE
  5
208
100
AcDbEntity
  8
一般
370
               9
  6
STYLE_02
 62
               0
100
AcDbLine
 10
-25.769097087222917
 20
-12.360543278925888
 30
0.0
 11
-25.769097087222917
 21
-15.360543278925888
 31
0.0
  0
LINE
  5
209
100
AcDbEntity
  8
一般
370
               9
  6
STYLE_02
 62
               0
100
AcDbLine
 10
-18.263543587757567
 20
-12.360543278925888
 30
0.0
 11
-25.769097087222917
 21
-12.360543278925888
 31
0.0
  0
LINE
  5
20A
100
AcDbEntity
  8
一般
370
               9
  6
STYLE_02
 62
               0
100
AcDbLine
 10
-18.263543587757567
 20
-15.360543278925888
 30
0.0
 11
-25.769097087222917
 21
-15.360543278925888
 31
0.0
  0
LINE
  5
20B
100
AcDbEntity
  8
一般
370
               9
  6
STYLE_02
 62
               0
100
AcDbLine
 10
18.236456412242433
 20
-5.0605432789259339
 30
0.0
 11
18.236456412242433
 21
-11.860543278925888
 31
0.0
  0
POINT
  5
20C
100
AcDbEntity
  8
一般
370
               5
  6
Continuous
 62
               0
100
AcDbPoint
 10
21.736456412242433
 20
-8.4605432789260249
 30
0.0
  0
ENDBLK
  5
20D
100
AcDbEntity
  8
一般
100
AcDbBlockEnd
  0
BLOCK
  5
20E
100
AcDbEntity
  8
一般
100
AcDbBlockBegin
  2
*U32
 70
               1
 10
0.0
 20
0.0
 30
0.0
  3
*U32
  1

  0
LINE
  5
20F
100
AcDbEntity
  8
一般
370
               9
  6
STYLE_02
 62
               0
100
AcDbLine
 10
17.736456412242433
 20
390.43945672107384
 30
0.0
 11
-18.263543587757567
 21
390.43945672107384
 31
0.0
  0
LINE
  5
210
100
AcDbEntity
  8
一般
370
               9
  6
STYLE_02
 62
               0
100
AcDbLine
 10
17.736456412242433
 20
393.43945672107384
 30
0.0
 11
-18.263543587757567
 21
393.43945672107384
 31
0.0
  0
LINE
  5
211
100
AcDbEntity
  8
一般
370
               9
  6
STYLE_02
 62
               0
100
AcDbLine
 10
-18.263543587757567
 20
393.43945672107384
 30
0.0
 11
-18.263543587757567
 21
390.43945672107384
 31
0.0
  0
ARC
  5
212
100
AcDbEntity
  8
一般
370
               9
  6
STYLE_02
 62
               0
100
AcDbCircle
 10
17.736456412242433
 20
393.93945672107384
 30
0.0
 40
0.5
100
AcDbArc
 50
270.0
 51
0.0
  0
ARC
  5
213
100
AcDbEntity
  8
一般
370
               9
  6
STYLE_02
 62
               0
100
AcDbCircle
 10
17.736456412242433
 20
389.93945672107384
 30
0.0
 40
0.5
100
AcDbArc
 50
0.0
 51
90.0
  0
LINE
  5
214
100
AcDbEntity
  8
一般
370
               9
  6
STYLE_02
 62
               0
100
AcDbLine
 10
-25.769097087222917
 20
390.43945672107384
 30
0.0
 11
-25.769097087222917
 21
393.43945672107384
 31
0.0
  0
LINE
  5
215
100
AcDbEntity
  8
一般
370
               9
  6
STYLE_02
 62
               0
100
AcDbLine
 10
-18.263543587757567
 20
390.43945672107384
 30
0.0
 11
-25.769097087222917
 21
390.43945672107384
 31
0.0
  0
LINE
  5
216
100
AcDbEntity
  8
一般
370
               9
  6
STYLE_02
 62
               0
100
AcDbLine
 10
-18.263543587757567
 20
393.43945672107384
 30
0.0
 11
-25.769097087222917
 21
393.43945672107384
 31
0.0
  0
LINE
  5
217
100
AcDbEntity
  8
一般
370
               9
  6
STYLE_02
 62
               0
100
AcDbLine
 10
17.736456412242433
 20
382.63945672107411
 30
0.0
 11
-18.263543587757567
 21
382.63945672107411
 31
0.0
  0
LINE
  5
218
100
AcDbEntity
  8
一般
370
               9
  6
STYLE_02
 62
               0
100
AcDbLine
 10
17.736456412242433
 20
379.63945672107411
 30
0.0
 11
-18.263543587757567
 21
379.63945672107411
 31
0.0
  0
LINE
  5
219
100
AcDbEntity
  8
一般
370
               9
  6
STYLE_02
 62
               0
100
AcDbLine
 10
-18.263543587757567
 20
379.63945672107411
 30
0.0
 11
-18.263543587757567
 21
382.63945672107411
 31
0.0
  0
ARC
  5
21A
100
AcDbEntity
  8
一般
370
               9
  6
STYLE_02
 62
               0
100
AcDbCircle
 10
17.736456412242433
 20
379.13945672107411
 30
0.0
 40
0.5
100
AcDbArc
 50
0.0
 51
90.0
  0
ARC
  5
21B
100
AcDbEntity
  8
一般
370
               9
  6
STYLE_02
 62
               0
100
AcDbCircle
 10
17.736456412242433
 20
383.13945672107411
 30
0.0
 40
0.5
100
AcDbArc
 50
270.0
 51
0.0
  0
LINE
  5
21C
100
AcDbEntity
  8
一般
370
               9
  6
STYLE_02
 62
               0
100
AcDbLine
 10
-25.769097087222917
 20
382.63945672107411
 30
0.0
 11
-25.769097087222917
 21
379.63945672107411
 31
0.0
  0
LINE
  5
21D
100
AcDbEntity
  8
一般
370
               9
  6
STYLE_02
 62
               0
100
AcDbLine
 10
-18.263543587757567
 20
382.63945672107411
 30
0.0
 11
-25.769097087222917
 21
382.63945672107411
 31
0.0
  0
LINE
  5
21E
100
AcDbEntity
  8
一般
370
               9
  6
STYLE_02
 62
               0
100
AcDbLine
 10
-18.263543587757567
 20
379.63945672107411
 30
0.0
 11
-25.769097087222917
 21
379.63945672107411
 31
0.0
  0
LINE
  5
21F
100
AcDbEntity
  8
一般
370
               9
  6
STYLE_02
 62
               0
100
AcDbLine
 10
18.236456412242433
 20
389.93945672107384
 30
0.0
 11
18.236456412242433
 21
383.13945672107411
 31
0.0
  0
POINT
  5
220
100
AcDbEntity
  8
一般
370
               5
  6
Continuous
 62
               0
100
AcDbPoint
 10
21.736456412242433
 20
386.5394567210742
 30
0.0
  0
ENDBLK
  5
221
100
AcDbEntity
  8
一般
100
AcDbBlockEnd
  0
BLOCK
  5
222
100
AcDbEntity
  8
一般
100
AcDbBlockBegin
  2
*U33
 70
               1
 10
0.0
 20
0.0
 30
0.0
  3
*U33
  1

  0
LINE
  5
223
100
AcDbEntity
  8
一般
370
               9
  6
STYLE_11
 62
               0
100
AcDbLine
 10
-518.94428246812845
 20
-8.4605432789260249
 30
0.0
 11
-641.26354358775768
 21
-8.4605432789260249
 31
0.0
  0
LINE
  5
224
100
AcDbEntity
  8
1
370
               9
  6
STYLE_02
 62
               0
100
AcDbLine
 10
-574.76354358775757
 20
-11.860543278925888
 30
0.0
 11
-574.76354358775757
 21
-5.0605432789259339
 31
0.0
  0
LINE
  5
225
100
AcDbEntity
  8
1
370
               9
  6
STYLE_02
 62
               0
100
AcDbLine
 10
-574.76354358775757
 20
-0.4605432789260249
 30
0.0
 11
-574.76354358775757
 21
443.0394567210742
 31
0.0
  0
LINE
  5
226
100
AcDbEntity
  8
1
370
               9
  6
STYLE_02
 62
               0
100
AcDbLine
 10
-574.76354358775757
 20
-99.960543278926025
 30
0.0
 11
18.236456412242433
 21
-99.960543278926025
 31
0.0
  0
LINE
  5
227
100
AcDbEntity
  8
1
370
               9
  6
STYLE_02
 62
               0
100
AcDbLine
 10
-574.76354358775757
 20
443.0394567210742
 30
0.0
 11
18.236456412242433
 21
443.0394567210742
 31
0.0
  0
INSERT
  5
228
100
AcDbEntity
  8
一般
 62
               0
100
AcDbBlockReference
  2
*U26
 10
0.0
 20
0.0
 30
0.0
  0
LINE
  5
229
100
AcDbEntity
  8
一般
370
               9
  6
STYLE_11
 62
               0
100
AcDbLine
 10
-518.94428246812845
 20
386.5394567210742
 30
0.0
 11
-641.26354358775768
 21
386.5394567210742
 31
0.0
  0
LINE
  5
22A
100
AcDbEntity
  8
1
370
               9
  6
STYLE_02
 62
               0
100
AcDbLine
 10
-574.76354358775757
 20
383.13945672107411
 30
0.0
 11
-574.76354358775757
 21
389.93945672107384
 31
0.0
  0
INSERT
  5
22B
100
AcDbEntity
  8
一般
 62
               0
100
AcDbBlockReference
  2
*U27
 10
0.0
 20
0.0
 30
0.0
  0
DIMENSION
  5
22C
100
AcDbEntity
  8
寸法
370
               9
  6
Continuous
 62
               0
100
AcDbDimension
  2
*D28
 10
-647.2635435877587
 20
386.5394567210742
 30
0.0
 11
-647.2635435877587
 21
416.5394567210742
 31
0.0
 71
               5
 72
               1
 41
1.0
 42
0.0
  3
Ekitchen
100
AcDbAlignedDimension
 13
-574.26354358775757
 23
446.5394567210742
 33
0.0
 14
-641.26354358775768
 24
386.5394567210742
 34
0.0
 50
90.0
100
AcDbRotatedDimension
1001
ACAD
1000
DSTYLE
1002
{
1070
             271
1070
               1
1070
             279
1070
               2
1070
             340
1005
48
1070
             140
1040
16.288411458333332
1070
             147
1040
0.7999999970197678
1002
}
  0
DIMENSION
  5
22D
100
AcDbEntity
  8
寸法
370
               9
  6
Continuous
 62
               0
100
AcDbDimension
  2
*D29
 10
-647.2635435877587
 20
-8.4605432789260249
 30
0.0
 11
-647.2635435877587
 21
189.03945672107409
 31
0.0
 71
               5
 72
               1
 41
1.0
 42
0.0
  3
Ekitchen
100
AcDbAlignedDimension
 13
-641.26354358775768
 23
386.5394567210742
 33
0.0
 14
-641.26354358775768
 24
-8.4605432789260249
 34
0.0
 50
90.0
100
AcDbRotatedDimension
1001
ACAD
1000
DSTYLE
1002
{
1070
             271
1070
               1
1070
             279
1070
               2
1070
             340
1005
48
1070
             140
1040
16.288411458333332
1070
             147
1040
0.7999999970197678
1002
}
  0
DIMENSION
  5
22E
100
AcDbEntity
  8
寸法
370
               9
  6
Continuous
 62
               0
100
AcDbDimension
  2
*D30
 10
-647.26354358775768
 20
-103.46054327892602
 30
0.0
 11
-647.26354358775768
 21
-55.960543278926025
 31
0.0
 71
               5
 72
               1
 41
1.0
 42
0.0
  3
Ekitchen
100
AcDbAlignedDimension
 13
-637.26354358775768
 23
-8.4605432789260249
 33
0.0
 14
-573.26354358775757
 24
-103.46054327892602
 34
0.0
 50
90.0
100
AcDbRotatedDimension
1001
ACAD
1000
DSTYLE
1002
{
1070
             271
1070
               1
1070
             279
1070
               2
1070
             340
1005
48
1070
             140
1040
16.288411458333332
1070
             147
1040
0.7999999970197678
1002
}
  0
LINE
  5
22F
100
AcDbEntity
  8
一般
370
               9
  6
STYLE_02
 62
               0
100
AcDbLine
 10
-574.76354358775757
 20
-15.860543278925888
 30
0.0
 11
-574.76354358775757
 21
-99.960543278926025
 31
0.0
  0
LINE
  5
230
100
AcDbEntity
  8
1
370
               9
  6
STYLE_02
 62
               0
100
AcDbLine
 10
18.236456412242433
 20
-11.860543278925888
 30
0.0
 11
18.236456412242433
 21
-5.0605432789259339
 31
0.0
  0
LINE
  5
231
100
AcDbEntity
  8
1
370
               9
  6
STYLE_02
 62
               0
100
AcDbLine
 10
18.236456412242433
 20
-0.4605432789260249
 30
0.0
 11
18.236456412242433
 21
443.0394567210742
 31
0.0
  0
INSERT
  5
232
100
AcDbEntity
  8
一般
 62
               0
100
AcDbBlockReference
  2
*U31
 10
0.0
 20
0.0
 30
0.0
  0
LINE
  5
233
100
AcDbEntity
  8
1
370
               9
  6
STYLE_02
 62
               0
100
AcDbLine
 10
18.236456412242433
 20
383.13945672107411
 30
0.0
 11
18.236456412242433
 21
389.93945672107384
 31
0.0
  0
INSERT
  5
234
100
AcDbEntity
  8
一般
 62
               0
100
AcDbBlockReference
  2
*U32
 10
0.0
 20
0.0
 30
0.0
  0
LINE
  5
235
100
AcDbEntity
  8
一般
370
               9
  6
STYLE_02
 62
               0
100
AcDbLine
 10
18.236456412242433
 20
-15.860543278925888
 30
0.0
 11
18.236456412242433
 21
-99.960543278926025
 31
0.0
  0
ENDBLK
  5
236
100
AcDbEntity
  8
一般
100
AcDbBlockEnd
  0
BLOCK
  5
237
100
AcDbEntity
  8
寸法
100
AcDbBlockBegin
  2
*D34
 70
               1
 10
0.0
 20
0.0
 30
0.0
  3
*D34
  1

  0
LINE
  5
238
100
AcDbEntity
  8
寸法
370
              -2
  6
Continuous
 62
               0
100
AcDbLine
 10
1680.0
 20
2236.2208912871406
 30
0.0
 11
1712.0
 21
2236.2208912871406
 31
0.0
  0
LINE
  5
239
100
AcDbEntity
  8
寸法
370
              -2
  6
Continuous
 62
               0
100
AcDbLine
 10
1676.0
 20
2253.2208912871406
 30
0.0
 11
1712.0
 21
2253.2208912871406
 31
0.0
  0
LINE
  5
23A
100
AcDbEntity
  8
寸法
370
              -2
  6
Continuous
 62
               0
100
AcDbLine
 10
1712.0
 20
2236.2208912871406
 30
0.0
 11
1712.0
 21
2253.2208912871406
 31
0.0
  0
SOLID
  5
23B
100
AcDbEntity
  8
寸法
370
              -2
 62
               0
100
AcDbTrace
 10
1712.0
 20
2236.2208912871406
 30
0.0
 11
1709.9894652148002
 21
2243.7243092558906
 31
0.0
 12
1714.0105347851998
 22
2243.7243092558906
 32
0.0
 13
1714.0105347851998
 23
2243.7243092558906
 33
0.0
  0
SOLID
  5
23C
100
AcDbEntity
  8
寸法
370
              -2
 62
               0
100
AcDbTrace
 10
1712.0
 20
2253.2208912871406
 30
0.0
 11
1714.0105347851998
 21
2245.7174733183906
 31
0.0
 12
1709.9894652148002
 22
2245.7174733183906
 32
0.0
 13
1709.9894652148002
 23
2245.7174733183906
 33
0.0
  0
WIPEOUT
  5
23D
100
AcDbEntity
  8
寸法
370
              -2
  6
Continuous
 62
               0
 92
        0
100
AcDbWipeout
 90
        0
 10
1690.0333333363135
 20
1303.9405582626391
 30
0.0
 11
21.166666666666686
 21
0.0
 31
0.0
 12
0.0
 22
21.166666666666686
 32
0.0
 13
1.0
 23
1.0
340
0
 70
               7
280
               1
281
              50
282
              50
283
               0
360
0
 71
               2
 91
        5
 14
0.5000000000000027
 24
-43.446314946039415
 14
0.5000000000000027
 24
-44.446314946039408
 14
-0.5
 24
-44.446314946039408
 14
-0.5
 24
-43.446314946039415
 14
0.5000000000000027
 24
-43.446314946039415
  0
MTEXT
  5
23E
100
AcDbEntity
  8
寸法
 62
               0
100
AcDbMText
 10
1691.9482552113136
 20
2234.1375579538076
 30
0.0
 40
16.288411458333332
 41
0.0
 71
               1
 72
               1
  1
17
  7
ＭＳ ゴシック
 11
0.0
 21
1.0
 31
0.0
 73
               1
 44
0.7828267384257843
  0
POINT
  5
23F
100
AcDbEntity
  8
Defpoints
370
               0
 62
               0
100
AcDbPoint
 10
1671.0
 20
2253.2208912871406
 30
0.0
  0
POINT
  5
240
100
AcDbEntity
  8
Defpoints
370
               0
 62
               0
100
AcDbPoint
 10
1675.0
 20
2236.2208912871406
 30
0.0
  0
POINT
  5
241
100
AcDbEntity
  8
Defpoints
370
               0
 62
               0
100
AcDbPoint
 10
1712.0
 20
2236.2208912871406
 30
0.0
  0
ENDBLK
  5
242
100
AcDbEntity
  8
寸法
100
AcDbBlockEnd
  0
BLOCK
  5
243
100
AcDbEntity
  8
寸法
100
AcDbBlockBegin
  2
*D35
 70
               1
 10
0.0
 20
0.0
 30
0.0
  3
*D35
  1

  0
LINE
  5
244
100
AcDbEntity
  8
寸法
370
              -2
  6
Continuous
 62
               0
100
AcDbLine
 10
1375.0
 20
2279.2208912871411
 30
0.0
 11
1375.0
 21
2274.2208912871411
 31
0.0
  0
LINE
  5
245
100
AcDbEntity
  8
寸法
370
              -2
  6
Continuous
 62
               0
100
AcDbLine
 10
1235.0
 20
2279.2208912871411
 30
0.0
 11
1235.0
 21
2274.2208912871411
 31
0.0
  0
LINE
  5
246
100
AcDbEntity
  8
寸法
370
              -2
  6
Continuous
 62
               0
100
AcDbLine
 10
1375.0
 20
2274.2208912871411
 30
0.0
 11
1235.0
 21
2274.2208912871411
 31
0.0
  0
SOLID
  5
247
100
AcDbEntity
  8
寸法
370
              -2
 62
               0
100
AcDbTrace
 10
1375.0
 20
2274.2208912871411
 30
0.0
 11
1367.49658203125
 21
2272.2103565019411
 31
0.0
 12
1367.49658203125
 22
2276.2314260723406
 32
0.0
 13
1367.49658203125
 23
2276.2314260723406
 33
0.0
  0
SOLID
  5
248
100
AcDbEntity
  8
寸法
370
              -2
 62
               0
100
AcDbTrace
 10
1235.0
 20
2274.2208912871411
 30
0.0
 11
1242.50341796875
 21
2276.2314260723406
 31
0.0
 12
1242.50341796875
 22
2272.2103565019411
 32
0.0
 13
1242.50341796875
 23
2272.2103565019411
 33
0.0
  0
WIPEOUT
  5
249
100
AcDbEntity
  8
寸法
370
              -2
  6
Continuous
 62
               0
 92
        0
100
AcDbWipeout
 90
        0
 10
1289.125
 20
1344.8238915929928
 30
0.0
 11
31.75
 21
0.0
 31
0.0
 12
0.0
 22
31.75
 32
0.0
 13
1.0
 23
1.0
340
0
 70
               7
280
               1
281
              50
282
              50
283
               0
360
0
 71
               2
 91
        5
 14
-0.5
 24
-28.797543297359621
 14
0.5
 24
-28.797543297359621
 14
0.5
 24
-29.464209964026299
 14
-0.5
 24
-29.464209964026299
 14
-0.5
 24
-28.797543297359621
  0
MTEXT
  5
24A
100
AcDbEntity
  8
寸法
 62
               0
100
AcDbMText
 10
1289.125
 20
2294.2726360758279
 30
0.0
 40
16.288411458333332
 41
0.0
 71
               1
 72
               1
  1
140
  7
ＭＳ ゴシック
 73
               1
 44
0.7828267384257843
  0
POINT
  5
24B
100
AcDbEntity
  8
Defpoints
370
               0
 62
               0
100
AcDbPoint
 10
1235.0
 20
2274.2208912871411
 30
0.0
  0
POINT
  5
24C
100
AcDbEntity
  8
Defpoints
370
               0
 62
               0
100
AcDbPoint
 10
1375.0
 20
2274.2208912871411
 30
0.0
  0
POINT
  5
24D
100
AcDbEntity
  8
Defpoints
370
               0
 62
               0
100
AcDbPoint
 10
1375.0
 20
2274.2208912871411
 30
0.0
  0
ENDBLK
  5
24E
100
AcDbEntity
  8
寸法
100
AcDbBlockEnd
  0
BLOCK
  5
24F
100
AcDbEntity
  8
寸法
100
AcDbBlockBegin
  2
*D36
 70
               1
 10
0.0
 20
0.0
 30
0.0
  3
*D36
  1

  0
LINE
  5
250
100
AcDbEntity
  8
寸法
370
              -2
  6
Continuous
 62
               0
100
AcDbLine
 10
1262.0
 20
2213.2208912871406
 30
0.0
 11
1284.0
 21
2213.2208912871406
 31
0.0
  0
LINE
  5
251
100
AcDbEntity
  8
寸法
370
              -2
  6
Continuous
 62
               0
100
AcDbLine
 10
1271.0
 20
2243.2208912871406
 30
0.0
 11
1284.0
 21
2243.2208912871406
 31
0.0
  0
LINE
  5
252
100
AcDbEntity
  8
寸法
370
              -2
  6
Continuous
 62
               0
100
AcDbLine
 10
1284.0
 20
2213.2208912871406
 30
0.0
 11
1284.0
 21
2243.2208912871406
 31
0.0
  0
SOLID
  5
253
100
AcDbEntity
  8
寸法
370
              -2
 62
               0
100
AcDbTrace
 10
1284.0
 20
2213.2208912871406
 30
0.0
 11
1281.9894652148002
 21
2220.7243092558906
 31
0.0
 12
1286.0105347851998
 22
2220.7243092558906
 32
0.0
 13
1286.0105347851998
 23
2220.7243092558906
 33
0.0
  0
SOLID
  5
254
100
AcDbEntity
  8
寸法
370
              -2
 62
               0
100
AcDbTrace
 10
1284.0
 20
2243.2208912871406
 30
0.0
 11
1286.0105347851998
 21
2235.7174733183906
 31
0.0
 12
1281.9894652148002
 22
2235.7174733183906
 32
0.0
 13
1281.9894652148002
 23
2235.7174733183906
 33
0.0
  0
WIPEOUT
  5
255
100
AcDbEntity
  8
寸法
370
              -2
  6
Continuous
 62
               0
 92
        0
100
AcDbWipeout
 90
        0
 10
1262.0333333363137
 20
1287.4405582626391
 30
0.0
 11
21.166666666666686
 21
0.0
 31
0.0
 12
0.0
 22
21.166666666666686
 32
0.0
 13
1.0
 23
1.0
340
0
 70
               7
280
               1
281
              50
282
              50
283
               0
360
0
 71
               2
 91
        5
 14
0.4999999999999919
 24
-43.446314946039415
 14
0.4999999999999919
 24
-44.446314946039408
 14
-0.5
 24
-44.446314946039408
 14
-0.5
 24
-43.446314946039415
 14
0.4999999999999919
 24
-43.446314946039415
  0
MTEXT
  5
256
100
AcDbEntity
  8
寸法
 62
               0
100
AcDbMText
 10
1263.9482552113136
 20
2217.6375579538076
 30
0.0
 40
16.288411458333332
 41
0.0
 71
               1
 72
               1
  1
30
  7
ＭＳ ゴシック
 11
0.0
 21
1.0
 31
0.0
 73
               1
 44
0.7828267384257843
  0
POINT
  5
257
100
AcDbEntity
  8
Defpoints
370
               0
 62
               0
100
AcDbPoint
 10
1266.0
 20
2243.2208912871406
 30
0.0
  0
POINT
  5
258
100
AcDbEntity
  8
Defpoints
370
               0
 62
               0
100
AcDbPoint
 10
1257.0
 20
2213.2208912871406
 30
0.0
  0
POINT
  5
259
100
AcDbEntity
  8
Defpoints
370
               0
 62
               0
100
AcDbPoint
 10
1284.0
 20
2213.2208912871406
 30
0.0
  0
ENDBLK
  5
25A
100
AcDbEntity
  8
寸法
100
AcDbBlockEnd
  0
ENDSEC
  0
SECTION
  2
ENTITIES
  0
POLYLINE
  5
25B
100
AcDbEntity
  8
ﾀｲﾄﾙ枠
100
AcDb2dPolyline
 66
               1
 10
0.0
 20
0.0
 30
0.0
 70
               1
 75
               5
  0
VERTEX
  5
25C
100
AcDbEntity
  8
ﾀｲﾄﾙ枠
100
AcDbVertex
100
AcDb2dVertex
 10
2625.2635435877573
 20
1891.2983210537234
 30
0.0
  0
VERTEX
  5
25D
100
AcDbEntity
  8
ﾀｲﾄﾙ枠
100
AcDbVertex
100
AcDb2dVertex
 10
695.26354358775757
 20
1891.2983210537234
 30
0.0
  0
VERTEX
  5
25E
100
AcDbEntity
  8
ﾀｲﾄﾙ枠
100
AcDbVertex
100
AcDb2dVertex
 10
695.26354358775757
 20
3291.2983210537232
 30
0.0
  0
VERTEX
  5
25F
100
AcDbEntity
  8
ﾀｲﾄﾙ枠
100
AcDbVertex
100
AcDb2dVertex
 10
2625.2635435877573
 20
3291.2983210537232
 30
0.0
  0
SEQEND
  5
260
100
AcDbEntity
  8
ﾀｲﾄﾙ枠
  0
LINE
  5
261
100
AcDbEntity
  8
ﾀｲﾄﾙ枠
100
AcDbLine
 10
2200.2635435877573
 20
2011.2983210537234
 30
0.0
 11
2625.2635435877573
 21
2011.2983210537234
 31
0.0
  0
POLYLINE
  5
262
100
AcDbEntity
  8
ﾀｲﾄﾙ枠
100
AcDb2dPolyline
 66
               1
 10
0.0
 20
0.0
 30
0.0
 70
               1
 75
               5
  0
VERTEX
  5
263
100
AcDbEntity
  8
ﾀｲﾄﾙ枠
100
AcDbVertex
100
AcDb2dVertex
 10
2625.2635435877573
 20
1891.2983210537234
 30
0.0
  0
VERTEX
  5
264
100
AcDbEntity
  8
ﾀｲﾄﾙ枠
100
AcDbVertex
100
AcDb2dVertex
 10
2200.2635435877573
 20
1891.2983210537234
 30
0.0
  0
VERTEX
  5
265
100
AcDbEntity
  8
ﾀｲﾄﾙ枠
100
AcDbVertex
100
AcDb2dVertex
 10
2200.2635435877573
 20
2011.2983210537234
 30
0.0
  0
VERTEX
  5
266
100
AcDbEntity
  8
ﾀｲﾄﾙ枠
100
AcDbVertex
100
AcDb2dVertex
 10
2625.2635435877573
 20
2011.2983210537234
 30
0.0
  0
SEQEND
  5
267
100
AcDbEntity
  8
ﾀｲﾄﾙ枠
  0
LINE
  5
268
100
AcDbEntity
  8
ﾀｲﾄﾙ枠
100
AcDbLine
 10
2200.2635435877573
 20
1951.2983210537234
 30
0.0
 11
2625.2635435877573
 21
1951.2983210537234
 31
0.0
  0
MTEXT
  5
269
100
AcDbEntity
  8
ﾀｲﾄﾙ枠
100
AcDbMText
 10
2207.7635435877573
 20
2004.5419575648007
 30
0.0
 40
15.585611979166666
 41
0.0
 71
               1
 72
               1
  1
製品名
  7
メイリオ
 73
               1
 44
1.2271899268160174
  0
LINE
  5
26A
100
AcDbEntity
  8
ﾀｲﾄﾙ枠
100
AcDbLine
 10
2510.2635435877573
 20
1951.2983210537234
 30
0.0
 11
2510.2635435877573
 21
2011.2983210537234
 31
0.0
  0
LINE
  5
26B
100
AcDbEntity
  8
ﾀｲﾄﾙ枠
100
AcDbLine
 10
2485.2635435877573
 20
1951.2983210537234
 30
0.0
 11
2485.2635435877573
 21
2011.2983210537234
 31
0.0
  0
MTEXT
  5
26C
100
AcDbEntity
  8
ﾀｲﾄﾙ枠
100
AcDbMText
 10
2497.7635435877573
 20
2003.6080066286222
 30
0.0
 40
15.585611979166666
 41
0.0
 71
               2
 72
               1
  1
縮
  7
メイリオ
 73
               1
 44
1.2271899268160174
  0
MTEXT
  5
26D
100
AcDbEntity
  8
ﾀｲﾄﾙ枠
100
AcDbMText
 10
2497.7635435877573
 20
1976.1080066286222
 30
0.0
 40
15.585611979166666
 41
0.0
 71
               2
 72
               1
  1
尺
  7
メイリオ
 73
               1
 44
1.2271899268160174
  0
MTEXT
  5
26E
100
AcDbEntity
  8
0
100
AcDbMText
 10
2565.9805270480574
 20
1989.0151628210833
 30
0.0
 40
18.183213975694446
 41
0.0
 71
               2
 72
               1
  1
1/5
  7
メイリオ
 73
               1
 44
1.2271899268160174
  0
MTEXT
  5
26F
100
AcDbEntity
  8
0
100
AcDbMText
 10
2279.7205622377123
 20
1931.8374573710148
 30
0.0
 40
23.37841796875
 41
0.0
 71
               2
 72
               1
  1
E:kitchen
  7
メイリオ
 73
               1
 44
1.2271899268160174
  0
MTEXT
  5
270
100
AcDbEntity
  8
0
100
AcDbMText
 10
2586.1073924504512
 20
1927.4229118673225
 30
0.0
 40
18.183213975694446
 41
0.0
 71
               2
 72
               1
  1
YS
  7
メイリオ
 73
               1
 44
1.2271899268160174
  0
DIMENSION
  5
271
100
AcDbEntity
  8
寸法
370
               9
  6
Continuous
100
AcDbDimension
  2
*D2
 10
815.00620074870938
 20
5987.6400518612954
 30
0.0
 11
811.59234387529091
 21
5936.2282949637793
 31
0.0
 70
             133
 71
               5
 72
               1
 41
1.0
 42
0.0
  3
Ekitchen
100
AcDb3PointAngularDimension
 13
700.09336751163119
 23
-608.71995589056996
 33
0.0
 14
814.77917634292282
 24
-820.71995589056996
 34
0.0
 15
814.77917634292282
 25
5961.6256316557683
 35
0.0
1001
ACAD
1000
DSTYLE
1002
{
1070
             279
1070
               2
1070
             342
1005
81
1070
             340
1005
48
1070
               3
1000
<> 
1070
             174
1070
               0
1070
             147
1040
0.4189146999660807
1002
}
  0
MTEXT
  5
272
100
AcDbEntity
  8
一般
100
AcDbMText
 10
995.14888727399989
 20
2183.3534592113865
 30
0.0
 40
13.573676215277779
 41
0.0
 71
               1
 72
               1
  1
オーバーフロ用孔φ30
  7
ＭＳ ゴシック
 73
               1
 44
0.8488482705821761
  0
LINE
  5
273
100
AcDbEntity
  8
2
370
              25
  6
Continuous
100
AcDbLine
 10
1490.0
 20
2241.7208912871406
 30
0.0
 11
1575.0
 21
2243.2208912871406
 31
0.0
  0
LINE
  5
274
100
AcDbEntity
  8
1
370
              25
  6
Continuous
100
AcDbLine
 10
1595.0
 20
3005.0
 30
0.0
 11
1595.0
 21
2618.5284708391582
 31
0.0
  0
LINE
  5
275
100
AcDbEntity
  8
1
370
              25
  6
Continuous
100
AcDbLine
 10
1675.0
 20
2485.0
 30
0.0
 11
1675.0
 21
3027.0
 31
0.0
  0
LINE
  5
276
100
AcDbEntity
  8
1
370
              25
  6
Continuous
100
AcDbLine
 10
1670.0
 20
2480.0
 30
0.0
 11
1080.0
 21
2480.0
 31
0.0
  0
LINE
  5
277
100
AcDbEntity
  8
1
370
              25
  6
Continuous
100
AcDbLine
 10
1555.0
 20
2920.0
 30
0.0
 11
1195.0000138106791
 21
2920.0
 31
0.0
  0
LINE
  5
278
100
AcDbEntity
  8
1
370
               9
  6
STYLE_11
100
AcDbLine
 10
1375.0
 20
3056.0188888888888
 30
0.0
 11
1375.0
 21
2456.0
 31
0.0
  0
LINE
  5
279
100
AcDbEntity
  8
1
370
               9
  6
STYLE_11
100
AcDbLine
 10
1431.0
 20
2850.0
 30
0.0
 11
1305.0
 21
2850.0
 31
0.0
  0
CIRCLE
  5
27A
100
AcDbEntity
  8
1
370
               9
  6
Continuous
100
AcDbCircle
 10
1375.0
 20
2850.0
 30
0.0
 40
25.0
  0
CIRCLE
  5
27B
100
AcDbEntity
  8
1
370
               9
  6
Continuous
100
AcDbCircle
 10
1375.0
 20
2850.0
 30
0.0
 40
20.0
  0
DIMENSION
  5
27C
100
AcDbEntity
  8
寸法
370
               9
  6
Continuous
100
AcDbDimension
  2
*D3
 10
1595.0
 20
2303.2208912983169
 30
0.0
 11
1369.288911182698
 21
2314.8042246279247
 31
0.0
 70
             128
 71
               5
 72
               1
 41
1.0
 42
0.0
  3
Ekitchen
100
AcDbAlignedDimension
 13
1155.0
 23
2277.7208912983169
 33
0.0
 14
1595.0
 24
2268.7208912983169
 34
0.0
100
AcDbRotatedDimension
1001
ACAD
1000
DSTYLE
1002
{
1070
             279
1070
               2
1070
             340
1005
48
1070
             140
1040
16.288411458333332
1070
             147
1040
11.583333329607894
1002
}
  0
LINE
  5
27D
100
AcDbEntity
  8
1
370
              25
  6
Continuous
100
AcDbLine
 10
1672.0
 20
3030.0
 30
0.0
 11
1078.0
 21
3030.0
 31
0.0
  0
LINE
  5
27E
100
AcDbEntity
  8
1
370
              25
  6
Continuous
100
AcDbLine
 10
1075.0
 20
2485.0
 30
0.0
 11
1075.0
 21
3027.0
 31
0.0
  0
DIMENSION
  5
27F
100
AcDbEntity
  8
寸法
370
               9
  6
Continuous
100
AcDbDimension
  2
*D4
 10
1675.0
 20
3116.0
 30
0.0
 11
1375.0
 21
3116.0
 31
0.0
 71
               5
 72
               1
 41
1.0
 42
0.0
  3
Ekitchen
100
AcDbAlignedDimension
 13
1075.0
 23
3030.0
 33
0.0
 14
1675.0
 24
3030.0
 34
0.0
100
AcDbRotatedDimension
1001
ACAD
1000
DSTYLE
1002
{
1070
             279
1070
               2
1070
             340
1005
48
1070
             140
1040
16.288411458333332
1070
             147
1040
0.7999999970197678
1002
}
  0
POINT
  5
280
100
AcDbEntity
  8
一般
370
               5
  6
Continuous
100
AcDbPoint
 10
1375.0
 20
2480.0
 30
0.0
  0
DIMENSION
  5
281
100
AcDbEntity
  8
寸法
370
               9
  6
Continuous
100
AcDbDimension
  2
*D5
 10
1400.0
 20
2253.2208912871406
 30
0.0
 11
1411.583333333333
 21
2186.0803912871406
 31
0.0
 70
             128
 71
               5
 72
               1
 41
1.0
 42
0.0
  3
Ekitchen
100
AcDbAlignedDimension
 13
1374.999999999998
 23
2113.2208912871406
 33
0.0
 14
1419.0
 24
2253.2208912871406
 34
0.0
 50
90.0
100
AcDbRotatedDimension
1001
ACAD
1000
DSTYLE
1002
{
1070
             271
1070
               1
1070
             279
1070
               2
1070
             340
1005
48
1070
             140
1040
16.288411458333332
1070
             147
1040
11.583333333333032
1002
}
  0
LINE
  5
282
100
AcDbEntity
  8
2
370
               9
  6
STYLE_11
100
AcDbLine
 10
1375.0
 20
2283.2208912871411
 30
0.0
 11
1375.0
 21
2061.2208912871411
 31
0.0
  0
LINE
  5
283
100
AcDbEntity
  8
寸法
370
               9
  6
Continuous
100
AcDbLine
 10
1375.0
 20
3046.0
 30
0.0
 11
1351.5
 21
3046.0
 31
0.0
  0
LWPOLYLINE
  5
284
100
AcDbEntity
  8
寸法
370
               9
  6
Continuous
100
AcDbPolyline
 90
        3
 70
             128
 10
1364.2
 20
3042.5970452561251
 10
1351.5
 20
3046.0
 10
1364.2
 20
3049.4029547438749
  0
MTEXT
  5
285
100
AcDbEntity
  8
寸法
100
AcDbMText
 10
1380.3610181452559
 20
3053.7601429868155
 30
0.0
 40
16.288411458333332
 41
0.0
 71
               1
 72
               1
  1
A
  7
ＭＳ ゴシック
 73
               1
 44
0.7859706209094218
  0
LINE
  5
286
100
AcDbEntity
  8
寸法
370
               9
  6
Continuous
100
AcDbLine
 10
1375.0
 20
2456.0
 30
0.0
 11
1351.5
 21
2456.0
 31
0.0
  0
LWPOLYLINE
  5
287
100
AcDbEntity
  8
寸法
370
               9
  6
Continuous
100
AcDbPolyline
 90
        3
 70
             128
 10
1364.2
 20
2452.5970452561251
 10
1351.5
 20
2456.0
 10
1364.2
 20
2459.4029547438749
  0
MTEXT
  5
288
100
AcDbEntity
  8
寸法
100
AcDbMText
 10
1380.3610181452559
 20
2463.7601429868155
 30
0.0
 40
16.288411458333332
 41
0.0
 71
               1
 72
               1
  1
A
  7
ＭＳ ゴシック
 73
               1
 44
0.7859706209094218
  0
INSERT
  5
289
100
AcDbEntity
  8
一般
100
AcDbBlockReference
  2
グループ-2-2
 10
724.9342475683161
 20
824.09444443699385
 30
0.0
  0
LINE
  5
28A
100
AcDbEntity
  8
寸法
370
               9
  6
STYLE_06
100
AcDbLine
 10
1235.0
 20
2187.2208912871406
 30
0.0
 11
1235.0
 21
2274.2208912871411
 31
0.0
  0
LINE
  5
28B
100
AcDbEntity
  8
寸法
370
               9
  6
STYLE_06
100
AcDbLine
 10
1268.0
 20
2213.2208912871406
 30
0.0
 11
1212.0
 21
2213.2208912871406
 31
0.0
  0
LINE
  5
28C
100
AcDbEntity
  8
寸法
370
               9
  6
Continuous
100
AcDbLine
 10
1410.5510000093129
 20
2253.2208912871406
 30
0.0
 11
1322.2103939657561
 21
2253.2208912871406
 31
0.0
  0
LINE
  5
28D
100
AcDbEntity
  8
1
370
              25
  6
Continuous
100
AcDbLine
 10
1675.0
 20
3005.0
 30
0.0
 11
1075.0
 21
3005.0
 31
0.0
  0
DIMENSION
  5
28E
100
AcDbEntity
  8
寸法
370
               9
  6
Continuous
100
AcDbDimension
  2
*D7
 10
1675.0293162364569
 20
2303.2208912983169
 30
0.0
 11
1635.014658118228
 21
2314.8042246279247
 31
0.0
 70
             128
 71
               5
 72
               1
 41
1.0
 42
0.0
  3
Ekitchen
100
AcDbAlignedDimension
 13
1595.0
 23
2253.2208912983165
 33
0.0
 14
1675.0293162364569
 24
2245.2208912983165
 34
0.0
100
AcDbRotatedDimension
1001
ACAD
1000
DSTYLE
1002
{
1070
             271
1070
               1
1070
             279
1070
               2
1070
             340
1005
48
1070
             140
1040
16.288411458333332
1070
             147
1040
11.583333329607965
1002
}
  0
ARC
  5
28F
100
AcDbEntity
  8
一般
370
              25
  6
Continuous
100
AcDbCircle
 10
1375.0
 20
3030.0
 30
0.0
 40
499.99999999999983
100
AcDbArc
 50
254.93578089726546
 51
286.00778564786589
  0
LINE
  5
290
100
AcDbEntity
  8
1
370
              25
  6
Continuous
100
AcDbLine
 10
1175.0
 20
3005.0
 30
0.0
 11
1175.0
 21
2620.84711877891
 31
0.0
  0
ARC
  5
291
100
AcDbEntity
  8
1
370
              25
  6
Continuous
100
AcDbCircle
 10
1195.0
 20
2900.0
 30
0.0
 40
20.0
100
AcDbArc
 50
90.0
 51
180.0
  0
ARC
  5
292
100
AcDbEntity
  8
一般
370
              25
  6
Continuous
100
AcDbCircle
 10
1375.0
 20
3120.0
 30
0.0
 40
600.00000000000011
100
AcDbArc
 50
257.38828555040442
 51
282.61174037901549
  0
LINE
  5
293
100
AcDbEntity
  8
1
370
              25
  6
Continuous
100
AcDbLine
 10
1155.0
 20
3005.0
 30
0.0
 11
1155.0
 21
2618.5284708391582
 31
0.0
  0
ARC
  5
294
100
AcDbEntity
  8
1
370
              25
  6
Continuous
100
AcDbCircle
 10
1080.0
 20
2485.0
 30
0.0
 40
5.0
100
AcDbArc
 50
180.0
 51
270.0
  0
ARC
  5
295
100
AcDbEntity
  8
一般
370
              25
  6
Continuous
100
AcDbCircle
 10
1225.5
 20
2613.0194920360018
 30
0.0
 40
69.99999952142926
100
AcDbArc
 50
189.87092716475519
 51
245.97452035252019
  0
LWPOLYLINE
  5
296
100
AcDbEntity
  8
一般
370
              25
  6
Continuous
100
AcDbPolyline
 90
        9
 70
             128
 10
1156.510199754709
 20
2601.014914080286
 10
1156.15693101337
 20
2603.1611469715681
 10
1155.850426059003
 20
2605.3145556973277
 10
1155.590829902608
 20
2607.474121455255
 10
1155.3782653620981
 20
2609.6388225300798
 10
1155.212833004189
 20
2611.8076347769529
 10
1155.094611096823
 20
2613.9795321059828
 10
1155.023655572136
 20
2616.1534869676921
 10
1155.0
 20
2618.3284708391579
  0
ARC
  5
297
100
AcDbEntity
  8
一般
370
              25
  6
Continuous
100
AcDbCircle
 10
1235.5
 20
2614.5381399757553
 30
0.0
 40
59.999999999999766
100
AcDbArc
 50
189.50853068628629
 51
243.25120624132768
  0
LWPOLYLINE
  5
298
100
AcDbEntity
  8
一般
370
              25
  6
Continuous
100
AcDbPolyline
 90
        9
 70
             128
 10
1245.051391535314
 20
2547.190441019939
 10
1240.290886928007
 20
2548.53847701107
 10
1235.5651847601339
 20
2550.00385893062
 10
1230.8771771147749
 20
2551.5856899793189
 10
1226.2297330063309
 20
2553.2830020921792
 10
1221.6256966247199
 20
2555.094756530943
 10
1217.0678855947599
 20
2557.019844519778
 10
1212.559089251811
 20
2559.0570879238367
 10
1208.102066934727
 20
2561.2052399702679
  0
LWPOLYLINE
  5
299
100
AcDbEntity
  8
一般
370
              25
  6
Continuous
100
AcDbPolyline
 90
        9
 70
             128
 10
1176.324316440644
 20
2604.6264691589413
 10
1176.014455795653
 20
2606.6393026705391
 10
1175.7456495275139
 20
2608.6580288914347
 10
1175.518009123959
 20
2610.681810552433
 10
1175.331628999126
 20
2612.7098082875882
 10
1175.1865864544029
 20
2614.7411809823298
 10
1175.082941646365
 20
2616.775086122323
 10
1175.020737561824
 20
2618.8106801428958
 10
1175.0
 20
2620.84711877891
  0
LWPOLYLINE
  5
29A
100
AcDbEntity
  8
一般
370
              25
  6
Continuous
100
AcDbPolyline
 90
        9
 70
             128
 10
1243.99973494848
 20
2534.5020766328321
 10
1238.0024506533371
 20
2535.899933621371
 10
1232.035121840345
 20
2537.4205946338307
 10
1226.100262838399
 20
2539.0634189409948
 10
1220.2003742952679
 20
2540.8277143402447
 10
1214.337942123947
 20
2542.712737447222
 10
1208.51543645522
 20
2544.7176940090512
 10
1202.7353105968739
 20
2546.8417392389979
 10
1197.0
 20
2549.0839781724217
  0
LINE
  5
29B
100
AcDbEntity
  8
1
370
              25
  6
Continuous
100
AcDbLine
 10
1575.0
 20
3005.0
 30
0.0
 11
1575.0
 21
2620.34711877891
 31
0.0
  0
ARC
  5
29C
100
AcDbEntity
  8
1
370
              25
  6
Continuous
100
AcDbCircle
 10
1555.0
 20
2900.0
 30
0.0
 40
20.0
100
AcDbArc
 50
0.0
 51
90.0
  0
ARC
  5
29D
100
AcDbEntity
  8
1
370
              25
  6
Continuous
100
AcDbCircle
 10
1670.0
 20
2485.0
 30
0.0
 40
5.0
100
AcDbArc
 50
270.0
 51
0.0
  0
ARC
  5
29E
100
AcDbEntity
  8
一般
370
              25
  6
Continuous
100
AcDbCircle
 10
1524.5
 20
2613.0194920360018
 30
0.0
 40
69.999999521429103
100
AcDbArc
 50
294.02547964747993
 51
350.1290728352447
  0
LWPOLYLINE
  5
29F
100
AcDbEntity
  8
一般
370
              25
  6
Continuous
100
AcDbPolyline
 90
        9
 70
             128
 10
1595.0
 20
2618.3284708391579
 10
1594.976344427864
 20
2616.1534869676921
 10
1594.905388903177
 20
2613.9795321059828
 10
1594.787166995811
 20
2611.8076347769529
 10
1594.6217346379019
 20
2609.6388225300798
 10
1594.409170097392
 20
2607.474121455255
 10
1594.149573940997
 20
2605.3145556973268
 10
1593.84306898663
 20
2603.1611469715681
 10
1593.489800245291
 20
2601.0149140802851
  0
ARC
  5
2A0
100
AcDbEntity
  8
一般
370
              25
  6
Continuous
100
AcDbCircle
 10
1514.5
 20
2614.0381399757553
 30
0.0
 40
59.999999999999815
100
AcDbArc
 50
296.12520266410843
 51
350.49146931371371
  0
LWPOLYLINE
  5
2A1
100
AcDbEntity
  8
一般
370
              25
  6
Continuous
100
AcDbPolyline
 90
        9
 70
             128
 10
1540.942125301611
 20
2560.1230874252569
 10
1537.5261349990869
 20
2558.5559378381799
 10
1534.081299904429
 20
2557.0532539905839
 10
1530.6088364705149
 20
2555.615566515733
 10
1527.1099709064449
 20
2554.2433830951331
 10
1523.585938744533
 20
2552.9371882792539
 10
1520.0379844040201
 20
2551.697443316431
 10
1516.467360751632
 20
2550.5245859899778
 10
1512.8753286591659
 20
2549.4190304635999
  0
LWPOLYLINE
  5
2A2
100
AcDbEntity
  8
一般
370
              25
  6
Continuous
100
AcDbPolyline
 90
        9
 70
             128
 10
1575.0
 20
2620.34711877891
 10
1574.979262438176
 20
2618.3106801428958
 10
1574.917058353635
 20
2616.275086122323
 10
1574.8134135455971
 20
2614.2411809823298
 10
1574.668371000874
 20
2612.2098082875882
 10
1574.481990876041
 20
2610.181810552433
 10
1574.2543504724861
 20
2608.1580288914347
 10
1573.985544204347
 20
2606.1393026705391
 10
1573.675683559356
 20
2604.1264691589413
  0
LWPOLYLINE
  5
2A3
100
AcDbEntity
  8
一般
370
              25
  6
Continuous
100
AcDbPolyline
 90
        9
 70
             128
 10
1553.0
 20
2549.0839781724217
 10
1547.2646894031261
 20
2546.8417392389979
 10
1541.48456354478
 20
2544.7176940090503
 10
1535.662057876053
 20
2542.7127374472211
 10
1529.7996257047309
 20
2540.8277143402438
 10
1523.899737161601
 20
2539.0634189409948
 10
1517.964878159655
 20
2537.4205946338307
 10
1511.9975493466629
 20
2535.899933621371
 10
1506.00026505152
 20
2534.5020766328321
  0
DIMENSION
  5
2A4
100
AcDbEntity
  8
寸法
370
               9
  6
Continuous
100
AcDbDimension
  2
*D8
 10
1949.4337196638839
 20
2920.0
 30
0.0
 11
1948.4337196638839
 21
2966.75
 31
0.0
 70
             128
 71
               5
 72
               1
 41
1.0
 42
0.0
  3
Ekitchen
100
AcDbAlignedDimension
 13
2043.614797408085
 23
3005.0
 33
0.0
 14
2047.6147973931829
 24
2920.0
 34
0.0
 50
90.0
100
AcDbRotatedDimension
1001
ACAD
1000
DSTYLE
1002
{
1070
             279
1070
               2
1070
             340
1005
48
1070
             140
1040
16.288411458333332
1070
             147
1040
1.0
1002
}
  0
DIMENSION
  5
2A5
100
AcDbEntity
  8
寸法
370
               9
  6
Continuous
100
AcDbDimension
  2
*D9
 10
2047.6147973931829
 20
2829.4058154649783
 30
0.0
 11
2117.445791512504
 21
2840.9891487983109
 31
0.0
 70
             128
 71
               5
 72
               1
 41
1.0
 42
0.0
  3
Ekitchen
100
AcDbAlignedDimension
 13
2187.6147973931829
 23
2843.0
 33
0.0
 14
2047.6147973931829
 24
2782.837628370999
 34
0.0
100
AcDbRotatedDimension
1001
ACAD
1000
DSTYLE
1002
{
1070
             279
1070
               2
1070
             340
1005
48
1070
             140
1040
16.288411458333332
1070
             147
1040
11.583333333332805
1002
}
  0
DIMENSION
  5
2A6
100
AcDbEntity
  8
寸法
370
               9
  6
Continuous
100
AcDbDimension
  2
*D10
 10
1949.6147973931838
 20
2520.0
 30
0.0
 11
1949.6147973931838
 21
2500.0
 31
0.0
 71
               5
 72
               1
 41
1.0
 42
0.0
  3
Ekitchen
100
AcDbAlignedDimension
 13
2047.6147973931829
 23
2480.0
 33
0.0
 14
2049.6147973931829
 24
2520.0
 34
0.0
 50
90.0
100
AcDbRotatedDimension
1001
ACAD
1000
DSTYLE
1002
{
1070
             279
1070
               2
1070
             340
1005
48
1070
             140
1040
16.288411458333332
1070
             147
1040
0.9999999962747097
1002
}
  0
DIMENSION
  5
2A7
100
AcDbEntity
  8
寸法
370
               9
  6
Continuous
100
AcDbDimension
  2
*D11
 10
2261.4337196638839
 20
2850.0
 30
0.0
 11
2273.0170529934921
 21
2919.0449987888333
 31
0.0
 70
             128
 71
               5
 72
               1
 41
1.0
 42
0.0
  3
Ekitchen
100
AcDbAlignedDimension
 13
2064.6147973931829
 23
3030.0
 33
0.0
 14
2239.6147973931838
 24
2850.0
 34
0.0
 50
90.0
100
AcDbRotatedDimension
1001
ACAD
1000
DSTYLE
1002
{
1070
             279
1070
               2
1070
             340
1005
48
1070
             140
1040
16.288411458333332
1070
             147
1040
11.583333329608189
1002
}
  0
DIMENSION
  5
2A8
100
AcDbEntity
  8
寸法
370
               9
  6
Continuous
100
AcDbDimension
  2
*D12
 10
1949.6147973931838
 20
2520.0
 30
0.0
 11
1948.6147973931838
 21
2722.0111515608173
 31
0.0
 70
             128
 71
               5
 72
               1
 41
1.0
 42
0.0
  3
Ekitchen
100
AcDbAlignedDimension
 13
2034.0
 23
2920.0
 33
0.0
 14
2049.6147973931829
 24
2520.0
 34
0.0
 50
90.0
100
AcDbRotatedDimension
1001
ACAD
1000
DSTYLE
1002
{
1070
             279
1070
               2
1070
             340
1005
48
1070
             140
1040
16.288411458333332
1070
             147
1040
1.0
1002
}
  0
DIMENSION
  5
2A9
100
AcDbEntity
  8
寸法
370
               9
  6
Continuous
100
AcDbDimension
  2
*D13
 10
963.09222173040621
 20
2480.0
 30
0.0
 11
963.09222173040621
 21
2755.0
 31
0.0
 71
               5
 72
               1
 41
1.0
 42
0.0
  3
Ekitchen
100
AcDbAlignedDimension
 13
1076.566280328665
 23
3030.0
 33
0.0
 14
1083.1810777218491
 24
2480.0
 34
0.0
 50
90.0
100
AcDbRotatedDimension
1001
ACAD
1000
DSTYLE
1002
{
1070
             279
1070
               2
1070
             340
1005
48
1070
             140
1040
16.288411458333332
1070
             147
1040
0.9999999962747097
1002
}
  0
DIMENSION
  5
2AA
100
AcDbEntity
  8
寸法
370
               9
  6
Continuous
100
AcDbDimension
  2
*D14
 10
1949.4337196638839
 20
3030.0
 30
0.0
 11
1948.4337196638839
 21
3016.0
 31
0.0
 70
             128
 71
               5
 72
               1
 41
1.0
 42
0.0
  3
Ekitchen
100
AcDbAlignedDimension
 13
2047.6147973931829
 23
3005.0
 33
0.0
 14
2047.6147973931829
 24
3030.0
 34
0.0
 50
90.0
100
AcDbRotatedDimension
1001
ACAD
1000
DSTYLE
1002
{
1070
             279
1070
               2
1070
             340
1005
48
1070
             140
1040
16.288411458333332
1070
             147
1040
1.0
1002
}
  0
DIMENSION
  5
2AB
100
AcDbEntity
  8
寸法
370
               9
  6
Continuous
100
AcDbDimension
  2
*D15
 10
2047.6147973931829
 20
2947.0
 30
0.0
 11
2046.396689620253
 21
2948.0
 31
0.0
 70
             128
 71
               5
 72
               1
 41
1.0
 42
0.0
  3
Ekitchen
100
AcDbAlignedDimension
 13
2057.6147973931829
 23
2990.0
 33
0.0
 14
2047.6147973931829
 24
2962.0794900168089
 34
0.0
100
AcDbRotatedDimension
1001
ACAD
1000
DSTYLE
1002
{
1070
             279
1070
               2
1070
             340
1005
48
1070
             140
1040
16.288411458333332
1070
             174
1070
               0
1070
             147
1040
1.0
1002
}
  0
DIMENSION
  5
2AC
100
AcDbEntity
  8
寸法
370
               9
  6
Continuous
100
AcDbDimension
  2
*D16
 10
2047.6147973931829
 20
2438.0
 30
0.0
 11
2069.554107622389
 21
2439.0
 31
0.0
 70
             128
 71
               5
 72
               1
 41
1.0
 42
0.0
  3
Ekitchen
100
AcDbAlignedDimension
 13
2064.6147973931829
 23
2480.0
 33
0.0
 14
2047.6147973931829
 24
2482.0
 34
0.0
100
AcDbRotatedDimension
1001
ACAD
1000
DSTYLE
1002
{
1070
             279
1070
               2
1070
             340
1005
48
1070
             140
1040
16.288411458333332
1070
             174
1070
               0
1070
             147
1040
1.0
1002
}
  0
MTEXT
  5
2AD
100
AcDbEntity
  8
一般
100
AcDbMText
 10
1908.332682291667
 20
3113.573911472382
 30
0.0
 40
19.003146701388893
 41
0.0
 71
               1
 72
               1
  1
Sec  A - A
  7
ＭＳ ゴシック
 73
               1
 44
0.6736891036366471
  0
DIMENSION
  5
2AE
100
AcDbEntity
  8
寸法
370
               9
  6
Continuous
100
AcDbDimension
  2
*D17
 10
1911.4337196638839
 20
2920.0
 30
0.0
 11
1910.4337196638839
 21
2976.1393497194581
 31
0.0
 70
             128
 71
               5
 72
               1
 41
1.0
 42
0.0
  3
Ekitchen
100
AcDbAlignedDimension
 13
2041.5242585378469
 23
3030.0
 33
0.0
 14
2047.6147973931829
 24
2920.0
 34
0.0
 50
90.0
100
AcDbRotatedDimension
1001
ACAD
1000
DSTYLE
1002
{
1070
             279
1070
               2
1070
             340
1005
48
1070
             140
1040
16.288411458333332
1070
             147
1040
1.0
1002
}
  0
DIMENSION
  5
2AF
100
AcDbEntity
  8
寸法
370
               9
  6
Continuous
100
AcDbDimension
  2
*D18
 10
1911.4337196638839
 20
2920.0
 30
0.0
 11
1899.8503863342762
 21
2716.0
 31
0.0
 70
             128
 71
               5
 72
               1
 41
1.0
 42
0.0
  3
Ekitchen
100
AcDbAlignedDimension
 13
2047.6147973931829
 23
2480.0
 33
0.0
 14
2047.6147973931829
 24
2920.0
 34
0.0
 50
90.0
100
AcDbRotatedDimension
1001
ACAD
1000
DSTYLE
1002
{
1070
             279
1070
               2
1070
             340
1005
48
1070
             140
1040
16.288411458333332
1070
             147
1040
11.583333329607832
1002
}
  0
DIMENSION
  5
2B0
100
AcDbEntity
  8
寸法
370
               9
  6
Continuous
100
AcDbDimension
  2
*D19
 10
2261.4337196638839
 20
2850.0
 30
0.0
 11
2261.4337196638839
 21
2665.0
 31
0.0
 71
               5
 72
               1
 41
1.0
 42
0.0
  3
Ekitchen
100
AcDbAlignedDimension
 13
2064.6147973931829
 23
2480.0
 33
0.0
 14
2244.6147973745569
 24
2850.0
 34
0.0
 50
90.0
100
AcDbRotatedDimension
1001
ACAD
1000
DSTYLE
1002
{
1070
             271
1070
               1
1070
             279
1070
               2
1070
             340
1005
48
1070
             140
1040
16.288411458333332
1070
             147
1040
0.9999999962747097
1002
}
  0
LINE
  5
2B1
100
AcDbEntity
  8
3
370
              20
  6
Continuous
100
AcDbLine
 10
2057.6147973931829
 20
2535.0
 30
0.0
 11
2057.6147973931829
 21
2983.78214439763
 31
0.0
  0
LINE
  5
2B2
100
AcDbEntity
  8
3
370
               9
  6
STYLE_11
100
AcDbLine
 10
2158.1147973931829
 20
2850.0
 30
0.0
 11
2229.6147973931838
 21
2850.0
 31
0.0
  0
LINE
  5
2B3
100
AcDbEntity
  8
3
370
              25
  6
Continuous
100
AcDbLine
 10
2064.8669241900752
 20
2919.3655211188188
 30
0.0
 11
2150.025511732742
 21
2911.915110106956
 31
0.0
  0
LINE
  5
2B4
100
AcDbEntity
  8
3
370
              25
  6
Continuous
100
AcDbLine
 10
2185.0132203660878
 20
2800.3589531423413
 30
0.0
 11
2180.7876724157368
 21
2719.730695121129
 31
0.0
  0
LINE
  5
2B5
100
AcDbEntity
  8
3
370
               9
  6
Continuous
100
AcDbLine
 10
2187.6147973931829
 20
2850.0000000000009
 30
0.0
 11
2187.6147973931829
 21
2877.0000000000009
 31
0.0
  0
LINE
  5
2B6
100
AcDbEntity
  8
3
370
               9
  6
Continuous
100
AcDbLine
 10
2201.6161022962442
 20
2850.0000000000009
 30
0.0
 11
2201.6161022962442
 21
2869.0396370289191
 31
0.0
  0
LINE
  5
2B7
100
AcDbEntity
  8
3
370
               9
  6
Continuous
100
AcDbLine
 10
2187.4454586290449
 20
2855.8238793597438
 30
0.0
 11
2186.3030583890122
 21
2877.622174491928
 31
0.0
  0
LINE
  5
2B8
100
AcDbEntity
  8
3
370
               9
  6
Continuous
100
AcDbLine
 10
2187.6147973931829
 20
2850.0
 30
0.0
 11
2187.6147973931829
 21
2823.0
 31
0.0
  0
LINE
  5
2B9
100
AcDbEntity
  8
3
370
               9
  6
Continuous
100
AcDbLine
 10
2201.6161022962451
 20
2850.0
 30
0.0
 11
2201.6161022962451
 21
2830.9603629710818
 31
0.0
  0
LWPOLYLINE
  5
2BA
100
AcDbEntity
  8
3
370
              25
  6
Continuous
100
AcDbPolyline
 90
        9
 70
             128
 10
2184.9905848430039
 20
2800.0
 10
2185.090449988164
 20
2801.8534471487269
 10
2185.2017806644881
 20
2803.706240947522
 10
2185.3245726101859
 20
2805.558310470627
 10
2185.458821124731
 20
2807.40958482001
 10
2185.6045210690299
 20
2809.2599931280802
 10
2185.761666865626
 20
2811.1094645603962
 10
2185.930252498908
 20
2812.9579283183839
 10
2186.1102715153461
 20
2814.8053136420413
  0
POINT
  5
2BB
100
AcDbEntity
  8
3
370
               5
  6
Continuous
100
AcDbPoint
 10
2184.9905848430049
 20
2800.0
 30
0.0
  0
LINE
  5
2BC
100
AcDbEntity
  8
3
370
               9
  6
Continuous
100
AcDbLine
 10
2205.6147973931829
 20
2869.1427696328183
 30
0.0
 11
2205.6147973931829
 21
2825.5052494368238
 31
0.0
  0
LINE
  5
2BD
100
AcDbEntity
  8
3
370
              25
  6
Continuous
100
AcDbLine
 10
2193.534985908505
 20
2826.2947282492678
 30
0.0
 11
2200.968960477298
 21
2830.5867354677102
 31
0.0
  0
POINT
  5
2BE
100
AcDbEntity
  8
3
370
               5
  6
Continuous
100
AcDbPoint
 10
2201.6161022962451
 20
2830.9603629710818
 30
0.0
  0
LINE
  5
2BF
100
AcDbEntity
  8
3
370
              25
  6
Continuous
100
AcDbLine
 10
2202.3442052055789
 20
2831.1284587727141
 30
0.0
 11
2205.6147973931829
 21
2831.883534474975
 31
0.0
  0
LINE
  5
2C0
100
AcDbEntity
  8
3
370
               9
  6
Continuous
100
AcDbLine
 10
2203.9313527867662
 20
2825.11659562568
 30
0.0
 11
2205.6147973931829
 21
2825.5052494368238
 31
0.0
  0
ARC
  5
2C1
100
AcDbEntity
  8
3
370
              25
  6
Continuous
100
AcDbCircle
 10
2201.034985908504
 20
2813.3043471925021
 30
0.0
 40
14.999999999999853
100
AcDbArc
 50
120.00000000000031
 51
174.25711934791948
  0
LINE
  5
2C2
100
AcDbEntity
  8
3
370
               9
  6
Continuous
100
AcDbLine
 10
2195.914532944852
 20
2820.7403571409768
 30
0.0
 11
2202.5561080584862
 21
2824.5748723206771
 31
0.0
  0
POINT
  5
2C3
100
AcDbEntity
  8
3
370
               5
  6
Continuous
100
AcDbPoint
 10
2186.1489733953158
 20
2822.030411936541
 30
0.0
  0
ARC
  5
2C4
100
AcDbEntity
  8
3
370
              25
  6
Continuous
100
AcDbCircle
 10
2203.468960477298
 20
2826.256608448788
 30
0.0
 40
4.999999999999857
100
AcDbArc
 50
102.9999999999977
 51
119.99999999999989
  0
ARC
  5
2C5
100
AcDbEntity
  8
3
370
               9
  6
Continuous
100
AcDbCircle
 10
2205.0561080584862
 20
2820.2447453017539
 30
0.0
 40
4.999999999999857
100
AcDbArc
 50
102.9999999999977
 51
119.99999999999989
  0
LINE
  5
2C6
100
AcDbEntity
  8
3
370
               9
  6
Continuous
100
AcDbLine
 10
2187.6147973931829
 20
2850.0
 30
0.0
 11
2187.6147973931829
 21
2877.0
 31
0.0
  0
LINE
  5
2C7
100
AcDbEntity
  8
3
370
               9
  6
Continuous
100
AcDbLine
 10
2201.6161022962451
 20
2850.0
 30
0.0
 11
2201.6161022962451
 21
2869.0396370289172
 31
0.0
  0
LINE
  5
2C8
100
AcDbEntity
  8
3
370
               9
  6
Continuous
100
AcDbLine
 10
2205.6147973931829
 20
2869.1427696328183
 30
0.0
 11
2205.6147973931829
 21
2874.4947505631753
 31
0.0
  0
LINE
  5
2C9
100
AcDbEntity
  8
3
370
              25
  6
Continuous
100
AcDbLine
 10
2193.4487395479841
 20
2873.755066110195
 30
0.0
 11
2200.968960477298
 21
2869.4132645322898
 31
0.0
  0
POINT
  5
2CA
100
AcDbEntity
  8
3
370
               5
  6
Continuous
100
AcDbPoint
 10
2201.6161022962451
 20
2869.0396370289172
 30
0.0
  0
LINE
  5
2CB
100
AcDbEntity
  8
3
370
              25
  6
Continuous
100
AcDbLine
 10
2202.3442052055789
 20
2868.8715412272859
 30
0.0
 11
2205.6147973931829
 21
2868.1164655250241
 31
0.0
  0
LINE
  5
2CC
100
AcDbEntity
  8
3
370
               9
  6
Continuous
100
AcDbLine
 10
2203.9313527867662
 20
2874.8834043743191
 30
0.0
 11
2205.6147973931829
 21
2874.4947505631753
 31
0.0
  0
LINE
  5
2CD
100
AcDbEntity
  8
3
370
               9
  6
Continuous
100
AcDbLine
 10
2195.4454214288321
 20
2879.5304845190758
 30
0.0
 11
2202.5561080584862
 21
2875.4251276793229
 31
0.0
  0
ARC
  5
2CE
100
AcDbEntity
  8
3
370
              25
  6
Continuous
100
AcDbCircle
 10
2203.468960477298
 20
2873.743391551212
 30
0.0
 40
5.000000000000183
100
AcDbArc
 50
240.00000000000725
 51
257.00000000000347
  0
ARC
  5
2CF
100
AcDbEntity
  8
3
370
               9
  6
Continuous
100
AcDbCircle
 10
2205.0561080584862
 20
2879.7552546982452
 30
0.0
 40
5.000000000000016
100
AcDbArc
 50
240.00000000000011
 51
256.99999999999727
  0
LINE
  5
2D0
100
AcDbEntity
  8
3
370
              25
  6
Continuous
100
AcDbLine
 10
2058.4995675416412
 20
2940.0
 30
0.0
 11
2057.6147973931829
 21
2998.7821348068801
 31
0.0
  0
LINE
  5
2D1
100
AcDbEntity
  8
一般
370
              25
  6
Continuous
100
AcDbLine
 10
2047.6147973931829
 20
3007.8468937001439
 30
0.0
 11
2047.6147973931829
 21
3025.7636991980071
 31
0.0
  0
LWPOLYLINE
  5
2D2
100
AcDbEntity
  8
一般
370
              25
  6
Continuous
100
AcDbPolyline
 90
        9
 70
             128
 10
2059.4188940102808
 20
2924.7531290372617
 10
2059.2403153450941
 20
2926.654538767516
 10
2059.0799009600992
 20
2928.5575670192893
 10
2058.9376654820749
 20
2930.4620402721221
 10
2058.8136218802301
 20
2932.3677848737952
 10
2058.707781465012
 20
2934.2746270561661
 10
2058.6201538870801
 20
2936.1823929510147
 10
2058.5507471364249
 20
2938.0909086058959
 10
2058.4995675416412
 20
2940.0
  0
POINT
  5
2D3
100
AcDbEntity
  8
3
370
               5
  6
Continuous
100
AcDbPoint
 10
2059.6147973931829
 20
2480.0
 30
0.0
  0
LINE
  5
2D4
100
AcDbEntity
  8
3
370
              25
  6
Continuous
100
AcDbLine
 10
2053.5100829545599
 20
2480.1938335115351
 30
0.0
 11
2064.6147973931829
 21
2480.0
 31
0.0
  0
LINE
  5
2D5
100
AcDbEntity
  8
3
370
               9
  6
Continuous
100
AcDbLine
 10
2064.6147973931829
 20
2480.0
 30
0.0
 11
2064.6147973931829
 21
2483.5
 31
0.0
  0
LINE
  5
2D6
100
AcDbEntity
  8
3
370
              25
  6
Continuous
100
AcDbLine
 10
2047.6147973931829
 20
2486.0
 30
0.0
 11
2049.4653543095319
 21
2517.4594675779317
 31
0.0
  0
LINE
  5
2D7
100
AcDbEntity
  8
3
370
              25
  6
Continuous
100
AcDbLine
 10
2051.2045988193881
 20
2521.9872517827562
 30
0.0
 11
2057.2065490099299
 21
2529.4896895209331
 31
0.0
  0
POINT
  5
2D8
100
AcDbEntity
  8
3
370
               5
  6
Continuous
100
AcDbPoint
 10
2049.6147973931829
 20
2480.0
 30
0.0
  0
POINT
  5
2D9
100
AcDbEntity
  8
一般
370
               5
  6
Continuous
100
AcDbPoint
 10
2047.6147973931829
 20
2480.0
 30
0.0
  0
LINE
  5
2DA
100
AcDbEntity
  8
一般
370
              25
  6
Continuous
100
AcDbLine
 10
2047.6147973931829
 20
3000.0
 30
0.0
 11
2047.6147973931829
 21
2486.192919682474
 31
0.0
  0
LINE
  5
2DB
100
AcDbEntity
  8
一般
370
               9
  6
Continuous
100
AcDbLine
 10
2199.1147973931829
 20
2894.155764746874
 30
0.0
 11
2185.024642420889
 21
2895.3884935742731
 31
0.0
  0
LINE
  5
2DC
100
AcDbEntity
  8
一般
370
               9
  6
Continuous
100
AcDbLine
 10
2199.1147973931829
 20
2878.655764746874
 30
0.0
 11
2199.1147973931829
 21
2894.155764746874
 31
0.0
  0
LINE
  5
2DD
100
AcDbEntity
  8
一般
370
               9
  6
STYLE_05
100
AcDbLine
 10
2191.1147973931829
 20
2889.405764746874
 30
0.0
 11
2191.1147973931829
 21
2883.405764746874
 31
0.0
  0
LINE
  5
2DE
100
AcDbEntity
  8
一般
370
               9
  6
Continuous
100
AcDbLine
 10
2199.1147973931829
 20
2878.655764746874
 30
0.0
 11
2197.243975202472
 21
2878.4920890137128
 31
0.0
  0
LINE
  5
2DF
100
AcDbEntity
  8
一般
370
               9
  6
STYLE_05
100
AcDbLine
 10
2199.1147973931829
 20
2883.405764746874
 30
0.0
 11
2191.1147973931829
 21
2883.405764746874
 31
0.0
  0
LINE
  5
2E0
100
AcDbEntity
  8
一般
370
               9
  6
STYLE_05
100
AcDbLine
 10
2191.1147973931829
 20
2889.405764746874
 30
0.0
 11
2199.1147973931829
 21
2889.405764746874
 31
0.0
  0
LINE
  5
2E1
100
AcDbEntity
  8
一般
370
               9
  6
Continuous
100
AcDbLine
 10
2199.1147973931829
 20
2797.250000000005
 30
0.0
 11
2189.814506125424
 21
2796.4363299465867
 31
0.0
  0
LINE
  5
2E2
100
AcDbEntity
  8
一般
370
               9
  6
Continuous
100
AcDbLine
 10
2199.1147973931829
 20
2812.750000000005
 30
0.0
 11
2199.1147973931829
 21
2797.250000000005
 31
0.0
  0
LINE
  5
2E3
100
AcDbEntity
  8
一般
370
               9
  6
Continuous
100
AcDbLine
 10
2199.1147973931829
 20
2802.000000000005
 30
0.0
 11
2191.1147973931829
 21
2802.000000000005
 31
0.0
  0
LINE
  5
2E4
100
AcDbEntity
  8
一般
370
               9
  6
Continuous
100
AcDbLine
 10
2191.1147973931829
 20
2802.000000000005
 30
0.0
 11
2191.1147973931829
 21
2808.000000000005
 31
0.0
  0
LINE
  5
2E5
100
AcDbEntity
  8
一般
370
               9
  6
Continuous
100
AcDbLine
 10
2199.1147973931829
 20
2812.750000000005
 30
0.0
 11
2191.0100670476272
 21
2813.4590720261758
 31
0.0
  0
LINE
  5
2E6
100
AcDbEntity
  8
一般
370
               9
  6
Continuous
100
AcDbLine
 10
2199.1147973931829
 20
2808.000000000005
 30
0.0
 11
2191.1147973931829
 21
2808.000000000005
 31
0.0
  0
POINT
  5
2E7
100
AcDbEntity
  8
一般
370
               5
  6
Continuous
100
AcDbPoint
 10
2187.6147973931829
 20
2850.0000000000009
 30
0.0
  0
POINT
  5
2E8
100
AcDbEntity
  8
3
370
               5
  6
Continuous
100
AcDbPoint
 10
2047.6147973931829
 20
3005.0
 30
0.0
  0
POINT
  5
2E9
100
AcDbEntity
  8
一般
370
               5
  6
Continuous
100
AcDbPoint
 10
2057.6147973931829
 20
3005.0
 30
0.0
  0
LINE
  5
2EA
100
AcDbEntity
  8
一般
370
              25
  6
Continuous
100
AcDbLine
 10
2050.35333016494
 20
3028.7522832922823
 30
0.0
 11
2064.6147973931829
 21
3030.0
 31
0.0
  0
LINE
  5
2EB
100
AcDbEntity
  8
一般
370
              25
  6
Continuous
100
AcDbLine
 10
2050.4577895244552
 20
3004.8510050958812
 30
0.0
 11
2051.9288131306412
 21
3004.7739120154069
 31
0.0
  0
ARC
  5
2EC
100
AcDbEntity
  8
一般
370
              25
  6
Continuous
100
AcDbCircle
 10
2051.6147973931829
 20
2998.7821348068801
 30
0.0
 40
6.0
100
AcDbArc
 50
0.0
 51
86.99999999999882
  0
ARC
  5
2ED
100
AcDbEntity
  8
一般
370
              25
  6
Continuous
100
AcDbCircle
 10
2050.6147973931829
 20
3007.8468937001439
 30
0.0
 40
3.0
100
AcDbArc
 50
180.0
 51
266.99999999999432
  0
LINE
  5
2EE
100
AcDbEntity
  8
一般
370
               9
  6
Continuous
100
AcDbLine
 10
2039.7958751411088
 20
2920.0
 30
0.0
 11
2057.6147973931829
 21
2920.0
 31
0.0
  0
POINT
  5
2EF
100
AcDbEntity
  8
一般
370
               5
  6
Continuous
100
AcDbPoint
 10
2057.6147973931829
 20
2920.0
 30
0.0
  0
LINE
  5
2F0
100
AcDbEntity
  8
一般
370
              25
  6
Continuous
100
AcDbLine
 10
2058.100454634603
 20
2530.437287744317
 30
0.0
 11
2114.8878867365938
 21
2581.5689212742382
 31
0.0
  0
POINT
  5
2F1
100
AcDbEntity
  8
一般
370
               5
  6
Continuous
100
AcDbPoint
 10
2057.6147973931829
 20
2530.0
 30
0.0
  0
POINT
  5
2F2
100
AcDbEntity
  8
一般
370
               5
  6
Continuous
100
AcDbPoint
 10
2117.6147973931829
 20
2580.0
 30
0.0
  0
POINT
  5
2F3
100
AcDbEntity
  8
一般
370
               5
  6
Continuous
100
AcDbPoint
 10
2049.6147973931829
 20
2520.0
 30
0.0
  0
ARC
  5
2F4
100
AcDbEntity
  8
一般
370
              25
  6
Continuous
100
AcDbCircle
 10
1981.0617654648222
 20
2730.1978863697168
 30
0.0
 40
199.99999999999986
100
AcDbArc
 50
311.99999999999983
 51
357.00000000000028
  0
LINE
  5
2F5
100
AcDbEntity
  8
一般
370
               9
  6
Continuous
100
AcDbLine
 10
2052.5276416504362
 20
3025.4425108982368
 30
0.0
 11
2064.6147973931829
 21
3026.5
 31
0.0
  0
LINE
  5
2F6
100
AcDbEntity
  8
一般
370
               9
  6
Continuous
100
AcDbLine
 10
2064.6147973931829
 20
3026.5
 30
0.0
 11
2064.6147973931829
 21
3030.0
 31
0.0
  0
ARC
  5
2F7
100
AcDbEntity
  8
一般
370
              25
  6
Continuous
100
AcDbCircle
 10
2050.6147973931829
 20
3025.7636991980071
 30
0.0
 40
2.9999999999999738
100
AcDbArc
 50
94.999999999999844
 51
180.0
  0
LINE
  5
2F8
100
AcDbEntity
  8
一般
370
               9
  6
Continuous
100
AcDbLine
 10
2051.6147973931829
 20
3009.7365859569809
 30
0.0
 11
2051.6147973931829
 21
3024.4463162001448
 31
0.0
  0
ARC
  5
2F9
100
AcDbEntity
  8
一般
370
               9
  6
Continuous
100
AcDbCircle
 10
2051.6147973931829
 20
2998.7821348068801
 30
0.0
 40
10.0
100
AcDbArc
 50
0.0
 51
84.784091429542798
  0
LINE
  5
2FA
100
AcDbEntity
  8
3
370
               9
  6
Continuous
100
AcDbLine
 10
2062.4991145122021
 20
2940.060199919219
 30
0.0
 11
2061.6143443637452
 21
2998.8423347260987
 31
0.0
  0
ARC
  5
2FB
100
AcDbEntity
  8
一般
370
               9
  6
Continuous
100
AcDbCircle
 10
2052.6147973931802
 20
3009.7365859569809
 30
0.0
 40
0.9999999999972715
100
AcDbArc
 50
180.0
 51
264.7840914297181
  0
ARC
  5
2FC
100
AcDbEntity
  8
一般
370
               9
  6
Continuous
100
AcDbCircle
 10
2052.6147973931829
 20
3024.4463162001448
 30
0.0
 40
1.0000000000002931
100
AcDbArc
 50
94.999999999998323
 51
180.0
  0
ARC
  5
2FD
100
AcDbEntity
  8
一般
370
              25
  6
Continuous
100
AcDbCircle
 10
2065.3898586465589
 20
2925.3426893073483
 30
0.0
 40
5.9999999999784661
100
AcDbArc
 50
185.63898492193283
 51
264.99999999999989
  0
ARC
  5
2FE
100
AcDbEntity
  8
3
370
              25
  6
Continuous
100
AcDbCircle
 10
2146.5392820228358
 20
2872.0673221832858
 30
0.0
 40
39.999999999999936
100
AcDbArc
 50
18.469766115795284
 51
85.000000000000213
  0
ARC
  5
2FF
100
AcDbEntity
  8
一般
370
              25
  6
Continuous
100
AcDbCircle
 10
2203.4487395479969
 20
2891.075574185908
 30
0.0
 40
20.00000000002759
100
AcDbArc
 50
198.46976611584924
 51
240.00000000000045
  0
ARC
  5
300
100
AcDbEntity
  8
3
370
               9
  6
Continuous
100
AcDbCircle
 10
2146.5392820228358
 20
2872.0673221832858
 30
0.0
 40
45.000000000000185
100
AcDbArc
 50
19.93125260236889
 51
84.999999999999645
  0
LINE
  5
301
100
AcDbEntity
  8
3
370
               9
  6
Continuous
100
AcDbLine
 10
2065.2155471610649
 20
2923.3502999111861
 30
0.0
 11
2150.374134703733
 21
2916.903623379033
 31
0.0
  0
LWPOLYLINE
  5
302
100
AcDbEntity
  8
一般
370
               9
  6
Continuous
100
AcDbPolyline
 90
        9
 70
             128
 10
2063.3995371011461
 20
2925.1461692173352
 10
2063.2245300092632
 20
2927.0095507529832
 10
2063.0673239119669
 20
2928.8745184397212
 10
2062.9279331435041
 20
2930.7409022274969
 10
2062.8063704136962
 20
2932.6085319371359
 10
2062.702646806782
 20
2934.4772372758598
 10
2062.6167717804092
 20
2936.3468478528121
 10
2062.5487531647682
 20
2938.217193194595
 10
2062.4985971618789
 20
2940.088102760817
  0
ARC
  5
303
100
AcDbEntity
  8
一般
370
               9
  6
Continuous
100
AcDbCircle
 10
2065.3898586465589
 20
2925.3426893073483
 30
0.0
 40
1.999999999978795
100
AcDbArc
 50
185.63898492192882
 51
264.99999999999852
  0
ARC
  5
304
100
AcDbEntity
  8
一般
370
               9
  6
Continuous
100
AcDbCircle
 10
2202.9454214288298
 20
2892.5208655758388
 30
0.0
 40
14.99999999999509
100
AcDbArc
 50
199.93125260235729
 51
240.00000000000085
  0
LINE
  5
305
100
AcDbEntity
  8
3
370
               9
  6
Continuous
100
AcDbLine
 10
2053.5721727753421
 20
2483.692749729682
 30
0.0
 11
2064.6147973931829
 21
2483.5
 31
0.0
  0
ARC
  5
306
100
AcDbEntity
  8
3
370
              25
  6
Continuous
100
AcDbCircle
 10
2053.6147973931829
 20
2486.192919682474
 30
0.0
 40
6.0
100
AcDbArc
 50
180.0
 51
268.99999999999824
  0
ARC
  5
307
100
AcDbEntity
  8
3
370
              25
  6
Continuous
100
AcDbCircle
 10
2057.4515492949322
 20
2516.9896914023202
 30
0.0
 40
8.0000000000002842
100
AcDbArc
 50
141.34019174591043
 51
176.63353933657052
  0
ARC
  5
308
100
AcDbEntity
  8
3
370
              25
  6
Continuous
100
AcDbCircle
 10
2063.4534994854739
 20
2524.492129140498
 30
0.0
 40
8.0000000000000639
100
AcDbArc
 50
131.99999999999994
 51
141.34019174590841
  0
LINE
  5
309
100
AcDbEntity
  8
3
370
               9
  6
Continuous
100
AcDbLine
 10
2051.6105288418662
 20
2485.8098891638983
 30
0.0
 11
2053.458451802232
 21
2517.224579490126
 31
0.0
  0
LINE
  5
30A
100
AcDbEntity
  8
3
370
               9
  6
Continuous
100
AcDbLine
 10
2054.3280740571599
 20
2519.4884715925382
 30
0.0
 11
2060.3300242477021
 21
2526.9909093307151
 31
0.0
  0
LINE
  5
30B
100
AcDbEntity
  8
一般
370
               9
  6
Continuous
100
AcDbLine
 10
2060.7769770600389
 20
2527.4647084424068
 30
0.0
 11
2118.2335397683878
 21
2577.853197146851
 31
0.0
  0
ARC
  5
30C
100
AcDbEntity
  8
3
370
               9
  6
Continuous
100
AcDbCircle
 10
2057.4515492949322
 20
2516.9896914023202
 30
0.0
 40
4.0000000000001421
100
AcDbArc
 50
141.34019174591043
 51
176.63353933656887
  0
ARC
  5
30D
100
AcDbEntity
  8
3
370
               9
  6
Continuous
100
AcDbCircle
 10
2063.4534994854739
 20
2524.492129140498
 30
0.0
 40
3.999999999999948
100
AcDbArc
 50
132.00000000000102
 51
141.34019174591299
  0
ARC
  5
30E
100
AcDbEntity
  8
3
370
               9
  6
Continuous
100
AcDbCircle
 10
2053.6070775882158
 20
2485.6924451199948
 30
0.0
 40
2.0000000000000897
100
AcDbArc
 50
176.63353933656563
 51
268.99999999999824
  0
ARC
  5
30F
100
AcDbEntity
  8
一般
370
               9
  6
Continuous
100
AcDbCircle
 10
1981.0617654648222
 20
2730.1978863697168
 30
0.0
 40
205.00000000000006
100
AcDbArc
 50
311.99999999999983
 51
357.00000000000028
  0
LINE
  5
310
100
AcDbEntity
  8
3
370
               9
  6
Continuous
100
AcDbLine
 10
2189.814506125424
 20
2796.4363299465867
 30
0.0
 11
2185.7808200895101
 21
2719.4690153399151
 31
0.0
  0
ARC
  5
311
100
AcDbEntity
  8
一般
370
               9
  6
Continuous
100
AcDbCircle
 10
2200.914532944852
 20
2812.0801031031333
 30
0.0
 40
9.9999999999998366
100
AcDbArc
 50
120.00000000000055
 51
172.07383330993684
  0
ARC
  5
312
100
AcDbEntity
  8
1
370
              25
  6
Continuous
100
AcDbCircle
 10
1078.0
 20
3027.0
 30
0.0
 40
3.0
100
AcDbArc
 50
90.0
 51
180.0
  0
ARC
  5
313
100
AcDbEntity
  8
1
370
              25
  6
Continuous
100
AcDbCircle
 10
1672.0
 20
3027.0
 30
0.0
 40
3.0
100
AcDbArc
 50
0.0
 51
90.0
  0
LINE
  5
314
100
AcDbEntity
  8
2
370
               9
  6
Continuous
100
AcDbLine
 10
1178.0
 20
2243.2208912871406
 30
0.0
 11
1575.0
 21
2243.2208912871406
 31
0.0
  0
LINE
  5
315
100
AcDbEntity
  8
2
370
              25
  6
Continuous
100
AcDbLine
 10
1375.0
 20
2253.2208912871406
 30
0.0
 11
1670.9999999999991
 21
2253.2208912871406
 31
0.0
  0
LINE
  5
316
100
AcDbEntity
  8
2
370
              25
  6
Continuous
100
AcDbLine
 10
1424.7896060342439
 20
2115.8302539707747
 30
0.0
 11
1484.4752650205321
 21
2118.9582468132899
 31
0.0
  0
LINE
  5
317
100
AcDbEntity
  8
2
370
               9
  6
Continuous
100
AcDbLine
 10
1375.0000000000009
 20
2113.2208912871406
 30
0.0
 11
1402.0000000000009
 21
2113.2208912871406
 31
0.0
  0
LINE
  5
318
100
AcDbEntity
  8
2
370
               9
  6
Continuous
100
AcDbLine
 10
1375.0000000000009
 20
2099.2195863840793
 30
0.0
 11
1394.0396370289179
 21
2099.2195863840793
 31
0.0
  0
LWPOLYLINE
  5
319
100
AcDbEntity
  8
2
370
              25
  6
Continuous
100
AcDbPolyline
 90
        9
 70
             128
 10
1410.1946863579601
 20
2114.7254171649779
 10
1412.042071681617
 20
2114.905436181416
 10
1413.890535439604
 20
2115.0740218146984
 10
1415.740006871921
 20
2115.2311676112945
 10
1417.5904151799909
 20
2115.3768675555934
 10
1419.4416895293739
 20
2115.5111160701381
 10
1421.2937590524789
 20
2115.6339080158364
 10
1423.146552851274
 20
2115.7452386921591
 10
1425.0000000000009
 20
2115.8451038373196
  0
POINT
  5
31A
100
AcDbEntity
  8
2
370
               5
  6
Continuous
100
AcDbPoint
 10
1425.0000000000009
 20
2115.8451038373191
 30
0.0
  0
LINE
  5
31B
100
AcDbEntity
  8
2
370
               9
  6
Continuous
100
AcDbLine
 10
1394.142769632819
 20
2095.2208912871406
 30
0.0
 11
1399.494750563176
 21
2095.2208912871406
 31
0.0
  0
LINE
  5
31C
100
AcDbEntity
  8
2
370
              25
  6
Continuous
100
AcDbLine
 10
1398.705271750732
 20
2107.300702771819
 30
0.0
 11
1394.4132645322909
 21
2099.866728203026
 31
0.0
  0
POINT
  5
31D
100
AcDbEntity
  8
2
370
               5
  6
Continuous
100
AcDbPoint
 10
1394.0396370289179
 20
2099.2195863840793
 30
0.0
  0
LINE
  5
31E
100
AcDbEntity
  8
2
370
              25
  6
Continuous
100
AcDbLine
 10
1393.871541227287
 20
2098.4914834747456
 30
0.0
 11
1393.116465525025
 21
2095.2208912871406
 31
0.0
  0
LINE
  5
31F
100
AcDbEntity
  8
2
370
               9
  6
Continuous
100
AcDbLine
 10
1399.88340437432
 20
2096.9043358935578
 30
0.0
 11
1399.494750563176
 21
2095.2208912871406
 31
0.0
  0
ARC
  5
320
100
AcDbEntity
  8
2
370
              25
  6
Continuous
100
AcDbCircle
 10
1411.6956528074991
 20
2099.8007027718195
 30
0.0
 40
14.999999999999963
100
AcDbArc
 50
95.742880652080444
 51
150.00000000000085
  0
LINE
  5
321
100
AcDbEntity
  8
2
370
               9
  6
Continuous
100
AcDbLine
 10
1404.4182765354781
 20
2105.1959173228829
 30
0.0
 11
1400.4251276793241
 21
2098.2795806218382
 31
0.0
  0
POINT
  5
322
100
AcDbEntity
  8
2
370
               5
  6
Continuous
100
AcDbPoint
 10
1402.9695880634599
 20
2114.6867152850082
 30
0.0
  0
ARC
  5
323
100
AcDbEntity
  8
2
370
              25
  6
Continuous
100
AcDbCircle
 10
1398.7433915512131
 20
2097.366728203026
 30
0.0
 40
5.0000000000000995
100
AcDbArc
 50
150.00000000000367
 51
167.00000000000037
  0
ARC
  5
324
100
AcDbEntity
  8
2
370
               9
  6
Continuous
100
AcDbCircle
 10
1404.7552546982461
 20
2095.7795806218382
 30
0.0
 40
5.000000000000016
100
AcDbArc
 50
150.00000000000011
 51
166.99999999999983
  0
LINE
  5
325
100
AcDbEntity
  8
一般
370
               9
  6
Continuous
100
AcDbLine
 10
1425.7500000000009
 20
2101.7208912871406
 30
0.0
 11
1426.554457640573
 21
2110.9158841942372
 31
0.0
  0
LINE
  5
326
100
AcDbEntity
  8
一般
370
               9
  6
Continuous
100
AcDbLine
 10
1410.2500000000009
 20
2101.7208912871406
 30
0.0
 11
1425.7500000000009
 21
2101.7208912871406
 31
0.0
  0
LINE
  5
327
100
AcDbEntity
  8
一般
370
               9
  6
Continuous
100
AcDbLine
 10
1421.0000000000009
 20
2101.7208912871406
 30
0.0
 11
1421.0000000000009
 21
2109.7208912871406
 31
0.0
  0
LINE
  5
328
100
AcDbEntity
  8
一般
370
               9
  6
Continuous
100
AcDbLine
 10
1421.0000000000009
 20
2109.7208912871406
 30
0.0
 11
1415.0000000000009
 21
2109.7208912871406
 31
0.0
  0
LINE
  5
329
100
AcDbEntity
  8
一般
370
               9
  6
Continuous
100
AcDbLine
 10
1410.2500000000009
 20
2101.7208912871406
 30
0.0
 11
1409.5643333032231
 21
2109.5580974935815
 31
0.0
  0
LINE
  5
32A
100
AcDbEntity
  8
一般
370
               9
  6
Continuous
100
AcDbLine
 10
1415.0000000000009
 20
2101.7208912871406
 30
0.0
 11
1415.0000000000009
 21
2109.7208912871406
 31
0.0
  0
LINE
  5
32B
100
AcDbEntity
  8
2
370
              25
  6
Continuous
100
AcDbLine
 10
1260.0
 20
2241.7208912871406
 30
0.0
 11
1175.0
 21
2243.2208912871406
 31
0.0
  0
LINE
  5
32C
100
AcDbEntity
  8
2
370
              25
  6
Continuous
100
AcDbLine
 10
1375.0
 20
2253.2208912871406
 30
0.0
 11
1079.2275251562421
 21
2253.2208912871406
 31
0.0
  0
LINE
  5
32D
100
AcDbEntity
  8
2
370
              25
  6
Continuous
100
AcDbLine
 10
1325.2103939657561
 20
2115.8302539707747
 30
0.0
 11
1265.5247349794679
 21
2118.9582468132899
 31
0.0
  0
LINE
  5
32E
100
AcDbEntity
  8
2
370
               9
  6
Continuous
100
AcDbLine
 10
1374.999999999998
 20
2113.2208912871406
 30
0.0
 11
1347.999999999998
 21
2113.2208912871406
 31
0.0
  0
LINE
  5
32F
100
AcDbEntity
  8
2
370
               9
  6
Continuous
100
AcDbLine
 10
1374.999999999998
 20
2099.2195863840793
 30
0.0
 11
1355.9603629710809
 21
2099.2195863840793
 31
0.0
  0
LWPOLYLINE
  5
330
100
AcDbEntity
  8
2
370
              25
  6
Continuous
100
AcDbPolyline
 90
        9
 70
             128
 10
1324.999999999998
 20
2115.8451038373196
 10
1326.853447148726
 20
2115.7452386921591
 10
1328.70624094752
 20
2115.6339080158364
 10
1330.558310470625
 20
2115.5111160701381
 10
1332.4095848200091
 20
2115.3768675555934
 10
1334.2599931280779
 20
2115.2311676112945
 10
1336.1094645603951
 20
2115.0740218146984
 10
1337.9579283183821
 20
2114.905436181416
 10
1339.805313642039
 20
2114.7254171649779
  0
POINT
  5
331
100
AcDbEntity
  8
2
370
               5
  6
Continuous
100
AcDbPoint
 10
1324.999999999998
 20
2115.8451038373191
 30
0.0
  0
LINE
  5
332
100
AcDbEntity
  8
2
370
               9
  6
Continuous
100
AcDbLine
 10
1396.0
 20
2095.2208912871406
 30
0.0
 11
1350.5052494368231
 21
2095.2208912871406
 31
0.0
  0
LINE
  5
333
100
AcDbEntity
  8
2
370
              25
  6
Continuous
100
AcDbLine
 10
1351.2947282492671
 20
2107.300702771819
 30
0.0
 11
1355.5867354677091
 21
2099.866728203026
 31
0.0
  0
POINT
  5
334
100
AcDbEntity
  8
2
370
               5
  6
Continuous
100
AcDbPoint
 10
1355.9603629710809
 20
2099.2195863840793
 30
0.0
  0
LINE
  5
335
100
AcDbEntity
  8
2
370
              25
  6
Continuous
100
AcDbLine
 10
1356.128458772713
 20
2098.4914834747456
 30
0.0
 11
1356.8835344749741
 21
2095.2208912871406
 31
0.0
  0
LINE
  5
336
100
AcDbEntity
  8
2
370
               9
  6
Continuous
100
AcDbLine
 10
1350.1165956256791
 20
2096.9043358935578
 30
0.0
 11
1350.5052494368231
 21
2095.2208912871406
 31
0.0
  0
ARC
  5
337
100
AcDbEntity
  8
2
370
              25
  6
Continuous
100
AcDbCircle
 10
1338.3043471925
 20
2099.8007027718195
 30
0.0
 40
14.999999999999936
100
AcDbArc
 50
29.999999999999137
 51
84.25711934791957
  0
LINE
  5
338
100
AcDbEntity
  8
2
370
               9
  6
Continuous
100
AcDbLine
 10
1345.581723464521
 20
2105.1959173228829
 30
0.0
 11
1349.574872320675
 21
2098.2795806218382
 31
0.0
  0
POINT
  5
339
100
AcDbEntity
  8
2
370
               5
  6
Continuous
100
AcDbPoint
 10
1347.0304119365401
 20
2114.6867152850082
 30
0.0
  0
ARC
  5
33A
100
AcDbEntity
  8
2
370
              25
  6
Continuous
100
AcDbCircle
 10
1351.256608448786
 20
2097.366728203026
 30
0.0
 40
5.0000000000001297
100
AcDbArc
 50
12.999999999999634
 51
29.999999999996334
  0
ARC
  5
33B
100
AcDbEntity
  8
2
370
               9
  6
Continuous
100
AcDbCircle
 10
1345.244745301753
 20
2095.7795806218382
 30
0.0
 40
4.9999999999999085
100
AcDbArc
 50
13.000000000000218
 51
29.99999999999989
  0
LINE
  5
33C
100
AcDbEntity
  8
一般
370
               9
  6
Continuous
100
AcDbLine
 10
1324.249999999998
 20
2101.7208912871406
 30
0.0
 11
1323.4455423594261
 21
2110.9158841942372
 31
0.0
  0
LINE
  5
33D
100
AcDbEntity
  8
一般
370
               9
  6
Continuous
100
AcDbLine
 10
1339.749999999998
 20
2101.7208912871406
 30
0.0
 11
1324.249999999998
 21
2101.7208912871406
 31
0.0
  0
LINE
  5
33E
100
AcDbEntity
  8
一般
370
               9
  6
Continuous
100
AcDbLine
 10
1328.999999999998
 20
2101.7208912871406
 30
0.0
 11
1328.999999999998
 21
2109.7208912871406
 31
0.0
  0
LINE
  5
33F
100
AcDbEntity
  8
一般
370
               9
  6
Continuous
100
AcDbLine
 10
1328.999999999998
 20
2109.7208912871406
 30
0.0
 11
1334.999999999998
 21
2109.7208912871406
 31
0.0
  0
LINE
  5
340
100
AcDbEntity
  8
一般
370
               9
  6
Continuous
100
AcDbLine
 10
1339.749999999998
 20
2101.7208912871406
 30
0.0
 11
1340.4356666967899
 21
2109.5580974937334
 31
0.0
  0
LINE
  5
341
100
AcDbEntity
  8
一般
370
               9
  6
Continuous
100
AcDbLine
 10
1334.999999999998
 20
2101.7208912871406
 30
0.0
 11
1334.999999999998
 21
2109.7208912871406
 31
0.0
  0
LINE
  5
342
100
AcDbEntity
  8
2
370
               9
  6
Continuous
100
AcDbLine
 10
1078.5
 20
2236.2208912871406
 30
0.0
 11
1075.0
 21
2236.2208912871406
 31
0.0
  0
LINE
  5
343
100
AcDbEntity
  8
2
370
              25
  6
Continuous
100
AcDbLine
 10
1075.2281343756169
 20
2249.2907009128899
 30
0.0
 11
1075.0
 21
2236.2208912871406
 31
0.0
  0
POINT
  5
344
100
AcDbEntity
  8
一般
370
               5
  6
Continuous
100
AcDbPoint
 10
1175.0
 20
2253.2208912871406
 30
0.0
  0
LINE
  5
345
100
AcDbEntity
  8
一般
370
              25
  6
Continuous
100
AcDbLine
 10
1154.1054429468049
 20
2251.2444322622246
 30
0.0
 11
1079.0
 21
2253.2208912871406
 31
0.0
  0
LINE
  5
346
100
AcDbEntity
  8
一般
370
              25
  6
Continuous
100
AcDbLine
 10
1172.6753389577059
 20
2244.1507557040586
 30
0.0
 11
1155.8308629181349
 21
2250.8885461198865
 31
0.0
  0
POINT
  5
347
100
AcDbEntity
  8
一般
370
               5
  6
Continuous
100
AcDbPoint
 10
1175.0
 20
2243.2208912871406
 30
0.0
  0
POINT
  5
348
100
AcDbEntity
  8
一般
370
               5
  6
Continuous
100
AcDbPoint
 10
1155.0
 20
2251.2208912871406
 30
0.0
  0
ARC
  5
349
100
AcDbEntity
  8
一般
370
              25
  6
Continuous
100
AcDbCircle
 10
1153.973909536365
 20
2246.2461626654608
 30
0.0
 40
4.9999999999997566
100
AcDbArc
 50
68.198590513651581
 51
88.492564241231108
  0
LINE
  5
34A
100
AcDbEntity
  8
一般
370
              25
  6
Continuous
100
AcDbLine
 10
1595.8945570531939
 20
2251.2444322622246
 30
0.0
 11
1671.0
 21
2253.2208912871406
 31
0.0
  0
LINE
  5
34B
100
AcDbEntity
  8
2
370
               9
  6
Continuous
100
AcDbLine
 10
1078.7094094044071
 20
2248.2179480307605
 30
0.0
 11
1078.5
 21
2236.2208912871406
 31
0.0
  0
LINE
  5
34C
100
AcDbEntity
  8
一般
370
               9
  6
Continuous
100
AcDbLine
 10
1154.000216218453
 20
2247.2458165848138
 30
0.0
 11
1079.735563781652
 21
2249.2001495436766
 31
0.0
  0
LINE
  5
34D
100
AcDbEntity
  8
一般
370
               9
  6
Continuous
100
AcDbLine
 10
1171.189776252289
 20
2240.4368489405178
 30
0.0
 11
1154.345300212718
 21
2247.1746393563458
 31
0.0
  0
ARC
  5
34E
100
AcDbEntity
  8
一般
370
               9
  6
Continuous
100
AcDbCircle
 10
1153.973909536365
 20
2246.2461626654608
 30
0.0
 40
0.9999999999996643
100
AcDbArc
 50
68.198590513650601
 51
88.492564241222624
  0
LINE
  5
34F
100
AcDbEntity
  8
2
370
               9
  6
Continuous
100
AcDbLine
 10
1337.4448289891061
 20
2110.1822126704287
 30
0.0
 11
1259.556872836474
 21
2114.2641474852817
 31
0.0
  0
ARC
  5
350
100
AcDbEntity
  8
2
370
               9
  6
Continuous
100
AcDbCircle
 10
1336.921469426677
 20
2100.1959173228834
 30
0.0
 40
9.9999999999999183
100
AcDbArc
 50
29.999999999998764
 51
87.000000000000881
  0
ARC
  5
351
100
AcDbEntity
  8
2
370
              25
  6
Continuous
100
AcDbCircle
 10
1079.2275251562421
 20
2249.2208912871406
 30
0.0
 40
4.0
100
AcDbArc
 50
90.0
 51
178.99999999999824
  0
ARC
  5
352
100
AcDbEntity
  8
2
370
               9
  6
Continuous
100
AcDbCircle
 10
1079.709257099564
 20
2248.2004956243236
 30
0.0
 40
0.9999999999999427
100
AcDbArc
 50
88.492564241236337
 51
178.99999999999824
  0
LINE
  5
353
100
AcDbEntity
  8
2
370
               9
  6
Continuous
100
AcDbLine
 10
1671.5
 20
2236.2208912871406
 30
0.0
 11
1675.0
 21
2236.2208912871406
 31
0.0
  0
LINE
  5
354
100
AcDbEntity
  8
2
370
              25
  6
Continuous
100
AcDbLine
 10
1674.7718656243831
 20
2249.2907009128899
 30
0.0
 11
1675.0
 21
2236.2208912871406
 31
0.0
  0
LINE
  5
355
100
AcDbEntity
  8
2
370
               9
  6
Continuous
100
AcDbLine
 10
1671.290590595592
 20
2248.2179480307605
 30
0.0
 11
1671.5
 21
2236.2208912871406
 31
0.0
  0
LINE
  5
356
100
AcDbEntity
  8
一般
370
               9
  6
Continuous
100
AcDbLine
 10
1595.999783781547
 20
2247.2458165848138
 30
0.0
 11
1670.264436218348
 21
2249.2001495436766
 31
0.0
  0
LINE
  5
357
100
AcDbEntity
  8
2
370
               9
  6
Continuous
100
AcDbLine
 10
1412.555171010893
 20
2110.1822126704287
 30
0.0
 11
1484.7369448017459
 21
2113.965099139517
 31
0.0
  0
ARC
  5
358
100
AcDbEntity
  8
2
370
               9
  6
Continuous
100
AcDbCircle
 10
1413.078530573322
 20
2100.1959173228834
 30
0.0
 40
9.9999999999998455
100
AcDbArc
 50
92.999999999999119
 51
150.00000000000125
  0
ARC
  5
359
100
AcDbEntity
  8
2
370
              25
  6
Continuous
100
AcDbCircle
 10
1670.772474843757
 20
2249.2208912871406
 30
0.0
 40
4.0000000000000542
100
AcDbArc
 50
1.0000000000017617
 51
90.0
  0
ARC
  5
35A
100
AcDbEntity
  8
2
370
               9
  6
Continuous
100
AcDbCircle
 10
1670.290742900436
 20
2248.2004956243236
 30
0.0
 40
1.0000000000000135
100
AcDbArc
 50
1.0000000000017617
 51
91.507435758776367
  0
LINE
  5
35B
100
AcDbEntity
  8
一般
370
              25
  6
Continuous
100
AcDbLine
 10
1175.648014707381
 20
2240.8024674751446
 30
0.0
 11
1192.4375453757771
 21
2178.1430859854545
 31
0.0
  0
ARC
  5
35C
100
AcDbEntity
  8
一般
370
              25
  6
Continuous
100
AcDbCircle
 10
1269.7116114789019
 20
2198.848609593656
 30
0.0
 40
80.00000000000027
100
AcDbArc
 50
195.0
 51
267.00000000000057
  0
ARC
  5
35D
100
AcDbEntity
  8
一般
370
               9
  6
Continuous
100
AcDbCircle
 10
1170.8183855759351
 20
2239.5083722496315
 30
0.0
 40
1.0000000000000011
100
AcDbArc
 50
14.999999999994452
 51
68.198590513660292
  0
LINE
  5
35E
100
AcDbEntity
  8
一般
370
               9
  6
Continuous
100
AcDbLine
 10
1171.7843114022239
 20
2239.7671912947349
 30
0.0
 11
1187.6079162443309
 21
2176.8489907599419
 31
0.0
  0
ARC
  5
35F
100
AcDbEntity
  8
一般
370
              25
  6
Continuous
100
AcDbCircle
 10
1170.8183855759351
 20
2239.5083722496315
 30
0.0
 40
5.0000000000001235
100
AcDbArc
 50
14.999999999999483
 51
68.198590513651098
  0
ARC
  5
360
100
AcDbEntity
  8
一般
370
               9
  6
Continuous
100
AcDbCircle
 10
1269.7116114789019
 20
2198.848609593656
 30
0.0
 40
85.000000000000171
100
AcDbArc
 50
195.0
 51
267.00000000000085
  0
POINT
  5
361
100
AcDbEntity
  8
一般
370
               5
  6
Continuous
100
AcDbPoint
 10
1575.0
 20
2253.2208912871406
 30
0.0
  0
LINE
  5
362
100
AcDbEntity
  8
一般
370
              25
  6
Continuous
100
AcDbLine
 10
1577.3246610422941
 20
2244.1507557040586
 30
0.0
 11
1594.1691370818651
 21
2250.8885461198865
 31
0.0
  0
POINT
  5
363
100
AcDbEntity
  8
一般
370
               5
  6
Continuous
100
AcDbPoint
 10
1575.0
 20
2243.2208912871406
 30
0.0
  0
POINT
  5
364
100
AcDbEntity
  8
一般
370
               5
  6
Continuous
100
AcDbPoint
 10
1595.0
 20
2251.2208912871406
 30
0.0
  0
ARC
  5
365
100
AcDbEntity
  8
一般
370
              25
  6
Continuous
100
AcDbCircle
 10
1596.026090463635
 20
2246.2461626654608
 30
0.0
 40
4.9999999999999529
100
AcDbArc
 50
91.507435758768807
 51
111.80140948634748
  0
LINE
  5
366
100
AcDbEntity
  8
一般
370
               9
  6
Continuous
100
AcDbLine
 10
1578.8102237477101
 20
2240.4368489405178
 30
0.0
 11
1595.6546997872811
 21
2247.1746393563458
 31
0.0
  0
ARC
  5
367
100
AcDbEntity
  8
一般
370
               9
  6
Continuous
100
AcDbCircle
 10
1596.026090463635
 20
2246.2461626654608
 30
0.0
 40
0.9999999999997215
100
AcDbArc
 50
91.507435758777021
 51
111.80140948636151
  0
LINE
  5
368
100
AcDbEntity
  8
一般
370
              25
  6
Continuous
100
AcDbLine
 10
1574.351985292619
 20
2240.8024674751446
 30
0.0
 11
1557.5624546242229
 21
2178.1430859854545
 31
0.0
  0
ARC
  5
369
100
AcDbEntity
  8
一般
370
              25
  6
Continuous
100
AcDbCircle
 10
1480.288388521097
 20
2198.848609593656
 30
0.0
 40
80.000000000000142
100
AcDbArc
 50
272.9999999999992
 51
345.0
  0
ARC
  5
36A
100
AcDbEntity
  8
一般
370
               9
  6
Continuous
100
AcDbCircle
 10
1579.181614424064
 20
2239.5083722496315
 30
0.0
 40
1.000000000000171
100
AcDbArc
 50
111.80140948635182
 51
165.00000000000892
  0
LINE
  5
36B
100
AcDbEntity
  8
一般
370
               9
  6
Continuous
100
AcDbLine
 10
1578.2156885977749
 20
2239.7671912947349
 30
0.0
 11
1562.392083755668
 21
2176.8489907599419
 31
0.0
  0
ARC
  5
36C
100
AcDbEntity
  8
一般
370
              25
  6
Continuous
100
AcDbCircle
 10
1579.181614424064
 20
2239.5083722496315
 30
0.0
 40
4.9999999999999263
100
AcDbArc
 50
111.80140948635326
 51
164.99999999999983
  0
ARC
  5
36D
100
AcDbEntity
  8
一般
370
               9
  6
Continuous
100
AcDbCircle
 10
1480.288388521097
 20
2198.848609593656
 30
0.0
 40
85.000000000000171
100
AcDbArc
 50
272.99999999999915
 51
345.0
  0
LINE
  5
36E
100
AcDbEntity
  8
2
370
              25
  6
Continuous
100
AcDbLine
 10
1375.0
 20
2241.7208912871406
 30
0.0
 11
1260.0
 21
2241.7208912871406
 31
0.0
  0
POINT
  5
36F
100
AcDbEntity
  8
一般
370
               5
  6
Continuous
100
AcDbPoint
 10
1260.0
 20
2241.7208912871406
 30
0.0
  0
LINE
  5
370
100
AcDbEntity
  8
2
370
              25
  6
Continuous
100
AcDbLine
 10
1375.0
 20
2241.7208912871406
 30
0.0
 11
1490.0
 21
2241.7208912871406
 31
0.0
  0
POINT
  5
371
100
AcDbEntity
  8
一般
370
               5
  6
Continuous
100
AcDbPoint
 10
1490.0
 20
2241.7208912871406
 30
0.0
  0
DIMENSION
  5
372
100
AcDbEntity
  8
寸法
370
               9
  6
Continuous
100
AcDbDimension
  2
*D20
 10
1074.9706837635431
 20
2303.2208912983169
 30
0.0
 11
1114.9853418817711
 21
2314.8042246279247
 31
0.0
 70
             128
 71
               5
 72
               1
 41
1.0
 42
0.0
  3
Ekitchen
100
AcDbAlignedDimension
 13
1155.0
 23
2253.2208912983165
 33
0.0
 14
1074.9706837635431
 24
2245.2208912983165
 34
0.0
100
AcDbRotatedDimension
1001
ACAD
1000
DSTYLE
1002
{
1070
             271
1070
               1
1070
             279
1070
               2
1070
             340
1005
48
1070
             140
1040
16.288411458333332
1070
             147
1040
11.583333329607967
1002
}
  0
DIMENSION
  5
373
100
AcDbEntity
  8
寸法
370
               9
  6
Continuous
100
AcDbDimension
  2
*D21
 10
1575.0
 20
2281.2208912871406
 30
0.0
 11
1585.0
 21
2281.2208912871406
 31
0.0
 71
               5
 72
               1
 41
1.0
 42
0.0
  3
Ekitchen
100
AcDbAlignedDimension
 13
1595.0
 23
2251.2208912871406
 33
0.0
 14
1575.0
 24
2243.2208912871406
 34
0.0
100
AcDbRotatedDimension
1001
ACAD
1000
DSTYLE
1002
{
1070
             271
1070
               1
1070
             279
1070
               2
1070
             340
1005
48
1070
             140
1040
16.288411458333332
1070
             147
1040
0.7999999970197678
1002
}
  0
DIMENSION
  5
374
100
AcDbEntity
  8
寸法
370
               9
  6
Continuous
100
AcDbDimension
  2
*D22
 10
1984.0
 20
2520.0
 30
0.0
 11
1984.0
 21
2525.0
 31
0.0
 71
               5
 72
               1
 41
1.0
 42
0.0
  3
Ekitchen
100
AcDbAlignedDimension
 13
2057.6147973931829
 23
2530.0
 33
0.0
 14
2049.6147973931829
 24
2520.0
 34
0.0
 50
90.0
100
AcDbRotatedDimension
1001
ACAD
1000
DSTYLE
1002
{
1070
             271
1070
               1
1070
             279
1070
               2
1070
             340
1005
48
1070
             140
1040
16.288411458333332
1070
             147
1040
0.7999999970197678
1002
}
  0
DIMENSION
  5
375
100
AcDbEntity
  8
寸法
370
               9
  6
Continuous
100
AcDbDimension
  2
*D23
 10
1670.772474843757
 20
2249.2208912871406
 30
0.0
 11
1682.9240662774521
 21
2261.1224827208357
 31
0.0
 70
               4
 71
               5
 72
               1
 41
1.0
 42
0.0
  3
Ekitchen
100
AcDbRadialDimension
 15
1673.600901968503
 25
2252.0493184118868
 35
0.0
 40
12.831392019355352
1001
ACAD
1000
DSTYLE
1002
{
1070
             271
1070
               1
1070
             289
1070
               0
1070
             342
1005
81
1070
             340
1005
48
1070
             140
1040
16.288411458333332
1070
               3
1000

1070
             174
1070
               0
1070
             147
1040
0.7999999970197678
1002
}
  0
MTEXT
  5
376
100
AcDbEntity
  8
一般
100
AcDbMText
 10
1065.814443906148
 20
2382.661880628124
 30
0.0
 40
19.003146701388893
 41
0.0
 71
               1
 72
               1
  1
Sec  B - B
  7
ＭＳ ゴシック
 73
               1
 44
0.6736891036366471
  0
LINE
  5
377
100
AcDbEntity
  8
一般
370
               9
  6
STYLE_08
100
AcDbLine
 10
1329.0
 20
2850.0
 30
0.0
 11
1039.0
 21
2850.0
 31
0.0
  0
LINE
  5
378
100
AcDbEntity
  8
一般
370
               9
  6
Continuous
100
AcDbLine
 10
1051.0
 20
2850.0
 30
0.0
 11
1051.0
 21
2871.0
 31
0.0
  0
LWPOLYLINE
  5
379
100
AcDbEntity
  8
一般
370
               9
  6
Continuous
100
AcDbPolyline
 90
        3
 70
             128
 10
1047.5970452561251
 20
2858.3000000000002
 10
1051.0
 20
2871.0
 10
1054.4029547438749
 20
2858.3000000000002
  0
MTEXT
  5
37A
100
AcDbEntity
  8
一般
100
AcDbMText
 10
1046.7320508075691
 20
2844.7601429868155
 30
0.0
 40
16.288411458333332
 41
0.0
 71
               1
 72
               1
  1
B
  7
ＭＳ ゴシック
 73
               1
 44
0.7859706209094218
  0
LINE
  5
37B
100
AcDbEntity
  8
一般
370
               9
  6
STYLE_08
100
AcDbLine
 10
1431.0
 20
2850.0
 30
0.0
 11
1731.0
 21
2850.0
 31
0.0
  0
LINE
  5
37C
100
AcDbEntity
  8
一般
370
               9
  6
Continuous
100
AcDbLine
 10
1711.2679491924309
 20
2850.0
 30
0.0
 11
1711.2679491924309
 21
2871.0
 31
0.0
  0
LWPOLYLINE
  5
37D
100
AcDbEntity
  8
一般
370
               9
  6
Continuous
100
AcDbPolyline
 90
        3
 70
             128
 10
1707.864994448556
 20
2858.3000000000002
 10
1711.2679491924309
 20
2871.0
 10
1714.6709039363059
 20
2858.3000000000002
  0
MTEXT
  5
37E
100
AcDbEntity
  8
一般
100
AcDbMText
 10
1707.0
 20
2844.7601429868155
 30
0.0
 40
16.288411458333332
 41
0.0
 71
               1
 72
               1
  1
B
  7
ＭＳ ゴシック
 73
               1
 44
0.7859706209094218
  0
CIRCLE
  5
37F
100
AcDbEntity
  8
一般
370
              20
  6
Continuous
100
AcDbCircle
 10
1235.0
 20
2213.2208912871406
 30
0.0
 40
15.0
  0
DIMENSION
  5
380
100
AcDbEntity
  8
寸法
370
               9
  6
Continuous
100
AcDbDimension
  2
*D24
 10
2047.6147973931829
 20
2548.0
 30
0.0
 11
2041.3073986965915
 21
2559.3833333303528
 31
0.0
 70
             128
 71
               5
 72
               1
 41
1.0
 42
0.0
  3
Ekitchen
100
AcDbAlignedDimension
 13
2049.6147973931829
 23
2520.0
 33
0.0
 14
2047.6147973931829
 24
2526.0
 34
0.0
100
AcDbRotatedDimension
1001
ACAD
1000
DSTYLE
1002
{
1070
             271
1070
               1
1070
             279
1070
               2
1070
             340
1005
48
1070
             140
1040
16.288411458333332
1070
             174
1070
               0
1070
             147
1040
11.383333330353022
1002
}
  0
DIMENSION
  5
381
100
AcDbEntity
  8
寸法
370
               9
  6
Continuous
100
AcDbDimension
  2
*D25
 10
1564.20000000298
 20
2253.2208912871406
 30
0.0
 11
1552.816666672627
 21
2255.0769566245326
 31
0.0
 70
             128
 71
               5
 72
               1
 41
1.0
 42
0.0
  3
Ekitchen
100
AcDbAlignedDimension
 13
1595.8945570531939
 23
2251.2444322622246
 33
0.0
 14
1592.0
 24
2253.2208912871406
 34
0.0
 50
90.0
100
AcDbRotatedDimension
1001
ACAD
1000
DSTYLE
1002
{
1070
             271
1070
               1
1070
             279
1070
               2
1070
             340
1005
48
1070
             140
1040
16.288411458333332
1070
             174
1070
               0
1070
             147
1040
11.383333330353022
1002
}
  0
INSERT
  5
382
100
AcDbEntity
  8
一般
100
AcDbBlockReference
  2
*U33
 10
1653.2635435877576
 20
2583.4605432789258
 30
0.0
  0
LINE
  5
383
100
AcDbEntity
  8
一般
370
              25
  6
Continuous
100
AcDbLine
 10
1639.1421356237311
 20
2236.2208912871406
 30
0.0
 11
1675.0
 21
2236.2208912871406
 31
0.0
  0
LINE
  5
384
100
AcDbEntity
  8
一般
370
              25
  6
Continuous
100
AcDbLine
 10
1632.0710678118651
 20
2239.1498234752748
 30
0.0
 11
1623.18191265522
 21
2248.0389786319206
 31
0.0
  0
POINT
  5
385
100
AcDbEntity
  8
一般
370
               5
  6
Continuous
100
AcDbPoint
 10
1675.0
 20
2236.2208912871406
 30
0.0
  0
ARC
  5
386
100
AcDbEntity
  8
一般
370
              25
  6
Continuous
100
AcDbCircle
 10
1639.1421356237311
 20
2246.2208912871406
 30
0.0
 40
10.000000000000082
100
AcDbArc
 50
225.0
 51
270.0
  0
LINE
  5
387
100
AcDbEntity
  8
一般
370
              25
  6
Continuous
100
AcDbLine
 10
1110.8578643762689
 20
2236.2208912871406
 30
0.0
 11
1075.0
 21
2236.2208912871406
 31
0.0
  0
LINE
  5
388
100
AcDbEntity
  8
一般
370
              25
  6
Continuous
100
AcDbLine
 10
1117.9289321881349
 20
2239.1498234752748
 30
0.0
 11
1126.81808734478
 21
2248.0389786319206
 31
0.0
  0
ARC
  5
389
100
AcDbEntity
  8
一般
370
              25
  6
Continuous
100
AcDbCircle
 10
1110.8578643762689
 20
2246.2208912871406
 30
0.0
 40
10.0
100
AcDbArc
 50
270.0
 51
315.0
  0
DIMENSION
  5
38A
100
AcDbEntity
  8
寸法
370
               9
  6
Continuous
100
AcDbDimension
  2
*D34
 10
1712.0
 20
2236.2208912871406
 30
0.0
 11
1712.0
 21
2244.7208912871406
 31
0.0
 71
               5
 72
               1
 41
1.0
 42
0.0
  3
Ekitchen
100
AcDbAlignedDimension
 13
1671.0
 23
2253.2208912871406
 33
0.0
 14
1675.0
 24
2236.2208912871406
 34
0.0
 50
90.0
100
AcDbRotatedDimension
1001
ACAD
1000
DSTYLE
1002
{
1070
             271
1070
               1
1070
             279
1070
               2
1070
             340
1005
48
1070
             140
1040
16.288411458333332
1070
             147
1040
0.7999999970197678
1002
}
  0
DIMENSION
  5
38B
100
AcDbEntity
  8
寸法
370
               9
  6
Continuous
100
AcDbDimension
  2
*D35
 10
1375.0
 20
2274.2208912871411
 30
0.0
 11
1305.0
 21
2274.2208912871411
 31
0.0
 71
               5
 72
               1
 41
1.0
 42
0.0
  3
Ekitchen
100
AcDbAlignedDimension
 13
1235.0
 23
2274.2208912871411
 33
0.0
 14
1375.0
 24
2274.2208912871411
 34
0.0
100
AcDbRotatedDimension
1001
ACAD
1000
DSTYLE
1002
{
1070
             271
1070
               1
1070
             279
1070
               2
1070
             340
1005
48
1070
             140
1040
16.288411458333332
1070
             147
1040
0.7999999970197678
1002
}
  0
DIMENSION
  5
38C
100
AcDbEntity
  8
寸法
370
               9
  6
Continuous
100
AcDbDimension
  2
*D36
 10
1284.0
 20
2213.2208912871406
 30
0.0
 11
1284.0
 21
2228.2208912871406
 31
0.0
 71
               5
 72
               1
 41
1.0
 42
0.0
  3
Ekitchen
100
AcDbAlignedDimension
 13
1266.0
 23
2243.2208912871406
 33
0.0
 14
1257.0
 24
2213.2208912871406
 34
0.0
 50
90.0
100
AcDbRotatedDimension
1001
ACAD
1000
DSTYLE
1002
{
1070
             271
1070
               1
1070
             279
1070
               2
1070
             340
1005
48
1070
             140
1040
16.288411458333332
1070
             147
1040
0.7999999970197678
1002
}
  0
LINE
  5
38D
100
AcDbEntity
  8
一般
370
               9
  6
Continuous
100
AcDbLine
 10
1224.0
 20
2203.022852259955
 30
0.0
 11
1181.543787088845
 21
2166.1689900697747
 31
0.0
  0
LWPOLYLINE
  5
38E
102
{ACAD_REACTORS
330
38F
102
}
100
AcDbEntity
  8
一般
370
               5
  6
Continuous
100
AcDbPolyline
 90
        3
 70
             129
 10
1220.278226903956
 20
2201.2076222337669
 10
1224.0
 20
2203.022852259955
 10
1221.684464964799
 20
2199.5899303955421
  0
HATCH
  5
38F
100
AcDbEntity
  8
一般
370
               0
  6
Continuous
 62
               7
100
AcDbHatch
 10
0.0
 20
0.0
 30
0.0
210
0.0
220
0.0
230
1.0
  2
SOLID
 70
               1
 71
               1
 91
        1
 92
        1
 93
        3
 72
               1
 10
1220.278226903956
 20
2201.2076222337669
 11
1224.0
 21
2203.022852259955
 72
               1
 10
1224.0
 20
2203.022852259955
 11
1221.684464964799
 21
2199.5899303955421
 72
               1
 10
1221.684464964799
 20
2199.5899303955421
 11
1220.278226903956
 21
2201.2076222337669
 97
        1
330
38E
 75
               0
 76
               1
 98
        1
 10
0.0
 20
0.0
  0
LINE
  5
390
100
AcDbEntity
  8
一般
370
               9
  6
Continuous
100
AcDbLine
 10
993.44231886832461
 20
2166.1689900697747
 30
0.0
 11
1181.543787088845
 21
2166.1689900697747
 31
0.0
  0
LINE
  5
391
100
AcDbEntity
  8
一般
370
               9
  6
STYLE_05
100
AcDbLine
 10
2072.6147973931829
 20
2918.6876700471112
 30
0.0
 11
2072.9713573901558
 21
2922.7631694615802
 31
0.0
  0
LINE
  5
392
100
AcDbEntity
  8
一般
370
               9
  6
STYLE_05
100
AcDbLine
 10
2102.6147973931829
 20
2916.0630101413331
 30
0.0
 11
2103.0020897954519
 21
2920.489782555725
 31
0.0
  0
POINT
  5
393
100
AcDbEntity
  8
一般
370
               5
  6
Continuous
100
AcDbPoint
 10
2087.6147973931829
 20
2917.3753400942223
 30
0.0
  0
LINE
  5
394
100
AcDbEntity
  8
一般
370
               9
  6
STYLE_05
100
AcDbLine
 10
2061.9130049261589
 20
2979.0
 30
0.0
 11
2057.6147973931829
 21
2979.0
 31
0.0
  0
LINE
  5
395
100
AcDbEntity
  8
一般
370
               9
  6
STYLE_05
100
AcDbLine
 10
2062.4849689378761
 20
2941.0
 30
0.0
 11
2058.5251573390328
 21
2941.0
 31
0.0
  0
POINT
  5
396
100
AcDbEntity
  8
一般
370
               5
  6
Continuous
100
AcDbPoint
 10
1375.0
 20
3030.0
 30
0.0
  0
MTEXT
  5
397
100
AcDbEntity
  8
一般
100
AcDbMText
 10
2289.2956469520218
 20
1988.7781467013888
 30
0.0
 40
17.700900607638889
 41
0.0
 71
               1
 72
               1
  1
CT{\fＭＳ ゴシック|b0|i0|c0|p0;\H1.074x;\l型　}W600
  7
Arial
 73
               1
 44
0.9002507491896519
  0
ENDSEC
  0
SECTION
  2
OBJECTS
  0
DICTIONARY
  5
19
100
AcDbDictionary
280
               0
281
               1
  3
ACAD_GROUP
350
1A
  3
ACAD_MLINESTYLE
350
1B
  3
ACAD_LAYOUT
350
1E
  3
ACAD_PLOTSETTINGS
350
22
  3
ACAD_PLOTSTYLENAME
350
1F
  3
ACAD_WIPEOUT_VARS
350
23
  0
DICTIONARY
  5
1A
102
{ACAD_REACTORS
330
19
102
}
100
AcDbDictionary
280
               0
281
               1
  0
DICTIONARY
  5
1B
102
{ACAD_REACTORS
330
19
102
}
100
AcDbDictionary
280
               0
281
               1
  3
Standard
350
1C
  0
MLINESTYLE
  5
1C
102
{ACAD_REACTORS
330
1B
102
}
100
AcDbMlineStyle
  2
Standard
 70
               0
  3

 62
               0
 51
90.0
 52
90.0
 71
               2
 49
0.5
 62
             256
  6
ByLayer
 49
-0.5
 62
             256
  6
ByLayer
  0
ACDBDICTIONARYWDFLT
  5
1F
102
{ACAD_REACTORS
330
19
102
}
100
AcDbDictionary
281
               1
  3
Normal
350
1D
100
AcDbDictionaryWithDefault
340
1D
  0
ACDBPLACEHOLDER
  5
1D
102
{ACAD_REACTORS
330
1F
102
}
  0
LAYOUT
  5
20
102
{ACAD_REACTORS
330
1E
102
}
100
AcDbPlotSettings
  1

  2

  4

  6

 40
0.0
 41
0.0
 42
0.0
 43
0.0
 44
0.0
 45
0.0
 46
0.0
 47
0.0
 48
0.0
 49
0.0
140
0.0
141
0.0
142
1.0
143
1.0
 70
            1024
 72
               0
 73
               0
 74
               0
  7

 75
               0
147
1.0
148
0.0
149
0.0
100
AcDbLayout
  1
Model
 70
               0
 71
               0
 10
0.0
 20
0.0
 11
0.0
 21
0.0
 12
0.0
 22
0.0
 32
0.0
 14
0.0
 24
0.0
 34
0.0
 15
0.0
 25
0.0
 35
0.0
146
0.0
 13
0.0
 23
0.0
 33
0.0
 16
0.0
 26
0.0
 36
0.0
 17
0.0
 27
0.0
 37
0.0
 76
               0
330
A
331
0
345
0
346
0
  0
LAYOUT
  5
21
102
{ACAD_REACTORS
330
1E
102
}
100
AcDbPlotSettings
  1

  2

  4

  6

 40
0.0
 41
0.0
 42
0.0
 43
0.0
 44
0.0
 45
0.0
 46
0.0
 47
0.0
 48
0.0
 49
0.0
140
0.0
141
0.0
142
1.0
143
1.0
 70
               0
 72
               0
 73
               0
 74
               0
  7

 75
               0
147
1.0
148
0.0
149
0.0
100
AcDbLayout
  1
Layout1
 70
               0
 71
               0
 10
0.0
 20
0.0
 11
0.0
 21
0.0
 12
0.0
 22
0.0
 32
0.0
 14
0.0
 24
0.0
 34
0.0
 15
0.0
 25
0.0
 35
0.0
146
0.0
 13
0.0
 23
0.0
 33
0.0
 16
0.0
 26
0.0
 36
0.0
 17
0.0
 27
0.0
 37
0.0
 76
               0
330
B
331
0
345
0
346
0
  0
DICTIONARY
  5
1E
102
{ACAD_REACTORS
330
19
102
}
100
AcDbDictionary
280
               0
281
               1
  3
Layout1
350
21
  3
Model
350
20
  0
DICTIONARY
  5
22
102
{ACAD_REACTORS
330
19
102
}
100
AcDbDictionary
280
               0
281
               1
  0
WIPEOUTVARIABLES
  5
23
100
AcDbWipeoutVariables
 70
               0
  0
ENDSEC
  0
EOF
